<?xml version="1.0" standalone="no"?>
<!DOCTYPE svg PUBLIC "-//W3C//DTD SVG 1.1//EN" "http://www.w3.org/Graphics/SVG/1.1/DTD/svg11.dtd" >
<svg xmlns="http://www.w3.org/2000/svg" xmlns:xlink="http://www.w3.org/1999/xlink" version="1.1">
<metadata>
Created by FontForge 20170731 at Wed Sep  6 15:13:22 2023
 By Aleksey,,,
Copyright 2017-2021 Indian Type Foundry. All rights reserved.
</metadata>
<defs>
<font id="Satoshi-Regular" horiz-adv-x="1351" >
  <font-face 
    font-family="Satoshi"
    font-weight="400"
    font-stretch="normal"
    units-per-em="2048"
    panose-1="0 0 0 0 0 0 0 0 0 0"
    ascent="1638"
    descent="-410"
    x-height="991"
    cap-height="1466"
    bbox="-416 -459 3316 2101"
    underline-thickness="163"
    underline-position="-562"
    unicode-range="U+0020-FB04"
  />
<missing-glyph horiz-adv-x="1024" 
d="M102 -432v2197h820v-2197h-820zM205 -330h614v1993h-614v-1993z" />
    <glyph glyph-name="f_f" unicode="ff" horiz-adv-x="1220" 
d="M37 991h151v193q0 159 75.5 234t199.5 75q64 0 108 -8v-123h-86q-88 0 -121.5 -42.5t-33.5 -135.5v-193h471v193q0 158 75.5 233.5t198.5 75.5q65 0 109 -8v-123h-84q-90 0 -124 -42.5t-34 -135.5v-193h234v-119h-234v-872h-141v872h-471v-872h-142v872h-151v119z" />
    <glyph glyph-name="fi" unicode="fi" horiz-adv-x="1083" 
d="M801 0v872h-471v-872h-142v872h-151v119h151v193q0 158 75 233.5t194 75.5q66 0 110 -8v-123h-86q-86 0 -118.5 -42.5t-32.5 -135.5v-193h612v-991h-141zM870 1274q-43 0 -70.5 27.5t-27.5 70.5t28 72t70 29q41 0 70 -29t29 -72q0 -42 -28.5 -70t-70.5 -28z" />
    <glyph glyph-name="fl" unicode="fl" horiz-adv-x="1071" 
d="M918 0h-142v872h-446v-872h-142v872h-151v119h151v193q0 158 75 233.5t194 75.5q64 0 108 -8v-123h-84q-87 0 -119 -42.5t-32 -135.5v-193h446v502h142v-1493z" />
    <glyph glyph-name="f_f_i" unicode="ffi" horiz-adv-x="1695" 
d="M37 991h151v193q0 159 75.5 234t199.5 75q64 0 108 -8v-123h-86q-88 0 -121.5 -42.5t-33.5 -135.5v-193h471v193q0 158 75 233.5t195 75.5q65 0 109 -8v-123h-84q-87 0 -120.5 -43t-33.5 -135v-193h612v-991h-141v872h-471v-872h-141v872h-471v-872h-142v872h-151v119z
M1483 1294q-41 0 -70 28t-29 69q0 43 29 72.5t70 29.5q42 0 70 -29.5t28 -72.5q0 -41 -27.5 -69t-70.5 -28z" />
    <glyph glyph-name="f_f_l" unicode="ffl" horiz-adv-x="1685" 
d="M37 991h151v193q0 159 75.5 234t199.5 75q64 0 108 -8v-123h-86q-88 0 -121.5 -42.5t-33.5 -135.5v-193h471v193q0 158 75.5 233.5t198.5 75.5q65 0 109 -8v-123h-84q-90 0 -124 -42.5t-34 -135.5v-193h449v502h139v-1493h-139v872h-449v-872h-141v872h-471v-872h-142
v872h-151v119z" />
    <glyph glyph-name="f_t" unicode="ft" horiz-adv-x="1212" 
d="M977 0h-139v872h-508v-872h-142v872h-151v119h151v193q0 158 75 233.5t194 75.5q66 0 110 -8v-123h-86q-86 0 -118.5 -42.5t-32.5 -135.5v-193h508v314h139v-314h199v-119h-199v-872z" />
    <glyph glyph-name=".notdef" horiz-adv-x="1024" 
d="M102 -432v2197h820v-2197h-820zM205 -330h614v1993h-614v-1993z" />
    <glyph glyph-name=".null" horiz-adv-x="0" 
 />
    <glyph glyph-name="nonmarkingreturn" horiz-adv-x="682" 
 />
    <glyph glyph-name="space" unicode=" " horiz-adv-x="567" 
 />
    <glyph glyph-name="exclam" unicode="!" horiz-adv-x="555" 
d="M328 440h-103q-24 218 -24 680v346h153v-346q0 -444 -26 -680zM279 -29q-54 0 -91.5 38t-37.5 91t37.5 90t91.5 37q51 0 89 -37.5t38 -89.5t-38 -90.5t-89 -38.5z" />
    <glyph glyph-name="quotedbl" unicode="&#x22;" horiz-adv-x="649" 
d="M266 1366l-39 -408h-92l-41 408q-6 50 22 77t66 27q37 0 63.5 -27t20.5 -77zM555 1366l-39 -408h-92l-41 408q-6 50 22 77t66 27q37 0 63.5 -27t20.5 -77z" />
    <glyph glyph-name="numbersign" unicode="#" horiz-adv-x="1382" 
d="M123 565h213l67 336h-249l24 133h250l86 432h139l-84 -432h359l86 432h141l-86 -432h217l-26 -133h-216l-67 -336h227l-24 -133h-228l-86 -432h-141l86 432h-360l-84 -432h-142l86 432h-215zM477 565h359l67 336h-360z" />
    <glyph glyph-name="dollar" unicode="$" horiz-adv-x="1153" 
d="M520 -203v180q-194 11 -315 115.5t-133 272.5h151q6 -107 85.5 -175.5t211.5 -78.5v569l-80 20q-350 84 -350 385q0 170 117.5 280.5t312.5 125.5v178h109v-178q179 -12 288.5 -115t124.5 -276h-147q-10 115 -78.5 181.5t-187.5 78.5v-563l90 -23q348 -86 348 -383
q0 -177 -118 -288t-320 -126v-180h-109zM467 836l53 -13v535q-131 -14 -207.5 -86.5t-76.5 -184.5q0 -193 231 -251zM688 639l-59 14v-542q136 14 214.5 86.5t78.5 185.5q0 201 -234 256z" />
    <glyph glyph-name="percent" unicode="%" horiz-adv-x="1861" 
d="M817 1130q0 -158 -100.5 -260t-257.5 -102t-259 102t-102 260t102 261.5t259 103.5q156 0 257 -103t101 -262zM1561 1466l-1115 -1466h-147l1112 1466h150zM694 1130q0 109 -65.5 177.5t-169.5 68.5q-106 0 -172 -68.5t-66 -177.5q0 -107 67 -176t171 -69q103 0 169 69
t66 176zM1763 336q0 -158 -100.5 -260.5t-257.5 -102.5t-259 102.5t-102 260.5t102 261t259 103q156 0 257 -102.5t101 -261.5zM1640 336q0 109 -65.5 177.5t-169.5 68.5q-106 0 -172 -68.5t-66 -177.5q0 -107 67 -175.5t171 -68.5q103 0 169 68.5t66 175.5z" />
    <glyph glyph-name="ampersand" unicode="&#x26;" horiz-adv-x="1396" 
d="M1202 0l-131 152q-179 -179 -467 -179q-232 0 -371 109t-139 291q0 139 88.5 249.5t286.5 217.5q-104 122 -145 197.5t-41 154.5q0 133 91 216t240 83q141 0 229.5 -79t88.5 -208q0 -110 -62.5 -201t-207.5 -188l399 -461q63 132 63 316h138q0 -244 -111 -418l219 -252
h-168zM586 903l2 -2q107 68 158 140.5t51 158.5q0 80 -49.5 126t-135.5 46q-89 0 -140.5 -48.5t-51.5 -131.5q0 -56 33.5 -115.5t132.5 -173.5zM240 381q0 -134 98.5 -209.5t273.5 -75.5q242 0 377 150l-446 510q-166 -92 -234.5 -177t-68.5 -198z" />
    <glyph glyph-name="quotesingle" unicode="'" horiz-adv-x="360" 
d="M266 1366l-39 -408h-92l-41 408q-6 50 22 77t66 27q37 0 63.5 -27t20.5 -77z" />
    <glyph glyph-name="parenleft" unicode="(" horiz-adv-x="520" 
d="M520 -322h-129q-131 180 -208 428t-77 508q0 253 76 501.5t209 432.5h129q-122 -171 -195 -417.5t-73 -516.5q0 -267 72.5 -516t195.5 -420z" />
    <glyph glyph-name="parenright" unicode=")" horiz-adv-x="520" 
d="M129 -322h-129q124 172 197 421t73 515q0 269 -74 516t-196 418h129q133 -183 209 -431.5t76 -502.5q0 -260 -77 -508t-208 -428z" />
    <glyph glyph-name="asterisk" unicode="*" horiz-adv-x="825" 
d="M188 1165l-129 45l35 90l125 -43q100 -34 164 -75q-18 76 -18 176v137h96v-137q0 -83 -19 -176q77 46 160 75l125 46l39 -93l-131 -45q-92 -33 -172 -43q52 -47 115 -135l75 -110l-80 -56l-77 109q-55 79 -86 155q-21 -69 -82 -155l-80 -109l-80 56l76 110q49 71 116 135
q-93 12 -172 43z" />
    <glyph glyph-name="plus" unicode="+" 
d="M164 754h448v448h127v-448h449v-127h-449v-451h-127v451h-448v127z" />
    <glyph glyph-name="comma" unicode="," horiz-adv-x="536" 
d="M397 70q0 -95 -65 -168.5t-160 -87.5v75q55 9 91 44.5t36 78.5q-21 -14 -53 -14q-45 0 -76 30t-31 81q0 54 33.5 88t87.5 34q58 0 97.5 -43.5t39.5 -117.5z" />
    <glyph glyph-name="hyphen" unicode="-" horiz-adv-x="856" 
d="M131 475v127h594v-127h-594z" />
    <glyph glyph-name="period" unicode="." horiz-adv-x="536" 
d="M268 -23q-53 0 -91 37t-38 88q0 52 38.5 90.5t90.5 38.5t90.5 -38.5t38.5 -90.5q0 -51 -38 -88t-91 -37z" />
    <glyph glyph-name="slash" unicode="/" horiz-adv-x="714" 
d="M139 0h-139l571 1466h144z" />
    <glyph glyph-name="zero" unicode="0" horiz-adv-x="1398" 
d="M113 733q0 227 70 399t203.5 267.5t313.5 95.5q269 0 427.5 -209t158.5 -553q0 -228 -69.5 -399.5t-202.5 -266t-314 -94.5q-182 0 -315.5 94.5t-202.5 266t-69 399.5zM258 733q0 -289 116.5 -458t325.5 -169t326 169t117 458q0 290 -117 458.5t-326 168.5t-325.5 -168.5
t-116.5 -458.5z" />
    <glyph glyph-name="one" unicode="1" horiz-adv-x="684" 
d="M371 1333h-299v133h440v-1466h-141v1333z" />
    <glyph glyph-name="two" unicode="2" horiz-adv-x="1150" 
d="M1059 0h-967v117l469 409q204 178 272 280t68 232q0 149 -83.5 234.5t-229.5 85.5q-152 0 -244.5 -102t-97.5 -273h-148q6 230 140.5 370t351.5 140q207 0 334 -122.5t127 -323.5q0 -158 -83.5 -287.5t-305.5 -323.5l-343 -299h740v-137z" />
    <glyph glyph-name="three" unicode="3" horiz-adv-x="1163" 
d="M518 786h-117v103l453 446h-702v131h888v-118l-438 -437q209 -11 340 -134t131 -320q0 -216 -142.5 -349t-367.5 -133q-219 0 -351 126.5t-132 344.5h145q0 -157 91 -247t247 -90q164 0 262.5 96t98.5 256q0 152 -105.5 238.5t-300.5 86.5z" />
    <glyph glyph-name="four" unicode="4" horiz-adv-x="1284" 
d="M1167 311h-172v-311h-143v311h-770v131l717 1024h196v-1024h172v-131zM242 442h610v873z" />
    <glyph glyph-name="five" unicode="5" horiz-adv-x="1193" 
d="M594 -25q-221 0 -352 128.5t-131 345.5h147q0 -158 90.5 -248t247.5 -90q165 0 265 100.5t100 263.5q0 159 -98 263t-267 104q-98 0 -187 -41t-151 -109l-117 37l176 737h709v-135h-602l-111 -461q128 103 303 103q223 0 358.5 -141.5t135.5 -352.5q0 -222 -143.5 -363
t-372.5 -141z" />
    <glyph glyph-name="six" unicode="6" horiz-adv-x="1234" 
d="M279 973l366 493h172l-385 -510q100 50 201 50q225 0 366.5 -145.5t141.5 -364.5q0 -224 -149.5 -372.5t-370.5 -148.5q-145 0 -266 68.5t-191 188.5t-70 264q0 127 40.5 231t144.5 246zM244 494q0 -168 105.5 -276.5t271.5 -108.5q162 0 267 108.5t105 276.5
q0 167 -104.5 275t-267.5 108q-167 0 -272 -107.5t-105 -275.5z" />
    <glyph glyph-name="seven" unicode="7" horiz-adv-x="1032" 
d="M18 1466h998v-135l-578 -1331h-151l579 1331h-848v135z" />
    <glyph glyph-name="eight" unicode="8" horiz-adv-x="1253" 
d="M104 399q0 134 76 236.5t207 146.5q-110 44 -170.5 131t-60.5 201q0 169 131 274t342 105q209 0 337 -105t128 -276q0 -116 -59.5 -202.5t-168.5 -127.5q128 -40 205.5 -144t77.5 -241q0 -188 -144.5 -305t-377.5 -117t-378 117.5t-145 306.5zM295 1110q0 -122 91 -196
t241 -74q149 0 238 72.5t89 193.5q0 118 -88.5 187t-238.5 69q-151 0 -241.5 -68.5t-90.5 -183.5zM250 412q0 -136 104.5 -219.5t274.5 -83.5q168 0 271.5 83.5t103.5 219.5q0 135 -103 216t-276 81q-170 0 -272.5 -81t-102.5 -216z" />
    <glyph glyph-name="nine" unicode="9" horiz-adv-x="1234" 
d="M956 496l-366 -496h-172l385 512q-90 -49 -201 -49q-225 0 -366.5 145.5t-141.5 364.5q0 223 149.5 371.5t370.5 148.5q145 0 266 -68.5t191 -188.5t70 -265q0 -128 -40.5 -232t-144.5 -243zM993 973q0 168 -106 276.5t-273 108.5q-162 0 -267 -108.5t-105 -276.5
q0 -166 104.5 -273.5t267.5 -107.5q167 0 273 107.5t106 273.5z" />
    <glyph glyph-name="colon" unicode=":" horiz-adv-x="577" 
d="M289 762q-52 0 -90.5 38t-38.5 89q0 52 38 89.5t91 37.5t91 -37.5t38 -89.5q0 -51 -38.5 -89t-90.5 -38zM289 -23q-53 0 -91 37t-38 88q0 52 38 90.5t91 38.5t91 -38.5t38 -90.5q0 -51 -38 -88t-91 -37z" />
    <glyph glyph-name="semicolon" unicode=";" horiz-adv-x="577" 
d="M289 762q-52 0 -90.5 38t-38.5 89q0 52 38 89.5t91 37.5t91 -37.5t38 -89.5q0 -51 -38.5 -89t-90.5 -38zM418 70q0 -95 -65 -168.5t-160 -87.5v75q55 9 90.5 44.5t35.5 78.5q-21 -14 -53 -14q-45 0 -75.5 30t-30.5 81q0 54 33.5 88t87.5 34q58 0 97.5 -43.5t39.5 -117.5z
" />
    <glyph glyph-name="less" unicode="&#x3c;" 
d="M1188 203v-140l-1024 367v143l1024 367v-141l-866 -297z" />
    <glyph glyph-name="equal" unicode="=" 
d="M164 881h1024v-127h-1024v127zM164 459h1024v-127h-1024v127z" />
    <glyph glyph-name="greater" unicode="&#x3e;" 
d="M1188 430l-1024 -367v140l866 299l-866 297v141l1024 -367v-143z" />
    <glyph glyph-name="question" unicode="?" horiz-adv-x="1054" 
d="M543 336h-133v53q0 60 17 111t53 93.5t68 71.5t85 68q50 38 79 64.5t62.5 66.5t49.5 85.5t16 99.5q0 133 -85.5 221t-224.5 88q-133 0 -225 -93t-92 -227h-143q0 192 133 323.5t327 131.5q207 0 331 -124.5t124 -315.5q0 -61 -16 -115.5t-38 -92t-61 -78t-66.5 -63
t-74.5 -57.5q-97 -69 -141.5 -125.5t-44.5 -132.5v-53zM485 -29q-54 0 -91.5 38t-37.5 91t37.5 90t91.5 37q53 0 90 -37.5t37 -89.5q0 -53 -37.5 -91t-89.5 -38z" />
    <glyph glyph-name="at" unicode="@" horiz-adv-x="1857" 
d="M524 451q0 122 90.5 199.5t253.5 90.5l301 23v31q0 235 -243 235q-117 0 -182.5 -50.5t-65.5 -141.5h-123q0 135 103.5 218t273.5 83q174 0 271 -90.5t97 -255.5v-392q0 -122 127 -122q104 0 169 110.5t65 288.5q0 205 -93.5 368t-260.5 254t-377 91q-153 0 -289 -57.5
t-233.5 -156.5t-154 -236.5t-56.5 -291.5q0 -157 56.5 -295.5t153.5 -237.5t233 -156.5t290 -57.5q266 0 465 161l57 -83q-227 -181 -522 -181q-177 0 -333.5 65.5t-268.5 178t-177 270.5t-65 336q0 176 65.5 332.5t177.5 268.5t268.5 177.5t332.5 65.5q242 0 434 -104
t300 -290.5t108 -420.5q0 -217 -100 -356.5t-255 -139.5q-106 0 -167 47.5t-70 139.5q-43 -88 -133 -137.5t-207 -49.5q-146 0 -231 72.5t-85 196.5zM655 453q0 -78 55 -120t158 -42q140 0 220.5 87t80.5 240v46l-270 -21q-244 -21 -244 -190z" />
    <glyph glyph-name="A" unicode="A" horiz-adv-x="1320" 
d="M178 0h-149l538 1466h183l544 -1466h-153l-144 389h-675zM639 1260l-272 -742h583l-274 742q-2 6 -10 28.5t-9 30.5q-4 -24 -18 -59z" />
    <glyph glyph-name="B" unicode="B" horiz-adv-x="1288" 
d="M178 0v1466h537q212 0 334 -101t122 -278q0 -260 -227 -348q256 -83 256 -354q0 -177 -123 -281t-332 -104h-567zM713 1335h-387v-536h405q138 0 213.5 72.5t75.5 203.5q0 124 -80 192t-227 68zM745 670h-419v-537h419q145 0 225.5 71t80.5 199q0 124 -81.5 195.5
t-224.5 71.5z" />
    <glyph glyph-name="C" unicode="C" horiz-adv-x="1492" 
d="M776 -23q-203 0 -359.5 94.5t-242.5 266.5t-86 395t87 395.5t245.5 267.5t363.5 95q237 0 408 -131.5t215 -349.5h-158q-46 158 -172.5 249t-298.5 91q-242 0 -389 -169.5t-147 -447.5q0 -277 147 -445.5t389 -168.5q173 0 302.5 86.5t176.5 234.5h158
q-51 -207 -227 -335t-412 -128z" />
    <glyph glyph-name="D" unicode="D" horiz-adv-x="1445" 
d="M625 0h-447v1466h443q331 0 534 -202t203 -531q0 -217 -91 -383.5t-257.5 -258t-384.5 -91.5zM614 1331h-288v-1196h292q269 0 428.5 162t159.5 436q0 275 -160 436.5t-432 161.5z" />
    <glyph glyph-name="E" unicode="E" horiz-adv-x="1177" 
d="M1057 0h-879v1466h877v-135h-729v-528h661v-133h-661v-535h731v-135z" />
    <glyph glyph-name="F" unicode="F" horiz-adv-x="1112" 
d="M926 645h-600v-645h-148v1466h864v-135h-716v-553h600v-133z" />
    <glyph glyph-name="G" unicode="G" horiz-adv-x="1536" 
d="M793 1352q-252 0 -401.5 -171t-149.5 -454t152.5 -447.5t402.5 -164.5q77 0 145.5 15t131.5 50t108.5 88t72.5 134.5t27 183.5v76h-530v131h669v-795h-116l-15 233q-61 -113 -193.5 -184.5t-305.5 -71.5q-313 0 -508 207t-195 545q0 222 88.5 396t250 271t368.5 97
q232 0 397.5 -121t208.5 -321h-160q-45 148 -164 225.5t-284 77.5z" />
    <glyph glyph-name="H" unicode="H" horiz-adv-x="1443" 
d="M326 0h-148v1466h148v-653h792v653h146v-1466h-146v676h-792v-676z" />
    <glyph glyph-name="I" unicode="I" horiz-adv-x="503" 
d="M326 1466v-1466h-148v1466h148z" />
    <glyph glyph-name="J" unicode="J" horiz-adv-x="1044" 
d="M41 403v58h143v-58q0 -133 71 -210.5t202 -77.5q135 0 203.5 78t68.5 213v1060h148v-1065q0 -197 -115.5 -311.5t-304.5 -114.5q-195 0 -305.5 117t-110.5 311z" />
    <glyph glyph-name="K" unicode="K" horiz-adv-x="1261" 
d="M326 1466v-882l706 882h176l-497 -620l506 -846h-173l-430 723l-288 -358v-365h-148v1466h148z" />
    <glyph glyph-name="L" unicode="L" horiz-adv-x="1042" 
d="M326 1466v-1331h673v-135h-821v1466h148z" />
    <glyph glyph-name="M" unicode="M" horiz-adv-x="1718" 
d="M324 0h-146v1466h146l534 -1292l535 1292h147v-1466h-145v696q0 319 12 469l-477 -1165h-142l-477 1159q13 -89 13 -440v-719z" />
    <glyph glyph-name="N" unicode="N" horiz-adv-x="1460" 
d="M326 0h-148v1466h150l807 -1220v1220h145v-1466h-145l-809 1221v-1221z" />
    <glyph glyph-name="O" unicode="O" horiz-adv-x="1574" 
d="M1485 733q0 -219 -88.5 -392t-248 -269.5t-362.5 -96.5t-362.5 96.5t-247.5 269t-88 392.5q0 219 88.5 392.5t248 270.5t361.5 97q203 0 362.5 -96.5t248 -269.5t88.5 -394zM1333 733q0 275 -152 446t-395 171t-393.5 -171t-150.5 -446t150.5 -445.5t393.5 -170.5
t395 171t152 445z" />
    <glyph glyph-name="P" unicode="P" horiz-adv-x="1257" 
d="M737 539h-411v-539h-148v1466h559q211 0 336 -126t125 -334q0 -203 -126.5 -335t-334.5 -132zM717 1333h-391v-661h383q158 0 246.5 91.5t88.5 244.5q0 152 -87.5 238.5t-239.5 86.5z" />
    <glyph glyph-name="Q" unicode="Q" horiz-adv-x="1574" 
d="M1335 -84l-155 176q-171 -117 -394 -117q-203 0 -362.5 96.5t-247.5 269t-88 392.5q0 219 88.5 392.5t248 270.5t361.5 97q203 0 362.5 -96.5t248 -269.5t88.5 -394q0 -168 -53 -310t-150 -243l154 -172zM1333 733q0 275 -152 446t-395 171t-393.5 -171t-150.5 -446
t150.5 -445.5t393.5 -170.5q165 0 295 84l-190 215l98 92l195 -217q149 173 149 442z" />
    <glyph glyph-name="R" unicode="R" horiz-adv-x="1310" 
d="M326 0h-148v1466h547q222 0 349.5 -114t127.5 -310q0 -157 -78.5 -264t-220.5 -145l314 -633h-164l-299 608h-428v-608zM326 1333v-592h403q152 0 237 78.5t85 218.5q0 141 -87 218t-239 77h-399z" />
    <glyph glyph-name="S" unicode="S" horiz-adv-x="1153" 
d="M90 1085q0 184 135 296t357 112q198 0 320.5 -104.5t139.5 -288.5h-149q-12 125 -93.5 192.5t-219.5 67.5q-155 0 -248.5 -74.5t-93.5 -198.5q0 -191 229 -249l252 -62q348 -84 348 -385q0 -190 -136 -303t-364 -113q-214 0 -348 105t-147 285h151q6 -116 99.5 -185
t244.5 -69q162 0 257.5 73t95.5 199q0 200 -232 254l-248 61q-172 41 -261 139t-89 248z" />
    <glyph glyph-name="T" unicode="T" horiz-adv-x="1099" 
d="M25 1331v135h1050v-135h-452v-1331h-148v1331h-450z" />
    <glyph glyph-name="U" unicode="U" horiz-adv-x="1419" 
d="M168 510v956h147v-950q0 -193 103 -295t295 -102q188 0 289.5 103.5t101.5 293.5v950h147v-956q0 -249 -144 -392t-394 -143q-255 0 -400 142.5t-145 392.5z" />
    <glyph glyph-name="V" unicode="V" horiz-adv-x="1312" 
d="M582 0l-562 1466h158l391 -1020q50 -129 93 -262q48 166 90 265l389 1017h151l-557 -1466h-153z" />
    <glyph glyph-name="W" unicode="W" horiz-adv-x="2004" 
d="M467 0l-436 1466h153l297 -1007q39 -140 58 -242q29 123 67 242l320 1007h153l320 -1007q27 -88 65 -242q28 135 58 240l303 1009h149l-440 -1466h-139l-394 1245l-393 -1245h-141z" />
    <glyph glyph-name="X" unicode="X" horiz-adv-x="1253" 
d="M541 731l-512 735h174l272 -385q94 -132 152 -241l426 626h170l-504 -731l512 -735h-176l-279 393q-95 135 -145 225l-428 -618h-172z" />
    <glyph glyph-name="Y" unicode="Y" horiz-adv-x="1177" 
d="M518 612l-498 854h166l363 -632q29 -57 43 -89q24 49 45 89l358 632h162l-491 -854v-612h-148v612z" />
    <glyph glyph-name="Z" unicode="Z" horiz-adv-x="1187" 
d="M1104 0h-1020v135l844 1196h-838v135h1018v-131l-848 -1200h844v-135z" />
    <glyph glyph-name="bracketleft" unicode="[" horiz-adv-x="522" 
d="M236 -6h276v-115h-406v1716h406v-114h-276v-1487z" />
    <glyph glyph-name="backslash" unicode="\" horiz-adv-x="714" 
d="M141 1466l574 -1466h-142l-573 1466h141z" />
    <glyph glyph-name="bracketright" unicode="]" horiz-adv-x="522" 
d="M10 -121v115h277v1487h-277v114h406v-1716h-406z" />
    <glyph glyph-name="asciicircum" unicode="^" horiz-adv-x="993" 
d="M285 819h-129l272 647h139l273 -647h-131l-211 512z" />
    <glyph glyph-name="underscore" unicode="_" horiz-adv-x="1060" 
d="M123 -160v121h815v-121h-815z" />
    <glyph glyph-name="grave" unicode="`" horiz-adv-x="446" 
d="M354 1569h-114l-154 246h150z" />
    <glyph glyph-name="a" unicode="a" horiz-adv-x="1069" 
d="M432 -25q-156 0 -246 80.5t-90 212.5q0 136 98.5 219t272.5 97l328 26v33q0 256 -263 256q-129 0 -201.5 -55.5t-72.5 -155.5h-129q0 150 112 240t296 90q181 0 289 -94t108 -283v-641h-119l-18 174q-46 -94 -142.5 -146.5t-222.5 -52.5zM465 90q155 0 242.5 98.5
t87.5 262.5v53l-293 -23q-134 -12 -198 -67t-64 -142q0 -89 60.5 -135.5t164.5 -46.5z" />
    <glyph glyph-name="b" unicode="b" horiz-adv-x="1196" 
d="M270 0h-123v1493h142v-694q52 107 148.5 163t224.5 56q141 0 245.5 -69t157.5 -187t53 -268q0 -228 -124.5 -373.5t-336.5 -145.5q-127 0 -224 57.5t-148 170.5zM291 498q0 -175 92 -284.5t252 -109.5q158 0 249 109.5t91 284.5q0 174 -91 283.5t-249 109.5
q-160 0 -252 -109.5t-92 -283.5z" />
    <glyph glyph-name="c" unicode="c" horiz-adv-x="1064" 
d="M78 494q0 234 131.5 379t347.5 145q171 0 289 -92t147 -246h-141q-27 100 -107.5 156.5t-185.5 56.5q-152 0 -247 -108t-95 -289q0 -177 91 -285.5t241 -108.5q110 0 193 57t112 152h143q-35 -152 -157 -244t-291 -92q-211 0 -341 143t-130 376z" />
    <glyph glyph-name="d" unicode="d" horiz-adv-x="1196" 
d="M537 -25q-212 0 -335.5 145.5t-123.5 373.5q0 230 124.5 377t340.5 147q125 0 218.5 -54.5t145.5 -160.5v690h142v-1493h-123l-15 203q-51 -113 -148.5 -170.5t-225.5 -57.5zM561 104q160 0 252 109.5t92 284.5q0 174 -92 283.5t-252 109.5q-158 0 -249 -109.5
t-91 -283.5q0 -175 91 -284.5t249 -109.5z" />
    <glyph glyph-name="e" unicode="e" horiz-adv-x="1081" 
d="M563 -25q-218 0 -351.5 143.5t-133.5 377.5q0 232 131.5 377t343.5 145q201 0 326 -130t125 -341v-70h-789q8 -182 99 -281.5t251 -99.5q246 0 303 201h136q-40 -157 -153 -239.5t-288 -82.5zM553 897q-138 0 -226.5 -85t-107.5 -232h643q0 143 -85 230t-224 87z" />
    <glyph glyph-name="f" unicode="f" horiz-adv-x="608" 
d="M37 991h151v193q0 158 76 233.5t199 75.5q64 0 108 -8v-121h-84q-89 0 -123 -43.5t-34 -136.5v-193h233v-119h-233v-872h-142v872h-151v119z" />
    <glyph glyph-name="g" unicode="g" horiz-adv-x="1196" 
d="M80 524q0 136 54.5 247.5t162 179t248.5 67.5q129 0 224 -58t142 -167l15 198h123v-960q0 -221 -131 -354.5t-349 -133.5q-191 0 -316.5 101.5t-154.5 281.5h142q23 -120 110.5 -187t220.5 -67q152 0 245 94.5t93 249.5v236q-51 -105 -149 -163t-225 -58
q-206 0 -330.5 142t-124.5 351zM221 526q0 -157 91 -262.5t243 -105.5q158 0 250 102.5t92 265.5t-90.5 265t-249.5 102q-155 0 -245.5 -105t-90.5 -262z" />
    <glyph glyph-name="h" unicode="h" horiz-adv-x="1150" 
d="M289 2h-142v1491h142v-674q49 92 139 145.5t211 53.5q189 0 283 -109t94 -303v-606h-142v575q0 314 -262 314q-153 0 -238 -99t-85 -249v-539z" />
    <glyph glyph-name="i" unicode="i" horiz-adv-x="436" 
d="M217 1264q-43 0 -73.5 30.5t-30.5 73.5t31 75t73 32q43 0 75 -32t32 -75q0 -42 -32 -73t-75 -31zM147 0v991h142v-991h-142z" />
    <glyph glyph-name="j" unicode="j" horiz-adv-x="436" 
d="M219 1264q-44 0 -75 30.5t-31 73.5t31 75t75 32q41 0 73 -32t32 -75q0 -42 -31.5 -73t-73.5 -31zM-117 -434l27 129q57 -14 96 -14q73 0 107 43.5t34 134.5v1132h142v-1141q0 -142 -71.5 -222.5t-201.5 -80.5q-64 0 -133 19z" />
    <glyph glyph-name="k" unicode="k" horiz-adv-x="987" 
d="M295 0h-141v1493h141v-1014l491 512h179l-381 -395l383 -596h-164l-316 496l-192 -199v-297z" />
    <glyph glyph-name="l" unicode="l" horiz-adv-x="448" 
d="M295 0h-141v1493h141v-1493z" />
    <glyph glyph-name="m" unicode="m" horiz-adv-x="1724" 
d="M289 0h-142v991h123l17 -141q37 78 116 123t183 45q116 0 199.5 -56.5t119.5 -154.5q34 98 120.5 154.5t205.5 56.5q162 0 259 -99t97 -270v-649h-137v621q0 127 -65.5 198.5t-180.5 71.5q-121 0 -192.5 -80t-71.5 -199v-612h-139v623q0 125 -66.5 195.5t-179.5 70.5
q-121 0 -193.5 -78.5t-72.5 -196.5v-614z" />
    <glyph glyph-name="n" unicode="n" horiz-adv-x="1150" 
d="M289 0h-142v991h123l21 -172q49 94 140 146.5t200 52.5q197 0 291 -108.5t94 -303.5v-606h-142v575q0 166 -69 240t-199 74q-150 0 -233.5 -100.5t-83.5 -270.5v-518z" />
    <glyph glyph-name="o" unicode="o" horiz-adv-x="1163" 
d="M78 496q0 227 142.5 374.5t361.5 147.5q218 0 360.5 -147.5t142.5 -374.5q0 -226 -142.5 -373.5t-360.5 -147.5t-361 147.5t-143 373.5zM221 498q0 -175 100.5 -285.5t260.5 -110.5q158 0 259 110.5t101 285.5q0 172 -101 282.5t-259 110.5q-159 0 -260 -110.5
t-101 -282.5z" />
    <glyph glyph-name="p" unicode="p" horiz-adv-x="1196" 
d="M147 -432v1423h123l15 -200q51 113 148.5 170t225.5 57q211 0 335 -144.5t124 -373.5q0 -231 -122.5 -378t-336.5 -147q-128 0 -223 54.5t-147 160.5v-622h-142zM291 496q0 -174 92.5 -284t251.5 -110q158 0 249 110t91 284q0 175 -91 284t-249 109q-160 0 -252 -109
t-92 -284z" />
    <glyph glyph-name="q" unicode="q" horiz-adv-x="1196" 
d="M78 500q0 229 124 373.5t335 144.5q127 0 224 -57t150 -170l15 200h123v-1423h-142v622q-52 -106 -147 -160.5t-223 -54.5q-214 0 -336.5 147t-122.5 378zM221 496q0 -174 91 -284t249 -110q159 0 251.5 110t92.5 284q0 175 -92 284t-252 109q-158 0 -249 -109t-91 -284z
" />
    <glyph glyph-name="r" unicode="r" horiz-adv-x="706" 
d="M666 1004v-127h-78q-136 0 -217.5 -85.5t-81.5 -226.5v-565h-142v991h134l10 -153q30 81 104.5 128.5t177.5 47.5q49 0 93 -10z" />
    <glyph glyph-name="s" unicode="s" horiz-adv-x="888" 
d="M63 279h136q0 -86 60.5 -136.5t164.5 -50.5q115 0 179.5 46t64.5 126q0 63 -36 100t-122 58l-170 43q-256 64 -256 268q0 130 98.5 207.5t259.5 77.5q157 0 252 -80.5t99 -218.5h-138q-3 86 -60 134t-157 48q-104 0 -160.5 -43t-56.5 -123q0 -115 162 -155l170 -43
q130 -32 190 -96t60 -171q0 -133 -104 -214t-273 -81q-167 0 -265 83t-98 221z" />
    <glyph glyph-name="t" unicode="t" horiz-adv-x="610" 
d="M375 0h-139v872h-199v119h199v314h139v-314h198v-119h-198v-872z" />
    <glyph glyph-name="u" unicode="u" horiz-adv-x="1132" 
d="M844 991h141v-991h-123l-18 168q-41 -87 -136.5 -140t-211.5 -53q-172 0 -266.5 108.5t-94.5 293.5v616h144v-571q0 -320 262 -320q144 0 223.5 94t79.5 269v526z" />
    <glyph glyph-name="v" unicode="v" horiz-adv-x="995" 
d="M424 0l-406 991h152l256 -639q59 -157 72 -205q18 69 73 205l260 639h146l-412 -991h-141z" />
    <glyph glyph-name="w" unicode="w" horiz-adv-x="1519" 
d="M356 0l-327 991h145l195 -598q27 -79 61 -213q11 54 59 213l197 598h145l195 -598q32 -95 61 -213q29 120 60 213l196 598h148l-336 -991h-137l-205 623q-34 101 -53 194q-24 -90 -58 -194l-204 -623h-142z" />
    <glyph glyph-name="x" unicode="x" horiz-adv-x="931" 
d="M186 0h-166l355 496l-352 495h165l281 -397l279 397h163l-352 -497l350 -494h-168l-278 397z" />
    <glyph glyph-name="y" unicode="y" horiz-adv-x="964" 
d="M47 -432v117h109q40 0 65.5 3.5t57.5 16t56 42t42 77.5l43 117l-402 1050h150l319 -864l314 864h145l-454 -1218q-42 -115 -114.5 -167t-180.5 -52q-87 0 -150 14z" />
    <glyph glyph-name="z" unicode="z" horiz-adv-x="907" 
d="M827 0h-747v113l573 759h-573v119h747v-114l-575 -758h575v-119z" />
    <glyph glyph-name="braceleft" unicode="{" horiz-adv-x="598" 
d="M92 678v121q97 0 137.5 37t40.5 104v463q0 87 54.5 139.5t148.5 52.5h115v-114h-103q-39 0 -62.5 -25t-23.5 -65v-459q0 -77 -31.5 -124.5t-101.5 -68.5q71 -24 102 -71.5t31 -124.5v-459q0 -40 23.5 -65t62.5 -25h103v-115h-115q-94 0 -148.5 53t-54.5 140v463
q0 143 -178 143z" />
    <glyph glyph-name="bar" unicode="|" horiz-adv-x="636" 
d="M260 -174v1798h117v-1798h-117z" />
    <glyph glyph-name="braceright" unicode="}" horiz-adv-x="598" 
d="M125 -121h-115v115h101q41 0 64.5 25t23.5 65v459q0 77 30.5 124.5t100.5 71.5q-70 21 -100.5 68.5t-30.5 124.5v459q0 40 -23.5 65t-64.5 25h-101v114h115q93 0 148 -52.5t55 -139.5v-463q0 -67 40.5 -104t137.5 -37v-121q-178 0 -178 -143v-463q0 -87 -55 -140
t-148 -53z" />
    <glyph glyph-name="asciitilde" unicode="~" 
d="M1069 754h119q0 -141 -69 -226.5t-185 -85.5q-56 0 -115.5 20.5t-110 50t-98.5 58.5t-97.5 49.5t-90.5 20.5q-69 0 -101.5 -42t-37.5 -136h-119q0 136 69 219.5t185 83.5q51 0 107.5 -20.5t106.5 -50t99.5 -58.5t102 -49.5t96.5 -20.5q69 0 101.5 45t37.5 142z" />
    <glyph glyph-name="exclamdown" unicode="&#xa1;" horiz-adv-x="555" 
d="M279 1495q51 0 89 -37.5t38 -89.5t-38 -90.5t-89 -38.5q-54 0 -91.5 38t-37.5 91t37.5 90t91.5 37zM225 1028h103q26 -236 26 -682v-346h-153v346q0 462 24 682z" />
    <glyph glyph-name="cent" unicode="&#xa2;" horiz-adv-x="1126" 
d="M522 -2v221q-189 24 -306.5 162.5t-117.5 347.5q0 214 116 355t308 161v221h127v-221q155 -17 256 -106t129 -228h-145q-27 101 -107.5 155t-197.5 54q-152 0 -247 -106t-95 -283q0 -172 97.5 -278.5t250.5 -106.5q237 0 303 205h143q-31 -141 -132.5 -230t-254.5 -104
v-219h-127z" />
    <glyph glyph-name="sterling" unicode="&#xa3;" horiz-adv-x="1247" 
d="M735 0h-669v135q114 21 185 115t71 215q0 90 -41 215h-205v121h160q-60 166 -60 268q0 188 127.5 306t333.5 118q196 0 321 -106.5t142 -292.5h-152q-12 128 -94 197t-221 69q-145 0 -228 -78t-83 -213q0 -101 65 -268h508v-121h-465q35 -116 35 -215
q0 -109 -53.5 -201.5t-141.5 -128.5h455q156 0 224.5 77t68.5 245h141q0 -457 -424 -457z" />
    <glyph glyph-name="currency" unicode="&#xa4;" horiz-adv-x="1286" 
d="M1083 195l-159 157q-124 -94 -283 -94q-155 0 -279 94l-159 -157l-97 96l160 158q-90 124 -90 274q0 155 92 281l-162 157l97 96l159 -157q126 92 279 92q157 0 283 -92l159 157l97 -96l-162 -157q92 -126 92 -281q0 -154 -90 -274l160 -158zM977 723q0 138 -98.5 237
t-237.5 99q-136 0 -234 -99t-98 -237q0 -135 98.5 -232.5t233.5 -97.5q138 0 237 97.5t99 232.5z" />
    <glyph glyph-name="yen" unicode="&#xa5;" horiz-adv-x="1214" 
d="M494 705l-453 761h166l403 -712l400 712h164l-447 -761h320v-117h-367v-150h367v-114h-367v-324h-139v324h-369v114h369v150h-369v117h322z" />
    <glyph glyph-name="brokenbar" unicode="&#xa6;" horiz-adv-x="636" 
d="M377 1624v-737h-117v737h117zM260 -174v737h117v-737h-117z" />
    <glyph glyph-name="section" unicode="&#xa7;" horiz-adv-x="954" 
d="M874 741q0 -84 -55.5 -151.5t-154.5 -97.5q167 -67 167 -234q0 -126 -98.5 -203.5t-257.5 -77.5q-158 0 -252.5 80.5t-97.5 218.5h135q3 -86 61 -135t156 -49q106 0 162.5 43t56.5 125q0 58 -41.5 98.5t-122.5 59.5l-202 43q-130 29 -190 95.5t-60 172.5q0 84 56 152
t153 98q-166 66 -166 233q0 126 98.5 204.5t257.5 78.5q157 0 251 -81.5t99 -219.5h-135q-4 88 -61.5 136t-157.5 48q-105 0 -161 -43.5t-56 -124.5q0 -58 41.5 -98t122.5 -59l201 -43q251 -53 251 -269zM737 735q0 86 -67 134.5t-193 48.5t-194 -48.5t-68 -134.5t68 -134
t194 -48t193 48t67 134z" />
    <glyph glyph-name="dieresis" unicode="&#xa8;" horiz-adv-x="753" 
d="M227 1610q-41 0 -71.5 29.5t-30.5 70.5t30.5 71.5t71.5 30.5q40 0 70.5 -31t30.5 -71q0 -41 -30.5 -70.5t-70.5 -29.5zM526 1610q-43 0 -72.5 29.5t-29.5 70.5t30.5 71.5t71.5 30.5q40 0 70.5 -31t30.5 -71q0 -41 -30.5 -70.5t-70.5 -29.5z" />
    <glyph glyph-name="copyright" unicode="&#xa9;" horiz-adv-x="1673" 
d="M836 -29q-157 0 -297 59t-240 160.5t-158.5 242.5t-58.5 300q0 158 58.5 299t159 242t240.5 160t296 59q157 0 297 -59t240.5 -160t159 -242t58.5 -299q0 -159 -58 -300t-158.5 -242.5t-240.5 -160.5t-298 -59zM836 72q183 0 331 86t232 237.5t84 337.5t-84 337
t-232.5 237t-330.5 86q-135 0 -255 -51t-206 -138.5t-135.5 -210t-49.5 -260.5q0 -186 84 -337.5t232 -237.5t330 -86zM461 729q0 184 109 300t282 116q133 0 226 -72t118 -194h-125q-44 155 -217 155q-121 0 -196.5 -84.5t-75.5 -218.5q0 -135 72.5 -218t189.5 -83
q87 0 146.5 40t84.5 114h123q-28 -120 -125 -192.5t-229 -72.5q-169 0 -276 114.5t-107 295.5z" />
    <glyph glyph-name="guillemotleft" unicode="&#xab;" horiz-adv-x="1216" 
d="M516 0l-434 496l434 495h166l-434 -495l434 -496h-166zM969 0l-434 496l434 495h166l-435 -495l435 -496h-166z" />
    <glyph glyph-name="logicalnot" unicode="&#xac;" 
d="M1120 690v-526h-137v399h-829v127h966z" />
    <glyph glyph-name="registered" unicode="&#xae;" horiz-adv-x="983" 
d="M494 678q-175 0 -293.5 117.5t-118.5 291.5q0 172 119.5 289t292.5 117t290 -116.5t117 -289.5q0 -177 -116 -293t-291 -116zM494 741q147 0 244.5 98.5t97.5 247.5q0 147 -98 245t-244 98q-148 0 -246 -98t-98 -245q0 -149 97.5 -247.5t246.5 -98.5zM406 862h-70v457
h172q76 0 120 -36.5t44 -100.5q0 -46 -24.5 -81t-69.5 -50l102 -189h-78l-90 172h-106v-172zM598 1178q0 75 -92 75h-100v-155h100q43 0 67.5 21t24.5 59z" />
    <glyph glyph-name="macron" unicode="&#xaf;" horiz-adv-x="720" 
d="M123 1681v113h475v-113h-475z" />
    <glyph glyph-name="degree" unicode="&#xb0;" horiz-adv-x="538" 
d="M510 1251q0 -102 -69 -170.5t-171 -68.5q-103 0 -172 68t-69 171q0 104 69 173t172 69q102 0 171 -69t69 -173zM410 1251q0 64 -39 105t-101 41t-101.5 -41t-39.5 -105q0 -63 39 -103t102 -40q62 0 101 40t39 103z" />
    <glyph glyph-name="plusminus" unicode="&#xb1;" 
d="M164 831h448v383h127v-383h449v-124h-449v-385h-127v385h-448v124zM164 0v127h1024v-127h-1024z" />
    <glyph glyph-name="twosuperior" unicode="&#xb2;" horiz-adv-x="704" 
d="M651 676h-594v92l316 258q155 125 155 260q0 187 -178 187q-86 0 -134 -54.5t-48 -152.5h-111q0 142 80.5 227.5t214.5 85.5t211.5 -77.5t77.5 -211.5q0 -177 -197 -336l-215 -174h422v-104z" />
    <glyph glyph-name="threesuperior" unicode="&#xb3;" horiz-adv-x="708" 
d="M291 1135h-58v79l271 244h-416v105h547v-107l-248 -227q115 -9 191.5 -84t76.5 -195q0 -131 -88.5 -209.5t-222.5 -78.5t-216.5 79.5t-82.5 208.5h111q0 -86 51 -136t137 -50q88 0 142.5 51t54.5 137q0 74 -45 122.5t-129 58.5q-23 2 -76 2z" />
    <glyph glyph-name="acute" unicode="&#xb4;" horiz-adv-x="450" 
d="M362 1812l-155 -243h-115l123 243h147z" />
    <glyph glyph-name="micro" unicode="&#xb5;" horiz-adv-x="1132" 
d="M276 -432h-141v1425h144v-571q0 -320 262 -320q144 0 223.5 94t79.5 269v526h141v-991h-123l-18 168q-42 -88 -130 -140.5t-202 -52.5q-77 0 -141.5 30t-102.5 79z" />
    <glyph glyph-name="paragraph" unicode="&#xb6;" horiz-adv-x="1171" 
d="M59 1057q0 188 109.5 298.5t275.5 110.5h244v-1601h-131v776h-113q-166 0 -275.5 112.5t-109.5 303.5zM952 -139h-94v1605h94v-1605z" />
    <glyph glyph-name="periodcentered" unicode="&#xb7;" horiz-adv-x="563" 
d="M283 350q-72 0 -125.5 52t-53.5 122q0 73 52.5 125.5t126.5 52.5q72 0 124 -52.5t52 -125.5q0 -70 -52.5 -122t-123.5 -52z" />
    <glyph glyph-name="cedilla" unicode="&#xb8;" horiz-adv-x="468" 
d="M78 -344v86q64 -33 115 -33q42 0 69 18.5t27 51.5t-22 50t-60 17q-46 0 -101 -24l-18 51l86 188l57 -2v-55l-45 -96q33 10 60 10q61 0 101 -35.5t40 -99.5q0 -75 -53 -116.5t-129 -41.5q-80 0 -127 31z" />
    <glyph glyph-name="onesuperior" unicode="&#xb9;" horiz-adv-x="446" 
d="M238 1458h-195v105h307v-887h-112v782z" />
    <glyph glyph-name="guillemotright" unicode="&#xbb;" horiz-adv-x="1216" 
d="M248 0h-166l434 496l-434 495h166l434 -495zM700 0h-165l434 496l-434 495h165l435 -495z" />
    <glyph glyph-name="onequarter" unicode="&#xbc;" horiz-adv-x="1234" 
d="M203 1374h-162v92h262v-686h-100v594zM1135 1454l-942 -1454h-130l941 1454h131zM999 137h-352v90l328 459h123v-457h86v-92h-86v-137h-99v137zM758 229h241v338z" />
    <glyph glyph-name="onehalf" unicode="&#xbd;" horiz-adv-x="1298" 
d="M203 1374h-162v92h262v-686h-100v594zM1135 1454l-942 -1454h-130l941 1454h131zM1253 0h-477v72l223 180q73 61 103.5 110t30.5 105q0 63 -35.5 100t-96.5 37t-98 -37t-37 -98h-102q0 101 66.5 164t173.5 63q106 0 170.5 -61.5t64.5 -163.5q0 -77 -39.5 -142
t-134.5 -143l-117 -94h305v-92z" />
    <glyph glyph-name="threequarters" unicode="&#xbe;" horiz-adv-x="1320" 
d="M43 997h104q0 -62 36.5 -98.5t99.5 -36.5t99 34t36 91q0 67 -45 104t-129 37h-56v70l187 174h-299v94h430v-92l-182 -168q88 -9 142 -66t54 -145q0 -104 -65.5 -165.5t-173.5 -61.5q-104 0 -171 63t-67 166zM1221 1454l-942 -1454h-129l940 1454h131zM1085 137h-352v90
l328 459h123v-457h86v-92h-86v-137h-99v137zM846 229h239v336z" />
    <glyph glyph-name="questiondown" unicode="&#xbf;" horiz-adv-x="1054" 
d="M569 1495q54 0 92.5 -38t38.5 -91q0 -52 -38.5 -89.5t-92.5 -37.5q-51 0 -89 37.5t-38 89.5t38 90.5t89 38.5zM512 1130h133v-55q0 -60 -17 -110t-52 -93t-67 -72t-85 -69q-41 -32 -63.5 -50.5t-55 -51.5t-49 -60.5t-29 -67.5t-12.5 -83q0 -133 85.5 -221t225.5 -88
q132 0 224 92t92 227h143q0 -193 -133.5 -324t-327.5 -131q-207 0 -330.5 124t-123.5 315q0 61 16 116t38 92.5t61.5 78t67.5 63t75 57.5q96 70 140 125t44 131v55z" />
    <glyph glyph-name="Agrave" unicode="&#xc0;" horiz-adv-x="1320" 
d="M711 1577h-115l-154 246h150zM178 0h-149l538 1466h183l544 -1466h-153l-144 389h-675zM639 1260l-272 -742h583l-274 742q-2 6 -10 28.5t-9 30.5q-4 -24 -18 -59z" />
    <glyph glyph-name="Aacute" unicode="&#xc1;" horiz-adv-x="1320" 
d="M877 1821l-156 -244h-115l123 244h148zM178 0h-149l538 1466h183l544 -1466h-153l-144 389h-675zM639 1260l-272 -742h583l-274 742q-2 6 -10 28.5t-9 30.5q-4 -24 -18 -59z" />
    <glyph glyph-name="Acircumflex" unicode="&#xc2;" horiz-adv-x="1320" 
d="M541 1577h-127l155 250h179l155 -250h-127l-117 182zM178 0h-149l538 1466h183l544 -1466h-153l-144 389h-675zM639 1260l-272 -742h583l-274 742q-2 6 -10 28.5t-9 30.5q-4 -24 -18 -59z" />
    <glyph glyph-name="Atilde" unicode="&#xc3;" horiz-adv-x="1320" 
d="M475 1612h-102q-6 101 34.5 159t114.5 58q38 0 75 -17.5t61 -38t55 -38t59 -17.5q70 0 70 111h100q4 -105 -38 -161t-124 -56q-39 0 -76.5 17t-61 38t-51 38t-50.5 17q-66 0 -66 -110zM178 0h-149l538 1466h183l544 -1466h-153l-144 389h-675zM639 1260l-272 -742h583
l-274 742q-2 6 -10 28.5t-9 30.5q-4 -24 -18 -59z" />
    <glyph glyph-name="Adieresis" unicode="&#xc4;" horiz-adv-x="1320" 
d="M510 1618q-43 0 -72.5 29.5t-29.5 70.5t30.5 72t71.5 31q40 0 70 -31t30 -72t-30 -70.5t-70 -29.5zM809 1618q-43 0 -72.5 29.5t-29.5 70.5t30.5 72t71.5 31q40 0 70 -31t30 -72t-30 -70.5t-70 -29.5zM178 0h-149l538 1466h183l544 -1466h-153l-144 389h-675zM639 1260
l-272 -742h583l-274 742q-2 6 -10 28.5t-9 30.5q-4 -24 -18 -59z" />
    <glyph glyph-name="Aring" unicode="&#xc5;" horiz-adv-x="1320" 
d="M659 1571q-97 0 -159 63t-62 160q0 94 63.5 156.5t157.5 62.5q93 0 156.5 -63.5t63.5 -155.5q0 -94 -63.5 -158.5t-156.5 -64.5zM659 1669q52 0 84.5 34.5t32.5 90.5q0 54 -33 89.5t-84 35.5q-52 0 -85 -34.5t-33 -90.5t32 -90.5t86 -34.5zM178 0h-149l538 1466h183
l544 -1466h-153l-144 389h-675zM639 1260l-272 -742h583l-274 742q-2 6 -10 28.5t-9 30.5q-4 -24 -18 -59z" />
    <glyph glyph-name="AE" unicode="&#xc6;" horiz-adv-x="1837" 
d="M18 0l586 1466h1112v-135h-727v-528h658v-133h-658v-535h727v-135h-874v424h-498l-168 -424h-158zM393 553h449v778h-142z" />
    <glyph glyph-name="Ccedilla" unicode="&#xc7;" horiz-adv-x="1492" 
d="M657 -344v86q64 -33 117 -33q41 0 67.5 18.5t26.5 51.5t-22 50t-60 17q-43 0 -100 -24l-18 51l49 107q-284 22 -456.5 227.5t-172.5 525.5q0 223 87 395.5t245.5 267.5t363.5 95q237 0 408 -131.5t215 -349.5h-158q-46 158 -172.5 249t-298.5 91q-242 0 -389 -169.5
t-147 -447.5q0 -277 147 -445.5t389 -168.5q173 0 302.5 86.5t176.5 234.5h158q-50 -203 -218.5 -330t-397.5 -133l-33 -69q33 10 61 10q60 0 100 -36t40 -99q0 -76 -53 -117t-130 -41t-127 31z" />
    <glyph glyph-name="Egrave" unicode="&#xc8;" horiz-adv-x="1177" 
d="M659 1577h-116l-152 246h148zM1057 0h-879v1466h877v-135h-729v-528h661v-133h-661v-535h731v-135z" />
    <glyph glyph-name="Eacute" unicode="&#xc9;" horiz-adv-x="1177" 
d="M825 1821l-155 -244h-117l125 244h147zM1057 0h-879v1466h877v-135h-729v-528h661v-133h-661v-535h731v-135z" />
    <glyph glyph-name="Ecircumflex" unicode="&#xca;" horiz-adv-x="1177" 
d="M487 1577h-127l156 250h178l156 -250h-127l-117 182zM1057 0h-879v1466h877v-135h-729v-528h661v-133h-661v-535h731v-135z" />
    <glyph glyph-name="Edieresis" unicode="&#xcb;" horiz-adv-x="1177" 
d="M457 1618q-41 0 -71 29.5t-30 70.5t30 72t71 31q40 0 71 -31t31 -72t-31 -70.5t-71 -29.5zM756 1618q-41 0 -71 29.5t-30 70.5t30 72t71 31q40 0 70 -31t30 -72t-30 -70.5t-70 -29.5zM1057 0h-879v1466h877v-135h-729v-528h661v-133h-661v-535h731v-135z" />
    <glyph glyph-name="Igrave" unicode="&#xcc;" horiz-adv-x="503" 
d="M305 1577h-115l-153 246h147zM326 1466v-1466h-148v1466h148z" />
    <glyph glyph-name="Iacute" unicode="&#xcd;" horiz-adv-x="503" 
d="M471 1821l-156 -244h-116l125 244h147zM326 1466v-1466h-148v1466h148z" />
    <glyph glyph-name="Icircumflex" unicode="&#xce;" horiz-adv-x="503" 
d="M133 1577h-127l156 250h178l158 -250h-129l-117 182zM326 1466v-1466h-148v1466h148z" />
    <glyph glyph-name="Idieresis" unicode="&#xcf;" horiz-adv-x="503" 
d="M102 1618q-41 0 -70.5 29.5t-29.5 70.5q0 42 29.5 72.5t70.5 30.5t72 -31t31 -72t-30.5 -70.5t-72.5 -29.5zM401 1618q-41 0 -70.5 29.5t-29.5 70.5q0 42 29.5 72.5t70.5 30.5q40 0 71.5 -31t31.5 -72t-31.5 -70.5t-71.5 -29.5zM326 1466v-1466h-148v1466h148z" />
    <glyph glyph-name="Eth" unicode="&#xd0;" horiz-adv-x="1445" 
d="M625 0h-447v670h-141v127h141v669h443q331 0 534 -202t203 -531q0 -217 -91 -383.5t-257.5 -258t-384.5 -91.5zM641 670h-315v-535h292q269 0 428.5 162t159.5 436q0 275 -160 436.5t-432 161.5h-288v-534h315v-127z" />
    <glyph glyph-name="Ntilde" unicode="&#xd1;" horiz-adv-x="1460" 
d="M549 1612h-103q-6 100 35 158.5t115 58.5q38 0 75 -17.5t61 -38t55 -38t59 -17.5q69 0 69 111h101q4 -105 -38 -161t-124 -56q-39 0 -76.5 17t-61 38t-51.5 38t-51 17q-65 0 -65 -110zM326 0h-148v1466h150l807 -1220v1220h145v-1466h-145l-809 1221v-1221z" />
    <glyph glyph-name="Ograve" unicode="&#xd2;" horiz-adv-x="1574" 
d="M840 1577h-117l-152 246h148zM1485 733q0 -219 -88.5 -392t-248 -269.5t-362.5 -96.5t-362.5 96.5t-247.5 269t-88 392.5q0 219 88.5 392.5t248 270.5t361.5 97q203 0 362.5 -96.5t248 -269.5t88.5 -394zM1333 733q0 275 -152 446t-395 171t-393.5 -171t-150.5 -446
t150.5 -445.5t393.5 -170.5t395 171t152 445z" />
    <glyph glyph-name="Oacute" unicode="&#xd3;" horiz-adv-x="1574" 
d="M1006 1821l-156 -244h-117l123 244h150zM1485 733q0 -219 -88.5 -392t-248 -269.5t-362.5 -96.5t-362.5 96.5t-247.5 269t-88 392.5q0 219 88.5 392.5t248 270.5t361.5 97q203 0 362.5 -96.5t248 -269.5t88.5 -394zM1333 733q0 275 -152 446t-395 171t-393.5 -171
t-150.5 -446t150.5 -445.5t393.5 -170.5t395 171t152 445z" />
    <glyph glyph-name="Ocircumflex" unicode="&#xd4;" horiz-adv-x="1574" 
d="M668 1577h-127l155 250h178l156 -250h-127l-117 182zM1485 733q0 -219 -88.5 -392t-248 -269.5t-362.5 -96.5t-362.5 96.5t-247.5 269t-88 392.5q0 219 88.5 392.5t248 270.5t361.5 97q203 0 362.5 -96.5t248 -269.5t88.5 -394zM1333 733q0 275 -152 446t-395 171
t-393.5 -171t-150.5 -446t150.5 -445.5t393.5 -170.5t395 171t152 445z" />
    <glyph glyph-name="Otilde" unicode="&#xd5;" horiz-adv-x="1574" 
d="M602 1612h-100q-7 101 33.5 159t115.5 58q38 0 75 -17.5t61 -38t54.5 -38t57.5 -17.5q70 0 70 111h102q3 -106 -38.5 -161.5t-123.5 -55.5q-40 0 -78 17t-61.5 38t-51 38t-50.5 17q-31 0 -48.5 -28.5t-17.5 -81.5zM1485 733q0 -219 -88.5 -392t-248 -269.5t-362.5 -96.5
t-362.5 96.5t-247.5 269t-88 392.5q0 219 88.5 392.5t248 270.5t361.5 97q203 0 362.5 -96.5t248 -269.5t88.5 -394zM1333 733q0 275 -152 446t-395 171t-393.5 -171t-150.5 -446t150.5 -445.5t393.5 -170.5t395 171t152 445z" />
    <glyph glyph-name="Odieresis" unicode="&#xd6;" horiz-adv-x="1574" 
d="M637 1618q-41 0 -70.5 29.5t-29.5 70.5q0 42 29.5 72.5t70.5 30.5q40 0 70 -31t30 -72t-30 -70.5t-70 -29.5zM936 1618q-41 0 -70.5 29.5t-29.5 70.5q0 42 29.5 72.5t70.5 30.5q40 0 70 -31t30 -72t-30 -70.5t-70 -29.5zM1485 733q0 -219 -88.5 -392t-248 -269.5
t-362.5 -96.5t-362.5 96.5t-247.5 269t-88 392.5q0 219 88.5 392.5t248 270.5t361.5 97q203 0 362.5 -96.5t248 -269.5t88.5 -394zM1333 733q0 275 -152 446t-395 171t-393.5 -171t-150.5 -446t150.5 -445.5t393.5 -170.5t395 171t152 445z" />
    <glyph glyph-name="multiply" unicode="&#xd7;" 
d="M305 1151l371 -371l373 371l90 -90l-373 -371l373 -373l-90 -90l-373 373l-373 -373l-90 90l373 373l-371 371z" />
    <glyph glyph-name="Oslash" unicode="&#xd8;" horiz-adv-x="1574" 
d="M1485 733q0 -219 -88.5 -392t-248 -269.5t-362.5 -96.5q-232 0 -407 127l-78 -102h-147l137 180q-98 101 -150.5 242.5t-52.5 310.5q0 219 88.5 392.5t248 270.5t361.5 97q232 0 410 -129l80 104h145l-137 -180q96 -103 148.5 -245t52.5 -310zM242 733q0 -263 141 -434
l723 948q-134 103 -320 103q-243 0 -393.5 -171t-150.5 -446zM1333 733q0 263 -141 434l-725 -948q136 -102 319 -102q243 0 395 171t152 445z" />
    <glyph glyph-name="Ugrave" unicode="&#xd9;" horiz-adv-x="1419" 
d="M764 1577h-117l-151 246h147zM168 510v956h147v-950q0 -193 103 -295t295 -102q188 0 289.5 103.5t101.5 293.5v950h147v-956q0 -249 -144 -392t-394 -143q-255 0 -400 142.5t-145 392.5z" />
    <glyph glyph-name="Uacute" unicode="&#xda;" horiz-adv-x="1419" 
d="M930 1821l-158 -244h-115l123 244h150zM168 510v956h147v-950q0 -193 103 -295t295 -102q188 0 289.5 103.5t101.5 293.5v950h147v-956q0 -249 -144 -392t-394 -143q-255 0 -400 142.5t-145 392.5z" />
    <glyph glyph-name="Ucircumflex" unicode="&#xdb;" horiz-adv-x="1419" 
d="M592 1577h-127l156 250h178l155 -250h-127l-116 182zM168 510v956h147v-950q0 -193 103 -295t295 -102q188 0 289.5 103.5t101.5 293.5v950h147v-956q0 -249 -144 -392t-394 -143q-255 0 -400 142.5t-145 392.5z" />
    <glyph glyph-name="Udieresis" unicode="&#xdc;" horiz-adv-x="1419" 
d="M561 1618q-41 0 -70.5 29.5t-29.5 70.5q0 42 29.5 72.5t70.5 30.5q40 0 70.5 -31t30.5 -72t-30.5 -70.5t-70.5 -29.5zM860 1618q-41 0 -70.5 29.5t-29.5 70.5q0 42 29.5 72.5t70.5 30.5q40 0 70.5 -31t30.5 -72t-30.5 -70.5t-70.5 -29.5zM168 510v956h147v-950
q0 -193 103 -295t295 -102q188 0 289.5 103.5t101.5 293.5v950h147v-956q0 -249 -144 -392t-394 -143q-255 0 -400 142.5t-145 392.5z" />
    <glyph glyph-name="Yacute" unicode="&#xdd;" horiz-adv-x="1177" 
d="M809 1821l-156 -244h-114l123 244h147zM518 612l-498 854h166l363 -632q29 -57 43 -89q24 49 45 89l358 632h162l-491 -854v-612h-148v612z" />
    <glyph glyph-name="Thorn" unicode="&#xde;" horiz-adv-x="1257" 
d="M737 295h-411v-295h-148v1466h148v-282h411q210 0 335.5 -123.5t125.5 -319.5q0 -189 -127.5 -317.5t-333.5 -128.5zM717 1051h-391v-623h383q156 0 245.5 89t89.5 228q0 138 -88 222t-239 84z" />
    <glyph glyph-name="germandbls" unicode="&#xdf;" horiz-adv-x="1153" 
d="M289 0h-142v1057q0 201 120 318.5t315 117.5q178 0 285.5 -98.5t107.5 -261.5q0 -102 -53.5 -183t-147.5 -114q145 -33 228 -138t83 -249q0 -195 -133.5 -322t-365.5 -127q-121 0 -180 12v117h184q166 0 260 91.5t94 230.5q0 148 -95.5 229.5t-275.5 81.5h-102v121h102
q119 0 190 66.5t71 178.5q0 106 -66.5 174t-183.5 68q-131 0 -213 -82.5t-82 -222.5v-1065z" />
    <glyph glyph-name="agrave" unicode="&#xe0;" horiz-adv-x="1069" 
d="M596 1106h-115l-153 246h149zM432 -25q-156 0 -246 80.5t-90 212.5q0 136 98.5 219t272.5 97l328 26v33q0 256 -263 256q-129 0 -201.5 -55.5t-72.5 -155.5h-129q0 150 112 240t296 90q181 0 289 -94t108 -283v-641h-119l-18 174q-46 -94 -142.5 -146.5t-222.5 -52.5z
M465 90q155 0 242.5 98.5t87.5 262.5v53l-293 -23q-134 -12 -198 -67t-64 -142q0 -89 60.5 -135.5t164.5 -46.5z" />
    <glyph glyph-name="aacute" unicode="&#xe1;" horiz-adv-x="1069" 
d="M762 1350l-156 -244h-114l122 244h148zM432 -25q-156 0 -246 80.5t-90 212.5q0 136 98.5 219t272.5 97l328 26v33q0 256 -263 256q-129 0 -201.5 -55.5t-72.5 -155.5h-129q0 150 112 240t296 90q181 0 289 -94t108 -283v-641h-119l-18 174q-46 -94 -142.5 -146.5
t-222.5 -52.5zM465 90q155 0 242.5 98.5t87.5 262.5v53l-293 -23q-134 -12 -198 -67t-64 -142q0 -89 60.5 -135.5t164.5 -46.5z" />
    <glyph glyph-name="acircumflex" unicode="&#xe2;" horiz-adv-x="1069" 
d="M426 1106h-127l156 250h178l155 -250h-126l-117 182zM432 -25q-156 0 -246 80.5t-90 212.5q0 136 98.5 219t272.5 97l328 26v33q0 256 -263 256q-129 0 -201.5 -55.5t-72.5 -155.5h-129q0 150 112 240t296 90q181 0 289 -94t108 -283v-641h-119l-18 174
q-46 -94 -142.5 -146.5t-222.5 -52.5zM465 90q155 0 242.5 98.5t87.5 262.5v53l-293 -23q-134 -12 -198 -67t-64 -142q0 -89 60.5 -135.5t164.5 -46.5z" />
    <glyph glyph-name="atilde" unicode="&#xe3;" horiz-adv-x="1069" 
d="M360 1141h-102q-6 100 35 158.5t115 58.5q38 0 74.5 -17.5t61 -38t55 -38t58.5 -17.5q70 0 70 111h100q4 -105 -37.5 -161t-123.5 -56q-39 0 -76.5 17t-61 38t-51.5 38t-51 17q-66 0 -66 -110zM432 -25q-156 0 -246 80.5t-90 212.5q0 136 98.5 219t272.5 97l328 26v33
q0 256 -263 256q-129 0 -201.5 -55.5t-72.5 -155.5h-129q0 150 112 240t296 90q181 0 289 -94t108 -283v-641h-119l-18 174q-46 -94 -142.5 -146.5t-222.5 -52.5zM465 90q155 0 242.5 98.5t87.5 262.5v53l-293 -23q-134 -12 -198 -67t-64 -142q0 -89 60.5 -135.5
t164.5 -46.5z" />
    <glyph glyph-name="adieresis" unicode="&#xe4;" horiz-adv-x="1069" 
d="M395 1147q-41 0 -71.5 29.5t-30.5 70.5t30.5 72t71.5 31q40 0 70.5 -31t30.5 -72t-30.5 -70.5t-70.5 -29.5zM694 1147q-43 0 -72.5 29.5t-29.5 70.5t30.5 72t71.5 31q40 0 70.5 -31t30.5 -72t-30.5 -70.5t-70.5 -29.5zM432 -25q-156 0 -246 80.5t-90 212.5
q0 136 98.5 219t272.5 97l328 26v33q0 256 -263 256q-129 0 -201.5 -55.5t-72.5 -155.5h-129q0 150 112 240t296 90q181 0 289 -94t108 -283v-641h-119l-18 174q-46 -94 -142.5 -146.5t-222.5 -52.5zM465 90q155 0 242.5 98.5t87.5 262.5v53l-293 -23q-134 -12 -198 -67
t-64 -142q0 -89 60.5 -135.5t164.5 -46.5z" />
    <glyph glyph-name="aring" unicode="&#xe5;" horiz-adv-x="1069" 
d="M545 1100q-97 0 -159 63t-62 160q0 94 63.5 156.5t157.5 62.5t157.5 -63.5t63.5 -155.5q0 -94 -63.5 -158.5t-157.5 -64.5zM545 1198q52 0 84.5 34.5t32.5 90.5q0 54 -33 89.5t-84 35.5q-53 0 -86 -35t-33 -90q0 -56 32.5 -90.5t86.5 -34.5zM432 -25q-156 0 -246 80.5
t-90 212.5q0 136 98.5 219t272.5 97l328 26v33q0 256 -263 256q-129 0 -201.5 -55.5t-72.5 -155.5h-129q0 150 112 240t296 90q181 0 289 -94t108 -283v-641h-119l-18 174q-46 -94 -142.5 -146.5t-222.5 -52.5zM465 90q155 0 242.5 98.5t87.5 262.5v53l-293 -23
q-134 -12 -198 -67t-64 -142q0 -89 60.5 -135.5t164.5 -46.5z" />
    <glyph glyph-name="ae" unicode="&#xe6;" horiz-adv-x="1794" 
d="M96 274q0 141 97.5 215.5t265.5 77.5l336 8v68q0 122 -71.5 189t-193.5 67q-128 0 -200 -56t-72 -155h-129q0 150 110.5 240t292.5 90q125 0 217.5 -55t131.5 -150q61 98 159.5 151.5t223.5 53.5q203 0 326.5 -130.5t123.5 -340.5v-70h-790q9 -178 100.5 -279.5
t251.5 -101.5q249 0 303 201h137q-40 -157 -152.5 -239.5t-289.5 -82.5q-145 0 -254 66.5t-166 187.5q-45 -116 -155 -185t-259 -69q-163 0 -253.5 80.5t-90.5 218.5zM1264 897q-138 0 -228.5 -86.5t-107.5 -232.5h645q0 143 -84.5 231t-224.5 88zM240 281
q0 -94 62.5 -142.5t172.5 -48.5q145 0 232.5 87t87.5 229v67l-314 -8q-124 -3 -182.5 -48t-58.5 -136z" />
    <glyph glyph-name="ccedilla" unicode="&#xe7;" horiz-adv-x="1064" 
d="M78 494q0 234 131.5 379t347.5 145q171 0 289 -92t147 -246h-141q-27 100 -107.5 156.5t-185.5 56.5q-152 0 -247 -108t-95 -289q0 -177 91 -285.5t241 -108.5q110 0 193 57t112 152h143q-34 -145 -145 -235t-266 -99l-33 -69q38 10 61 10q61 0 101.5 -35.5t40.5 -99.5
q0 -75 -53.5 -116.5t-129.5 -41.5q-80 0 -127 31v86q61 -33 115 -33q41 0 68.5 18.5t27.5 51.5t-22 50t-60 17q-45 0 -100 -24l-20 51l49 104q-193 15 -309.5 156t-116.5 361z" />
    <glyph glyph-name="egrave" unicode="&#xe8;" horiz-adv-x="1081" 
d="M606 1106h-114l-154 246h147zM563 -25q-218 0 -351.5 143.5t-133.5 377.5q0 232 131.5 377t343.5 145q201 0 326 -130t125 -341v-70h-789q8 -182 99 -281.5t251 -99.5q246 0 303 201h136q-40 -157 -153 -239.5t-288 -82.5zM553 897q-138 0 -226.5 -85t-107.5 -232h643
q0 143 -85 230t-224 87z" />
    <glyph glyph-name="eacute" unicode="&#xe9;" horiz-adv-x="1081" 
d="M772 1350l-156 -244h-116l125 244h147zM563 -25q-218 0 -351.5 143.5t-133.5 377.5q0 232 131.5 377t343.5 145q201 0 326 -130t125 -341v-70h-789q8 -182 99 -281.5t251 -99.5q246 0 303 201h136q-40 -157 -153 -239.5t-288 -82.5zM553 897q-138 0 -226.5 -85
t-107.5 -232h643q0 143 -85 230t-224 87z" />
    <glyph glyph-name="ecircumflex" unicode="&#xea;" horiz-adv-x="1081" 
d="M434 1106h-127l156 250h178l158 -250h-129l-117 182zM563 -25q-218 0 -351.5 143.5t-133.5 377.5q0 232 131.5 377t343.5 145q201 0 326 -130t125 -341v-70h-789q8 -182 99 -281.5t251 -99.5q246 0 303 201h136q-40 -157 -153 -239.5t-288 -82.5zM553 897
q-138 0 -226.5 -85t-107.5 -232h643q0 143 -85 230t-224 87z" />
    <glyph glyph-name="edieresis" unicode="&#xeb;" horiz-adv-x="1081" 
d="M403 1147q-41 0 -70.5 29.5t-29.5 70.5q0 42 29.5 72.5t70.5 30.5t72 -31t31 -72t-30.5 -70.5t-72.5 -29.5zM702 1147q-41 0 -70.5 29.5t-29.5 70.5q0 42 29.5 72.5t70.5 30.5q40 0 71.5 -31t31.5 -72t-31.5 -70.5t-71.5 -29.5zM563 -25q-218 0 -351.5 143.5
t-133.5 377.5q0 232 131.5 377t343.5 145q201 0 326 -130t125 -341v-70h-789q8 -182 99 -281.5t251 -99.5q246 0 303 201h136q-40 -157 -153 -239.5t-288 -82.5zM553 897q-138 0 -226.5 -85t-107.5 -232h643q0 143 -85 230t-224 87z" />
    <glyph glyph-name="igrave" unicode="&#xec;" horiz-adv-x="436" 
d="M272 1106h-116l-154 246h150zM147 0v991h142v-991h-142z" />
    <glyph glyph-name="iacute" unicode="&#xed;" horiz-adv-x="436" 
d="M438 1350l-157 -244h-115l123 244h149zM147 0v991h142v-991h-142z" />
    <glyph glyph-name="icircumflex" unicode="&#xee;" horiz-adv-x="436" 
d="M100 1106h-127l156 250h178l156 -250h-127l-117 182zM147 0v991h142v-991h-142z" />
    <glyph glyph-name="idieresis" unicode="&#xef;" horiz-adv-x="436" 
d="M70 1147q-42 0 -72.5 29.5t-30.5 70.5t31 72t72 31q40 0 70 -31t30 -72t-30 -70.5t-70 -29.5zM369 1147q-42 0 -72.5 29.5t-30.5 70.5t31 72t72 31q40 0 70 -31t30 -72t-30 -70.5t-70 -29.5zM147 0v991h142v-991h-142z" />
    <glyph glyph-name="eth" unicode="&#xf0;" horiz-adv-x="1185" 
d="M78 494q0 107 40.5 202t109 162.5t161.5 106.5t195 39q106 0 198.5 -44.5t155.5 -125.5q-42 123 -105 221.5t-167 208.5l-209 -115l-43 90l178 98q-103 103 -160 156h172q55 -48 103 -94l165 92l46 -90l-140 -76q174 -188 252 -371.5t78 -404.5q0 -261 -144.5 -417.5
t-375.5 -156.5q-222 0 -366 147.5t-144 371.5zM221 489q0 -168 103 -277.5t266 -109.5q165 0 270 111.5t105 284.5q0 164 -102 270t-265 106q-166 0 -271.5 -109t-105.5 -276z" />
    <glyph glyph-name="ntilde" unicode="&#xf1;" horiz-adv-x="1150" 
d="M395 1141h-102q-6 101 35 159t116 58q37 0 74 -17.5t61 -38t55 -38t58 -17.5q70 0 70 111h100q4 -105 -38 -161t-122 -56q-40 0 -78 17t-61.5 38t-51 38t-50.5 17q-66 0 -66 -110zM289 0h-142v991h123l21 -172q49 94 140 146.5t200 52.5q197 0 291 -108.5t94 -303.5v-606
h-142v575q0 166 -69 240t-199 74q-150 0 -233.5 -100.5t-83.5 -270.5v-518z" />
    <glyph glyph-name="ograve" unicode="&#xf2;" horiz-adv-x="1163" 
d="M635 1106h-117l-151 246h147zM78 496q0 227 142.5 374.5t361.5 147.5q218 0 360.5 -147.5t142.5 -374.5q0 -226 -142.5 -373.5t-360.5 -147.5t-361 147.5t-143 373.5zM221 498q0 -175 100.5 -285.5t260.5 -110.5q158 0 259 110.5t101 285.5q0 172 -101 282.5t-259 110.5
q-159 0 -260 -110.5t-101 -282.5z" />
    <glyph glyph-name="oacute" unicode="&#xf3;" horiz-adv-x="1163" 
d="M801 1350l-156 -244h-117l123 244h150zM78 496q0 227 142.5 374.5t361.5 147.5q218 0 360.5 -147.5t142.5 -374.5q0 -226 -142.5 -373.5t-360.5 -147.5t-361 147.5t-143 373.5zM221 498q0 -175 100.5 -285.5t260.5 -110.5q158 0 259 110.5t101 285.5q0 172 -101 282.5
t-259 110.5q-159 0 -260 -110.5t-101 -282.5z" />
    <glyph glyph-name="ocircumflex" unicode="&#xf4;" horiz-adv-x="1163" 
d="M463 1106h-127l156 250h178l155 -250h-127l-116 182zM78 496q0 227 142.5 374.5t361.5 147.5q218 0 360.5 -147.5t142.5 -374.5q0 -226 -142.5 -373.5t-360.5 -147.5t-361 147.5t-143 373.5zM221 498q0 -175 100.5 -285.5t260.5 -110.5q158 0 259 110.5t101 285.5
q0 172 -101 282.5t-259 110.5q-159 0 -260 -110.5t-101 -282.5z" />
    <glyph glyph-name="otilde" unicode="&#xf5;" horiz-adv-x="1163" 
d="M397 1141h-100q-6 101 34 159t115 58q38 0 75 -17.5t61 -38t54.5 -38t57.5 -17.5q70 0 70 111h102q3 -106 -38 -161.5t-123 -55.5q-40 0 -78 17t-61.5 38t-51.5 38t-51 17q-31 0 -48.5 -28.5t-17.5 -81.5zM78 496q0 227 142.5 374.5t361.5 147.5q218 0 360.5 -147.5
t142.5 -374.5q0 -226 -142.5 -373.5t-360.5 -147.5t-361 147.5t-143 373.5zM221 498q0 -175 100.5 -285.5t260.5 -110.5q158 0 259 110.5t101 285.5q0 172 -101 282.5t-259 110.5q-159 0 -260 -110.5t-101 -282.5z" />
    <glyph glyph-name="odieresis" unicode="&#xf6;" horiz-adv-x="1163" 
d="M432 1147q-41 0 -70.5 29.5t-29.5 70.5q0 42 29.5 72.5t70.5 30.5q40 0 71.5 -31t31.5 -72t-31.5 -70.5t-71.5 -29.5zM731 1147q-41 0 -70.5 29.5t-29.5 70.5q0 42 29.5 72.5t70.5 30.5q40 0 70 -31t30 -72t-30 -70.5t-70 -29.5zM78 496q0 227 142.5 374.5t361.5 147.5
q218 0 360.5 -147.5t142.5 -374.5q0 -226 -142.5 -373.5t-360.5 -147.5t-361 147.5t-143 373.5zM221 498q0 -175 100.5 -285.5t260.5 -110.5q158 0 259 110.5t101 285.5q0 172 -101 282.5t-259 110.5q-159 0 -260 -110.5t-101 -282.5z" />
    <glyph glyph-name="divide" unicode="&#xf7;" 
d="M676 893q-51 0 -88 36.5t-37 86.5q0 51 37 88t88 37t88 -37t37 -88q0 -50 -37 -86.5t-88 -36.5zM164 682h1024v-127h-1024v127zM676 94q-51 0 -88 36.5t-37 86.5q0 51 37 88t88 37t88 -37t37 -88q0 -50 -37 -86.5t-88 -36.5z" />
    <glyph glyph-name="oslash" unicode="&#xf8;" horiz-adv-x="1163" 
d="M78 496q0 227 142.5 374.5t361.5 147.5q123 0 231 -51l66 106h129l-103 -168q85 -70 132.5 -176t47.5 -233q0 -226 -142.5 -373.5t-360.5 -147.5q-120 0 -222 48l-79 -127h-131l114 186q-88 70 -137 177.5t-49 236.5zM221 498q0 -186 115 -301l407 657q-70 37 -161 37
q-159 0 -260 -110.5t-101 -282.5zM942 498q0 179 -111 290l-403 -653q74 -33 154 -33q158 0 259 110.5t101 285.5z" />
    <glyph glyph-name="ugrave" unicode="&#xf9;" horiz-adv-x="1132" 
d="M608 1106h-116l-152 246h147zM844 991h141v-991h-123l-18 168q-41 -87 -136.5 -140t-211.5 -53q-172 0 -266.5 108.5t-94.5 293.5v616h144v-571q0 -320 262 -320q144 0 223.5 94t79.5 269v526z" />
    <glyph glyph-name="uacute" unicode="&#xfa;" horiz-adv-x="1132" 
d="M774 1350l-156 -244h-116l123 244h149zM844 991h141v-991h-123l-18 168q-41 -87 -136.5 -140t-211.5 -53q-172 0 -266.5 108.5t-94.5 293.5v616h144v-571q0 -320 262 -320q144 0 223.5 94t79.5 269v526z" />
    <glyph glyph-name="ucircumflex" unicode="&#xfb;" horiz-adv-x="1132" 
d="M436 1106h-127l156 250h178l156 -250h-127l-117 182zM844 991h141v-991h-123l-18 168q-41 -87 -136.5 -140t-211.5 -53q-172 0 -266.5 108.5t-94.5 293.5v616h144v-571q0 -320 262 -320q144 0 223.5 94t79.5 269v526z" />
    <glyph glyph-name="udieresis" unicode="&#xfc;" horiz-adv-x="1132" 
d="M406 1147q-41 0 -71 29.5t-30 70.5t30 72t71 31q40 0 71 -31t31 -72t-31 -70.5t-71 -29.5zM705 1147q-41 0 -71 29.5t-30 70.5t30 72t71 31q40 0 70 -31t30 -72t-30 -70.5t-70 -29.5zM844 991h141v-991h-123l-18 168q-41 -87 -136.5 -140t-211.5 -53q-172 0 -266.5 108.5
t-94.5 293.5v616h144v-571q0 -320 262 -320q144 0 223.5 94t79.5 269v526z" />
    <glyph glyph-name="yacute" unicode="&#xfd;" horiz-adv-x="964" 
d="M700 1350l-157 -244h-115l123 244h149zM47 -432v117h109q40 0 65.5 3.5t57.5 16t56 42t42 77.5l43 117l-402 1050h150l319 -864l314 864h145l-454 -1218q-42 -115 -114.5 -167t-180.5 -52q-87 0 -150 14z" />
    <glyph glyph-name="thorn" unicode="&#xfe;" horiz-adv-x="1196" 
d="M1118 498q0 -150 -53 -267.5t-158 -186.5t-248 -69q-128 0 -223 54.5t-147 160.5v-622h-142v1925h142v-694q52 107 148.5 163t224.5 56q211 0 333.5 -145.5t122.5 -374.5zM975 498q0 174 -91 283.5t-249 109.5q-160 0 -252 -109.5t-92 -283.5q0 -176 92 -286t252 -110
q158 0 249 110.5t91 285.5z" />
    <glyph glyph-name="ydieresis" unicode="&#xff;" horiz-adv-x="964" 
d="M332 1147q-41 0 -71 29.5t-30 70.5t30 72t71 31q40 0 70 -31t30 -72t-30 -70.5t-70 -29.5zM631 1147q-42 0 -72.5 29.5t-30.5 70.5t31 72t72 31q40 0 70 -31t30 -72t-30 -70.5t-70 -29.5zM47 -432v117h109q40 0 65.5 3.5t57.5 16t56 42t42 77.5l43 117l-402 1050h150
l319 -864l314 864h145l-454 -1218q-42 -115 -114.5 -167t-180.5 -52q-87 0 -150 14z" />
    <glyph glyph-name="Amacron" unicode="&#x100;" horiz-adv-x="1320" 
d="M422 1692v112h473v-112h-473zM178 0h-149l538 1466h183l544 -1466h-153l-144 389h-675zM639 1260l-272 -742h583l-274 742q-2 6 -10 28.5t-9 30.5q-4 -24 -18 -59z" />
    <glyph glyph-name="amacron" unicode="&#x101;" horiz-adv-x="1069" 
d="M307 1221v112h473v-112h-473zM432 -25q-156 0 -246 80.5t-90 212.5q0 136 98.5 219t272.5 97l328 26v33q0 256 -263 256q-129 0 -201.5 -55.5t-72.5 -155.5h-129q0 150 112 240t296 90q181 0 289 -94t108 -283v-641h-119l-18 174q-46 -94 -142.5 -146.5t-222.5 -52.5z
M465 90q155 0 242.5 98.5t87.5 262.5v53l-293 -23q-134 -12 -198 -67t-64 -142q0 -89 60.5 -135.5t164.5 -46.5z" />
    <glyph glyph-name="Abreve" unicode="&#x102;" horiz-adv-x="1320" 
d="M795 1823h114q0 -117 -68 -185.5t-182 -68.5q-116 0 -183.5 68t-67.5 186h114q0 -68 35 -106t102 -38t101.5 38t34.5 106zM178 0h-149l538 1466h183l544 -1466h-153l-144 389h-675zM639 1260l-272 -742h583l-274 742q-2 6 -10 28.5t-9 30.5q-4 -24 -18 -59z" />
    <glyph glyph-name="abreve" unicode="&#x103;" horiz-adv-x="1069" 
d="M680 1352h115q0 -117 -67.5 -185.5t-182.5 -68.5q-116 0 -184 68t-68 186h115q0 -68 35 -106t102 -38q66 0 100.5 37.5t34.5 106.5zM432 -25q-156 0 -246 80.5t-90 212.5q0 136 98.5 219t272.5 97l328 26v33q0 256 -263 256q-129 0 -201.5 -55.5t-72.5 -155.5h-129
q0 150 112 240t296 90q181 0 289 -94t108 -283v-641h-119l-18 174q-46 -94 -142.5 -146.5t-222.5 -52.5zM465 90q155 0 242.5 98.5t87.5 262.5v53l-293 -23q-134 -12 -198 -67t-64 -142q0 -89 60.5 -135.5t164.5 -46.5z" />
    <glyph glyph-name="Aogonek" unicode="&#x104;" horiz-adv-x="1320" 
d="M178 0h-149l538 1466h183l544 -1466h-2q-57 -25 -86.5 -62t-29.5 -73q0 -64 71 -64q19 0 43 9v-109q-34 -12 -73 -12q-67 0 -108.5 39.5t-41.5 101.5q0 52 32.5 96.5t94.5 73.5h-53l-144 389h-675zM639 1260l-272 -742h583l-274 742q-2 6 -10 28.5t-9 30.5
q-4 -24 -18 -59z" />
    <glyph glyph-name="aogonek" unicode="&#x105;" horiz-adv-x="1069" 
d="M432 -25q-156 0 -246 80.5t-90 212.5q0 136 98.5 219t272.5 97l328 26v33q0 256 -263 256q-129 0 -201.5 -55.5t-72.5 -155.5h-129q0 150 112 240t296 90q181 0 289 -94t108 -283v-641q-58 -25 -87.5 -61.5t-29.5 -73.5q0 -64 72 -64q17 0 41 9v-109q-34 -12 -74 -12
q-67 0 -108 39.5t-41 101.5q0 52 33 96.5t94 73.5h-19l-18 174q-46 -94 -142.5 -146.5t-222.5 -52.5zM465 90q155 0 242.5 98.5t87.5 262.5v53l-293 -23q-134 -12 -198 -67t-64 -142q0 -89 60.5 -135.5t164.5 -46.5z" />
    <glyph glyph-name="Cacute" unicode="&#x106;" horiz-adv-x="1492" 
d="M1001 1821l-155 -244h-117l125 244h147zM776 -23q-203 0 -359.5 94.5t-242.5 266.5t-86 395t87 395.5t245.5 267.5t363.5 95q237 0 408 -131.5t215 -349.5h-158q-46 158 -172.5 249t-298.5 91q-242 0 -389 -169.5t-147 -447.5q0 -277 147 -445.5t389 -168.5
q173 0 302.5 86.5t176.5 234.5h158q-51 -207 -227 -335t-412 -128z" />
    <glyph glyph-name="cacute" unicode="&#x107;" horiz-adv-x="1064" 
d="M758 1350l-156 -244h-115l123 244h148zM78 494q0 234 131.5 379t347.5 145q171 0 289 -92t147 -246h-141q-27 100 -107.5 156.5t-185.5 56.5q-152 0 -247 -108t-95 -289q0 -177 91 -285.5t241 -108.5q110 0 193 57t112 152h143q-35 -152 -157 -244t-291 -92
q-211 0 -341 143t-130 376z" />
    <glyph glyph-name="Ccircumflex" unicode="&#x108;" horiz-adv-x="1492" 
d="M664 1577h-127l155 250h178l156 -250h-127l-117 182zM776 -23q-203 0 -359.5 94.5t-242.5 266.5t-86 395t87 395.5t245.5 267.5t363.5 95q237 0 408 -131.5t215 -349.5h-158q-46 158 -172.5 249t-298.5 91q-242 0 -389 -169.5t-147 -447.5q0 -277 147 -445.5t389 -168.5
q173 0 302.5 86.5t176.5 234.5h158q-51 -207 -227 -335t-412 -128z" />
    <glyph glyph-name="ccircumflex" unicode="&#x109;" horiz-adv-x="1064" 
d="M422 1106h-129l158 250h178l155 -250h-127l-116 182zM78 494q0 234 131.5 379t347.5 145q171 0 289 -92t147 -246h-141q-27 100 -107.5 156.5t-185.5 56.5q-152 0 -247 -108t-95 -289q0 -177 91 -285.5t241 -108.5q110 0 193 57t112 152h143q-35 -152 -157 -244t-291 -92
q-211 0 -341 143t-130 376z" />
    <glyph glyph-name="Cdotaccent" unicode="&#x10a;" horiz-adv-x="1492" 
d="M782 1618q-42 0 -72 30t-30 72t30.5 73.5t71.5 31.5t72 -32t31 -73t-31 -71.5t-72 -30.5zM776 -23q-203 0 -359.5 94.5t-242.5 266.5t-86 395t87 395.5t245.5 267.5t363.5 95q237 0 408 -131.5t215 -349.5h-158q-46 158 -172.5 249t-298.5 91q-242 0 -389 -169.5
t-147 -447.5q0 -277 147 -445.5t389 -168.5q173 0 302.5 86.5t176.5 234.5h158q-51 -207 -227 -335t-412 -128z" />
    <glyph glyph-name="cdotaccent" unicode="&#x10b;" horiz-adv-x="1064" 
d="M539 1147q-41 0 -72 30.5t-31 71.5t31 73t72 32t72.5 -32t31.5 -73t-31.5 -71.5t-72.5 -30.5zM78 494q0 234 131.5 379t347.5 145q171 0 289 -92t147 -246h-141q-27 100 -107.5 156.5t-185.5 56.5q-152 0 -247 -108t-95 -289q0 -177 91 -285.5t241 -108.5q110 0 193 57
t112 152h143q-35 -152 -157 -244t-291 -92q-211 0 -341 143t-130 376z" />
    <glyph glyph-name="Ccaron" unicode="&#x10c;" horiz-adv-x="1492" 
d="M692 1577l-155 250h127l118 -180l117 180h129l-158 -250h-178zM776 -23q-203 0 -359.5 94.5t-242.5 266.5t-86 395t87 395.5t245.5 267.5t363.5 95q237 0 408 -131.5t215 -349.5h-158q-46 158 -172.5 249t-298.5 91q-242 0 -389 -169.5t-147 -447.5q0 -277 147 -445.5
t389 -168.5q173 0 302.5 86.5t176.5 234.5h158q-51 -207 -227 -335t-412 -128z" />
    <glyph glyph-name="ccaron" unicode="&#x10d;" horiz-adv-x="1064" 
d="M451 1106l-158 250h129l119 -180l116 180h127l-155 -250h-178zM78 494q0 234 131.5 379t347.5 145q171 0 289 -92t147 -246h-141q-27 100 -107.5 156.5t-185.5 56.5q-152 0 -247 -108t-95 -289q0 -177 91 -285.5t241 -108.5q110 0 193 57t112 152h143q-35 -152 -157 -244
t-291 -92q-211 0 -341 143t-130 376z" />
    <glyph glyph-name="Dcaron" unicode="&#x10e;" horiz-adv-x="1445" 
d="M524 1577l-155 248h127l118 -180l117 180h127l-156 -248h-178zM625 0h-447v1466h443q331 0 534 -202t203 -531q0 -217 -91 -383.5t-257.5 -258t-384.5 -91.5zM614 1331h-288v-1196h292q269 0 428.5 162t159.5 436q0 275 -160 436.5t-432 161.5z" />
    <glyph glyph-name="dcaron" unicode="&#x10f;" horiz-adv-x="1196" 
d="M537 -25q-212 0 -335.5 145.5t-123.5 373.5q0 230 124.5 377t340.5 147q125 0 218.5 -54.5t145.5 -160.5v690h142v-1493h-123l-15 203q-51 -113 -148.5 -170.5t-225.5 -57.5zM1161 1174v319h131l-35 -319h-96zM561 104q160 0 252 109.5t92 284.5q0 174 -92 283.5
t-252 109.5q-158 0 -249 -109.5t-91 -283.5q0 -175 91 -284.5t249 -109.5z" />
    <glyph glyph-name="Dcroat" unicode="&#x110;" horiz-adv-x="1445" 
d="M625 0h-447v670h-141v127h141v669h443q331 0 534 -202t203 -531q0 -217 -91 -383.5t-257.5 -258t-384.5 -91.5zM641 670h-315v-535h292q269 0 428.5 162t159.5 436q0 275 -160 436.5t-432 161.5h-288v-534h315v-127z" />
    <glyph glyph-name="dcroat" unicode="&#x111;" horiz-adv-x="1196" 
d="M537 -25q-212 0 -335.5 145.5t-123.5 373.5q0 230 124.5 377t340.5 147q125 0 218.5 -54.5t145.5 -160.5v379h-329v100h329v211h142v-211h122v-100h-122v-1182h-123l-15 203q-51 -113 -148.5 -170.5t-225.5 -57.5zM561 104q160 0 252 109.5t92 284.5q0 174 -92 283.5
t-252 109.5q-158 0 -249 -109.5t-91 -283.5q0 -175 91 -284.5t249 -109.5z" />
    <glyph glyph-name="Emacron" unicode="&#x112;" horiz-adv-x="1177" 
d="M369 1692v112h475v-112h-475zM1057 0h-879v1466h877v-135h-729v-528h661v-133h-661v-535h731v-135z" />
    <glyph glyph-name="emacron" unicode="&#x113;" horiz-adv-x="1081" 
d="M315 1221v112h476v-112h-476zM563 -25q-218 0 -351.5 143.5t-133.5 377.5q0 232 131.5 377t343.5 145q201 0 326 -130t125 -341v-70h-789q8 -182 99 -281.5t251 -99.5q246 0 303 201h136q-40 -157 -153 -239.5t-288 -82.5zM553 897q-138 0 -226.5 -85t-107.5 -232h643
q0 143 -85 230t-224 87z" />
    <glyph glyph-name="Ebreve" unicode="&#x114;" horiz-adv-x="1177" 
d="M743 1823h115q0 -117 -68 -185.5t-184 -68.5t-183 68t-67 186h115q0 -69 34.5 -106.5t100.5 -37.5q67 0 102 38t35 106zM1057 0h-879v1466h877v-135h-729v-528h661v-133h-661v-535h731v-135z" />
    <glyph glyph-name="ebreve" unicode="&#x115;" horiz-adv-x="1081" 
d="M690 1352h115q0 -117 -68 -185.5t-184 -68.5t-183 68t-67 186h115q0 -69 34.5 -106.5t100.5 -37.5q67 0 102 38t35 106zM563 -25q-218 0 -351.5 143.5t-133.5 377.5q0 232 131.5 377t343.5 145q201 0 326 -130t125 -341v-70h-789q8 -182 99 -281.5t251 -99.5
q246 0 303 201h136q-40 -157 -153 -239.5t-288 -82.5zM553 897q-138 0 -226.5 -85t-107.5 -232h643q0 143 -85 230t-224 87z" />
    <glyph glyph-name="Edotaccent" unicode="&#x116;" horiz-adv-x="1177" 
d="M606 1618q-42 0 -72 30t-30 72t30.5 73.5t71.5 31.5t72 -32t31 -73t-31 -71.5t-72 -30.5zM1057 0h-879v1466h877v-135h-729v-528h661v-133h-661v-535h731v-135z" />
    <glyph glyph-name="edotaccent" unicode="&#x117;" horiz-adv-x="1081" 
d="M553 1147q-42 0 -72 30t-30 72t30.5 73.5t71.5 31.5t71.5 -31.5t30.5 -73.5q0 -41 -30.5 -71.5t-71.5 -30.5zM563 -25q-218 0 -351.5 143.5t-133.5 377.5q0 232 131.5 377t343.5 145q201 0 326 -130t125 -341v-70h-789q8 -182 99 -281.5t251 -99.5q246 0 303 201h136
q-40 -157 -153 -239.5t-288 -82.5zM553 897q-138 0 -226.5 -85t-107.5 -232h643q0 143 -85 230t-224 87z" />
    <glyph glyph-name="Eogonek" unicode="&#x118;" horiz-adv-x="1177" 
d="M958 0h-780v1466h877v-135h-729v-528h661v-133h-661v-535h731v-135q-57 -25 -87 -62t-30 -73q0 -64 72 -64q19 0 43 9v-109q-34 -12 -76 -12q-67 0 -108.5 39.5t-41.5 101.5q0 52 33.5 96.5t95.5 73.5z" />
    <glyph glyph-name="eogonek" unicode="&#x119;" horiz-adv-x="1081" 
d="M563 -25q-218 0 -351.5 143.5t-133.5 377.5q0 232 131.5 377t343.5 145q201 0 326 -130t125 -341v-70h-789q8 -182 99 -281.5t251 -99.5q246 0 303 201h136q-59 -231 -269 -297q-57 -25 -87 -62t-30 -73q0 -64 72 -64q20 0 41 9v-109q-30 -12 -74 -12q-67 0 -108 39.5
t-41 101.5q0 87 86 145h-31zM553 897q-138 0 -226.5 -85t-107.5 -232h643q0 143 -85 230t-224 87z" />
    <glyph glyph-name="Ecaron" unicode="&#x11a;" horiz-adv-x="1177" 
d="M516 1577l-156 250h127l119 -180l117 180h127l-156 -250h-178zM1057 0h-879v1466h877v-135h-729v-528h661v-133h-661v-535h731v-135z" />
    <glyph glyph-name="ecaron" unicode="&#x11b;" horiz-adv-x="1081" 
d="M463 1106l-156 250h127l119 -180l117 180h129l-158 -250h-178zM563 -25q-218 0 -351.5 143.5t-133.5 377.5q0 232 131.5 377t343.5 145q201 0 326 -130t125 -341v-70h-789q8 -182 99 -281.5t251 -99.5q246 0 303 201h136q-40 -157 -153 -239.5t-288 -82.5zM553 897
q-138 0 -226.5 -85t-107.5 -232h643q0 143 -85 230t-224 87z" />
    <glyph glyph-name="Gcircumflex" unicode="&#x11c;" horiz-adv-x="1536" 
d="M676 1579h-127l156 250h178l155 -250h-127l-116 182zM793 1352q-252 0 -401.5 -171t-149.5 -454t152.5 -447.5t402.5 -164.5q77 0 145.5 15t131.5 50t108.5 88t72.5 134.5t27 183.5v76h-530v131h669v-795h-116l-15 233q-61 -113 -193.5 -184.5t-305.5 -71.5
q-313 0 -508 207t-195 545q0 222 88.5 396t250 271t368.5 97q232 0 397.5 -121t208.5 -321h-160q-45 148 -164 225.5t-284 77.5z" />
    <glyph glyph-name="gcircumflex" unicode="&#x11d;" horiz-adv-x="1196" 
d="M455 1126h-129l157 248h179l155 -248h-127l-117 181zM80 524q0 136 54.5 247.5t162 179t248.5 67.5q129 0 224 -58t142 -167l15 198h123v-960q0 -221 -131 -354.5t-349 -133.5q-191 0 -316.5 101.5t-154.5 281.5h142q23 -120 110.5 -187t220.5 -67q152 0 245 94.5
t93 249.5v236q-51 -105 -149 -163t-225 -58q-206 0 -330.5 142t-124.5 351zM221 526q0 -157 91 -262.5t243 -105.5q158 0 250 102.5t92 265.5t-90.5 265t-249.5 102q-155 0 -245.5 -105t-90.5 -262z" />
    <glyph glyph-name="Gbreve" unicode="&#x11e;" horiz-adv-x="1536" 
d="M930 1825h114q0 -118 -66.5 -186t-182.5 -68t-184 68t-68 186h114q0 -68 35.5 -106t102.5 -38q66 0 100.5 37.5t34.5 106.5zM793 1352q-252 0 -401.5 -171t-149.5 -454t152.5 -447.5t402.5 -164.5q77 0 145.5 15t131.5 50t108.5 88t72.5 134.5t27 183.5v76h-530v131h669
v-795h-116l-15 233q-61 -113 -193.5 -184.5t-305.5 -71.5q-313 0 -508 207t-195 545q0 222 88.5 396t250 271t368.5 97q232 0 397.5 -121t208.5 -321h-160q-45 148 -164 225.5t-284 77.5z" />
    <glyph glyph-name="gbreve" unicode="&#x11f;" horiz-adv-x="1196" 
d="M709 1372h114q0 -118 -68 -187t-182 -69q-117 0 -184 68.5t-67 187.5h114q0 -69 35 -106t102 -37t101.5 37t34.5 106zM80 524q0 136 54.5 247.5t162 179t248.5 67.5q129 0 224 -58t142 -167l15 198h123v-960q0 -221 -131 -354.5t-349 -133.5q-191 0 -316.5 101.5
t-154.5 281.5h142q23 -120 110.5 -187t220.5 -67q152 0 245 94.5t93 249.5v236q-51 -105 -149 -163t-225 -58q-206 0 -330.5 142t-124.5 351zM221 526q0 -157 91 -262.5t243 -105.5q158 0 250 102.5t92 265.5t-90.5 265t-249.5 102q-155 0 -245.5 -105t-90.5 -262z" />
    <glyph glyph-name="Gdotaccent" unicode="&#x120;" horiz-adv-x="1536" 
d="M795 1620q-43 0 -74 30t-31 72t31.5 73.5t73.5 31.5q40 0 71 -32t31 -73t-31 -71.5t-71 -30.5zM793 1352q-252 0 -401.5 -171t-149.5 -454t152.5 -447.5t402.5 -164.5q77 0 145.5 15t131.5 50t108.5 88t72.5 134.5t27 183.5v76h-530v131h669v-795h-116l-15 233
q-61 -113 -193.5 -184.5t-305.5 -71.5q-313 0 -508 207t-195 545q0 222 88.5 396t250 271t368.5 97q232 0 397.5 -121t208.5 -321h-160q-45 148 -164 225.5t-284 77.5z" />
    <glyph glyph-name="gdotaccent" unicode="&#x121;" horiz-adv-x="1196" 
d="M571 1167q-41 0 -71.5 30t-30.5 71q0 43 30.5 73.5t71.5 30.5q42 0 73.5 -31t31.5 -73q0 -41 -31.5 -71t-73.5 -30zM80 524q0 136 54.5 247.5t162 179t248.5 67.5q129 0 224 -58t142 -167l15 198h123v-960q0 -221 -131 -354.5t-349 -133.5q-191 0 -316.5 101.5
t-154.5 281.5h142q23 -120 110.5 -187t220.5 -67q152 0 245 94.5t93 249.5v236q-51 -105 -149 -163t-225 -58q-206 0 -330.5 142t-124.5 351zM221 526q0 -157 91 -262.5t243 -105.5q158 0 250 102.5t92 265.5t-90.5 265t-249.5 102q-155 0 -245.5 -105t-90.5 -262z" />
    <glyph glyph-name="Gcommaaccent" unicode="&#x122;" horiz-adv-x="1536" 
d="M793 1352q-252 0 -401.5 -171t-149.5 -454t152.5 -447.5t402.5 -164.5q77 0 145.5 15t131.5 50t108.5 88t72.5 134.5t27 183.5v76h-530v131h669v-795h-116l-15 233q-61 -113 -193.5 -184.5t-305.5 -71.5q-313 0 -508 207t-195 545q0 222 88.5 396t250 271t368.5 97
q232 0 397.5 -121t208.5 -321h-160q-45 148 -164 225.5t-284 77.5zM887 -203q0 -91 -54 -145t-126 -51v61q43 -1 69 21t31 61q-15 -6 -31 -6q-39 0 -65.5 25t-26.5 63q0 43 27.5 71.5t68.5 28.5q48 0 77.5 -34.5t29.5 -94.5z" />
    <glyph glyph-name="gcommaaccent" unicode="&#x123;" horiz-adv-x="1196" 
d="M666 1210q0 -41 -28 -69.5t-69 -28.5q-48 0 -76 33.5t-28 95.5q0 91 53.5 145.5t124.5 51.5v-62q-44 1 -69.5 -20t-28.5 -60q20 4 30 4q37 0 64 -26t27 -64zM80 524q0 136 54.5 247.5t162 179t248.5 67.5q129 0 224 -58t142 -167l15 198h123v-960q0 -221 -131 -354.5
t-349 -133.5q-191 0 -316.5 101.5t-154.5 281.5h142q23 -120 110.5 -187t220.5 -67q152 0 245 94.5t93 249.5v236q-51 -105 -149 -163t-225 -58q-206 0 -330.5 142t-124.5 351zM221 526q0 -157 91 -262.5t243 -105.5q158 0 250 102.5t92 265.5t-90.5 265t-249.5 102
q-155 0 -245.5 -105t-90.5 -262z" />
    <glyph glyph-name="Hbar" unicode="&#x126;" horiz-adv-x="1443" 
d="M326 0h-148v1116h-170v129h170v221h148v-221h792v221h146v-221h176v-129h-176v-1116h-146v676h-792v-676zM326 813h792v303h-792v-303z" />
    <glyph glyph-name="hbar" unicode="&#x127;" horiz-adv-x="1150" 
d="M289 2h-142v1180h-124v100h124v211h142v-211h327v-100h-327v-363q49 92 139 145.5t211 53.5q189 0 283 -109t94 -303v-606h-142v575q0 314 -262 314q-153 0 -238 -99t-85 -249v-539z" />
    <glyph glyph-name="Itilde" unicode="&#x128;" horiz-adv-x="503" 
d="M68 1612h-101q-6 101 34.5 159t115.5 58q38 0 75 -17.5t61 -38t55 -38t59 -17.5q67 0 67 111h103q3 -106 -38.5 -161.5t-123.5 -55.5q-40 0 -78 17t-61.5 38t-51.5 38t-51 17q-65 0 -65 -110zM326 1466v-1466h-148v1466h148z" />
    <glyph glyph-name="itilde" unicode="&#x129;" horiz-adv-x="436" 
d="M35 1141h-103q-6 101 35.5 159t116.5 58q37 0 74 -17.5t61 -38t55 -38t58 -17.5q69 0 69 111h101q4 -105 -38 -161t-124 -56q-39 0 -76.5 17t-61 38t-51.5 38t-51 17q-65 0 -65 -110zM147 0v991h142v-991h-142z" />
    <glyph glyph-name="Imacron" unicode="&#x12a;" horiz-adv-x="503" 
d="M14 1692v112h475v-112h-475zM326 1466v-1466h-148v1466h148z" />
    <glyph glyph-name="imacron" unicode="&#x12b;" horiz-adv-x="436" 
d="M-18 1221v112h475v-112h-475zM147 0v991h142v-991h-142z" />
    <glyph glyph-name="Iogonek" unicode="&#x12e;" horiz-adv-x="503" 
d="M227 0h-49v1466h148v-1466q-57 -25 -87 -62t-30 -73q0 -64 72 -64q19 0 43 9v-109q-34 -12 -76 -12q-67 0 -108.5 39.5t-41.5 101.5q0 52 33.5 96.5t95.5 73.5z" />
    <glyph glyph-name="iogonek" unicode="&#x12f;" horiz-adv-x="436" 
d="M217 1264q-43 0 -73.5 30.5t-30.5 73.5t31 75t73 32q43 0 75 -32t32 -75q0 -42 -32 -73t-75 -31zM147 0v991h142v-991q-58 -25 -87.5 -61.5t-29.5 -73.5q0 -64 70 -64q19 0 43 9v-109q-35 -12 -74 -12q-67 0 -108.5 39.5t-41.5 101.5q0 52 33 96.5t94 73.5h-41z" />
    <glyph glyph-name="Idotaccent" unicode="&#x130;" horiz-adv-x="503" 
d="M252 1618q-42 0 -72 30t-30 72t30.5 73.5t71.5 31.5t71.5 -31.5t30.5 -73.5q0 -41 -30.5 -71.5t-71.5 -30.5zM326 1466v-1466h-148v1466h148z" />
    <glyph glyph-name="dotlessi" unicode="&#x131;" horiz-adv-x="436" 
d="M147 0v991h142v-991h-142z" />
    <glyph glyph-name="Jcircumflex" unicode="&#x134;" horiz-adv-x="1044" 
d="M684 1579h-127l156 250h178l156 -250h-127l-117 182zM41 403v58h143v-58q0 -133 71 -210.5t202 -77.5q135 0 203.5 78t68.5 213v1060h148v-1065q0 -197 -115.5 -311.5t-304.5 -114.5q-195 0 -305.5 117t-110.5 311z" />
    <glyph glyph-name="jcircumflex" unicode="&#x135;" horiz-adv-x="436" 
d="M100 1106h-127l156 250h178l156 -250h-127l-117 182zM-117 -434l27 129q57 -14 96 -14q73 0 107 43.5t34 134.5v1132h142v-1141q0 -142 -71.5 -222.5t-201.5 -80.5q-64 0 -133 19z" />
    <glyph glyph-name="Kcommaaccent" unicode="&#x136;" horiz-adv-x="1261" 
d="M326 1466v-882l706 882h176l-497 -620l506 -846h-173l-430 723l-288 -358v-365h-148v1466h148zM780 -203q0 -91 -54 -145t-126 -51v61q43 -1 69 21t31 61q-15 -6 -30 -6q-39 0 -65.5 25t-26.5 63q0 42 28 71t68 29q48 0 77 -34t29 -95z" />
    <glyph glyph-name="kcommaaccent" unicode="&#x137;" horiz-adv-x="987" 
d="M295 0h-141v1493h141v-1014l491 512h179l-381 -395l383 -596h-164l-316 496l-192 -199v-297zM610 -203q0 -91 -53.5 -145t-124.5 -51v61q43 -1 69 21t31 61q-15 -6 -32 -6q-37 0 -63.5 25t-26.5 63q0 43 27.5 71.5t68.5 28.5q48 0 76 -34t28 -95z" />
    <glyph glyph-name="Lacute" unicode="&#x139;" horiz-adv-x="1042" 
d="M471 1812l-156 -243h-116l125 243h147zM326 1466v-1331h673v-135h-821v1466h148z" />
    <glyph glyph-name="lacute" unicode="&#x13a;" horiz-adv-x="448" 
d="M442 1821l-155 -244h-115l123 244h147zM295 0h-141v1493h141v-1493z" />
    <glyph glyph-name="Lcommaaccent" unicode="&#x13b;" horiz-adv-x="1042" 
d="M326 1466v-1331h673v-135h-821v1466h148zM668 -203q0 -91 -54.5 -145t-126.5 -51v61q43 -1 69.5 21t31.5 61q-15 -6 -31 -6q-39 0 -65.5 25t-26.5 63q0 42 28 71t68 29q48 0 77.5 -34.5t29.5 -94.5z" />
    <glyph glyph-name="lcommaaccent" unicode="&#x13c;" horiz-adv-x="448" 
d="M295 0h-141v1493h141v-1493zM322 -203q0 -91 -54 -145t-125 -51v61q43 -1 69.5 21t31.5 61q-15 -6 -33 -6q-37 0 -63.5 25t-26.5 63q0 43 27.5 71.5t68.5 28.5q48 0 76.5 -34t28.5 -95z" />
    <glyph glyph-name="Lcaron" unicode="&#x13d;" horiz-adv-x="1042" 
d="M326 1466v-1331h673v-135h-821v1466h148zM438 1149v317h133l-34 -317h-99z" />
    <glyph glyph-name="lcaron" unicode="&#x13e;" horiz-adv-x="448" 
d="M295 0h-141v1493h141v-1493zM408 1174v319h133l-35 -319h-98z" />
    <glyph glyph-name="Ldot" unicode="&#x13f;" horiz-adv-x="1042" 
d="M326 1466v-1331h673v-135h-821v1466h148zM631 651q-38 0 -67 28t-29 66q0 41 28 70t68 29q38 0 67 -29.5t29 -69.5q0 -38 -29 -66t-67 -28z" />
    <glyph glyph-name="ldot" unicode="&#x140;" horiz-adv-x="675" 
d="M295 0h-141v1493h141v-1493zM563 641q-41 0 -71.5 29.5t-30.5 70.5t29.5 71t72.5 30q41 0 71 -30t30 -71q0 -40 -30.5 -70t-70.5 -30z" />
    <glyph glyph-name="Lslash" unicode="&#x141;" horiz-adv-x="1042" 
d="M33 537v131l145 69v729h148v-659l397 190v-131l-397 -190v-541h673v-135h-821v606z" />
    <glyph glyph-name="lslash" unicode="&#x142;" horiz-adv-x="448" 
d="M295 0h-141v694l-127 -61v112l127 62v686h141v-619l127 62v-115l-127 -61v-760z" />
    <glyph glyph-name="Nacute" unicode="&#x143;" horiz-adv-x="1460" 
d="M950 1821l-155 -244h-115l123 244h147zM326 0h-148v1466h150l807 -1220v1220h145v-1466h-145l-809 1221v-1221z" />
    <glyph glyph-name="nacute" unicode="&#x144;" horiz-adv-x="1150" 
d="M799 1350l-158 -244h-115l123 244h150zM289 0h-142v991h123l21 -172q49 94 140 146.5t200 52.5q197 0 291 -108.5t94 -303.5v-606h-142v575q0 166 -69 240t-199 74q-150 0 -233.5 -100.5t-83.5 -270.5v-518z" />
    <glyph glyph-name="Ncommaaccent" unicode="&#x145;" horiz-adv-x="1460" 
d="M326 0h-148v1466h150l807 -1220v1220h145v-1466h-145l-809 1221v-1221zM838 -203q0 -91 -54 -145t-125 -51v61q43 -1 69.5 21t31.5 61q-15 -6 -33 -6q-37 0 -63.5 25t-26.5 63q0 43 27.5 71.5t68.5 28.5q48 0 76.5 -34t28.5 -95z" />
    <glyph glyph-name="ncommaaccent" unicode="&#x146;" horiz-adv-x="1150" 
d="M289 0h-142v991h123l21 -172q49 94 140 146.5t200 52.5q197 0 291 -108.5t94 -303.5v-606h-142v575q0 166 -69 240t-199 74q-150 0 -233.5 -100.5t-83.5 -270.5v-518zM674 -203q0 -91 -54 -145t-126 -51v61q43 -1 69 21t31 61q-15 -6 -31 -6q-39 0 -65.5 25t-26.5 63
q0 42 28 71t68 29q48 0 77.5 -34.5t29.5 -94.5z" />
    <glyph glyph-name="Ncaron" unicode="&#x147;" horiz-adv-x="1460" 
d="M643 1577l-156 250h127l119 -180l117 180h127l-156 -250h-178zM326 0h-148v1466h150l807 -1220v1220h145v-1466h-145l-809 1221v-1221z" />
    <glyph glyph-name="ncaron" unicode="&#x148;" horiz-adv-x="1150" 
d="M489 1106l-155 250h127l119 -180l116 180h127l-155 -250h-179zM289 0h-142v991h123l21 -172q49 94 140 146.5t200 52.5q197 0 291 -108.5t94 -303.5v-606h-142v575q0 166 -69 240t-199 74q-150 0 -233.5 -100.5t-83.5 -270.5v-518z" />
    <glyph glyph-name="Eng" unicode="&#x14a;" horiz-adv-x="1460" 
d="M1010 -453q-84 0 -160 23l27 131q75 -20 118 -20q146 0 146 178v133l-815 1231v-1223h-148v1466h150l807 -1220v1220h145v-1616q0 -142 -71 -222.5t-199 -80.5z" />
    <glyph glyph-name="eng" unicode="&#x14b;" horiz-adv-x="1150" 
d="M289 0h-142v991h123l21 -172q49 94 140 146.5t200 52.5q197 0 291 -108.5t94 -303.5v-756q0 -142 -72 -222.5t-201 -80.5q-66 0 -135 19l29 129q55 -14 96 -14q73 0 107 43.5t34 134.5v716q0 166 -69 240t-199 74q-150 0 -233.5 -100.5t-83.5 -270.5v-518z" />
    <glyph glyph-name="Omacron" unicode="&#x14c;" horiz-adv-x="1574" 
d="M549 1692v112h475v-112h-475zM1485 733q0 -219 -88.5 -392t-248 -269.5t-362.5 -96.5t-362.5 96.5t-247.5 269t-88 392.5q0 219 88.5 392.5t248 270.5t361.5 97q203 0 362.5 -96.5t248 -269.5t88.5 -394zM1333 733q0 275 -152 446t-395 171t-393.5 -171t-150.5 -446
t150.5 -445.5t393.5 -170.5t395 171t152 445z" />
    <glyph glyph-name="omacron" unicode="&#x14d;" horiz-adv-x="1163" 
d="M344 1221v112h475v-112h-475zM78 496q0 227 142.5 374.5t361.5 147.5q218 0 360.5 -147.5t142.5 -374.5q0 -226 -142.5 -373.5t-360.5 -147.5t-361 147.5t-143 373.5zM221 498q0 -175 100.5 -285.5t260.5 -110.5q158 0 259 110.5t101 285.5q0 172 -101 282.5t-259 110.5
q-159 0 -260 -110.5t-101 -282.5z" />
    <glyph glyph-name="Ohungarumlaut" unicode="&#x150;" horiz-adv-x="1574" 
d="M889 1821l-152 -244h-110l123 244h139zM1133 1821l-183 -244h-112l149 244h146zM1485 733q0 -219 -88.5 -392t-248 -269.5t-362.5 -96.5t-362.5 96.5t-247.5 269t-88 392.5q0 219 88.5 392.5t248 270.5t361.5 97q203 0 362.5 -96.5t248 -269.5t88.5 -394zM1333 733
q0 275 -152 446t-395 171t-393.5 -171t-150.5 -446t150.5 -445.5t393.5 -170.5t395 171t152 445z" />
    <glyph glyph-name="ohungarumlaut" unicode="&#x151;" horiz-adv-x="1163" 
d="M684 1350l-152 -244h-110l125 244h137zM928 1350l-180 -244h-115l149 244h146zM78 496q0 227 142.5 374.5t361.5 147.5q218 0 360.5 -147.5t142.5 -374.5q0 -226 -142.5 -373.5t-360.5 -147.5t-361 147.5t-143 373.5zM221 498q0 -175 100.5 -285.5t260.5 -110.5
q158 0 259 110.5t101 285.5q0 172 -101 282.5t-259 110.5q-159 0 -260 -110.5t-101 -282.5z" />
    <glyph glyph-name="OE" unicode="&#x152;" horiz-adv-x="2363" 
d="M88 737q0 216 90.5 388.5t252.5 270t366 97.5q182 0 337.5 -82t231.5 -219v274h877v-135h-730v-528h660v-133h-660v-535h730v-135h-877v289q-70 -145 -223 -229.5t-342 -84.5q-206 0 -369 98.5t-253.5 272t-90.5 391.5zM242 739q0 -274 158.5 -448t404.5 -174
q247 0 404 172t157 446t-158 445.5t-405 171.5q-245 0 -403 -171.5t-158 -441.5z" />
    <glyph glyph-name="oe" unicode="&#x153;" horiz-adv-x="1951" 
d="M78 496q0 227 142.5 374.5t361.5 147.5q140 0 252 -65t178 -179q59 115 165 179.5t244 64.5q202 0 326.5 -130t124.5 -341v-70h-789q7 -181 99.5 -281t251.5 -100q122 0 199.5 51.5t103.5 149.5h137q-40 -157 -153.5 -239.5t-288.5 -82.5q-141 0 -250 64.5t-170 179.5
q-64 -114 -176.5 -179t-253.5 -65q-218 0 -361 147.5t-143 373.5zM1421 897q-138 0 -226.5 -85t-107.5 -232h644q0 143 -85.5 230t-224.5 87zM221 498q0 -175 100.5 -285.5t260.5 -110.5q158 0 259 110.5t101 285.5q0 172 -101 282.5t-259 110.5q-159 0 -260 -110.5
t-101 -282.5z" />
    <glyph glyph-name="Racute" unicode="&#x154;" horiz-adv-x="1310" 
d="M846 1823l-158 -244h-115l123 244h150zM326 0h-148v1466h547q222 0 349.5 -114t127.5 -310q0 -157 -78.5 -264t-220.5 -145l314 -633h-164l-299 608h-428v-608zM326 1333v-592h403q152 0 237 78.5t85 218.5q0 141 -87 218t-239 77h-399z" />
    <glyph glyph-name="racute" unicode="&#x155;" horiz-adv-x="706" 
d="M588 1362l-156 -244h-117l125 244h148zM666 1004v-127h-78q-136 0 -217.5 -85.5t-81.5 -226.5v-565h-142v991h134l10 -153q30 81 104.5 128.5t177.5 47.5q49 0 93 -10z" />
    <glyph glyph-name="Rcommaaccent" unicode="&#x156;" horiz-adv-x="1310" 
d="M326 0h-148v1466h547q222 0 349.5 -114t127.5 -310q0 -157 -78.5 -264t-220.5 -145l314 -633h-164l-299 608h-428v-608zM326 1333v-592h403q152 0 237 78.5t85 218.5q0 141 -87 218t-239 77h-399zM786 -203q0 -91 -53.5 -145t-124.5 -51v61q44 -1 70 20t29 60
q-20 -4 -31 -4q-37 0 -63.5 25t-26.5 63q0 43 27.5 71.5t68.5 28.5q48 0 76 -34t28 -95z" />
    <glyph glyph-name="rcommaaccent" unicode="&#x157;" horiz-adv-x="706" 
d="M666 1004v-127h-78q-136 0 -217.5 -85.5t-81.5 -226.5v-565h-142v991h134l10 -153q30 81 104.5 128.5t177.5 47.5q49 0 93 -10zM315 -203q0 -91 -53.5 -145t-124.5 -51v61q43 -1 69.5 21t31.5 61q-15 -6 -33 -6q-37 0 -63.5 25t-26.5 63q0 43 27.5 71.5t68.5 28.5
q48 0 76 -34t28 -95z" />
    <glyph glyph-name="Rcaron" unicode="&#x158;" horiz-adv-x="1310" 
d="M537 1579l-156 250h127l119 -182l116 182h127l-155 -250h-178zM326 0h-148v1466h547q222 0 349.5 -114t127.5 -310q0 -157 -78.5 -264t-220.5 -145l314 -633h-164l-299 608h-428v-608zM326 1333v-592h403q152 0 237 78.5t85 218.5q0 141 -87 218t-239 77h-399z" />
    <glyph glyph-name="rcaron" unicode="&#x159;" horiz-adv-x="706" 
d="M279 1118l-156 248h129l117 -180l116 180h129l-155 -248h-180zM666 1004v-127h-78q-136 0 -217.5 -85.5t-81.5 -226.5v-565h-142v991h134l10 -153q30 81 104.5 128.5t177.5 47.5q49 0 93 -10z" />
    <glyph glyph-name="Sacute" unicode="&#x15a;" horiz-adv-x="1153" 
d="M793 1821l-158 -244h-115l123 244h150zM90 1085q0 184 135 296t357 112q198 0 320.5 -104.5t139.5 -288.5h-149q-12 125 -93.5 192.5t-219.5 67.5q-155 0 -248.5 -74.5t-93.5 -198.5q0 -191 229 -249l252 -62q348 -84 348 -385q0 -190 -136 -303t-364 -113
q-214 0 -348 105t-147 285h151q6 -116 99.5 -185t244.5 -69q162 0 257.5 73t95.5 199q0 200 -232 254l-248 61q-172 41 -261 139t-89 248z" />
    <glyph glyph-name="sacute" unicode="&#x15b;" horiz-adv-x="888" 
d="M659 1399l-155 -244h-117l123 244h149zM63 279h136q0 -86 60.5 -136.5t164.5 -50.5q115 0 179.5 46t64.5 126q0 63 -36 100t-122 58l-170 43q-256 64 -256 268q0 130 98.5 207.5t259.5 77.5q157 0 252 -80.5t99 -218.5h-138q-3 86 -60 134t-157 48q-104 0 -160.5 -43
t-56.5 -123q0 -115 162 -155l170 -43q130 -32 190 -96t60 -171q0 -133 -104 -214t-273 -81q-167 0 -265 83t-98 221z" />
    <glyph glyph-name="Scircumflex" unicode="&#x15c;" horiz-adv-x="1153" 
d="M455 1577h-127l155 250h179l155 -250h-127l-117 182zM90 1085q0 184 135 296t357 112q198 0 320.5 -104.5t139.5 -288.5h-149q-12 125 -93.5 192.5t-219.5 67.5q-155 0 -248.5 -74.5t-93.5 -198.5q0 -191 229 -249l252 -62q348 -84 348 -385q0 -190 -136 -303t-364 -113
q-214 0 -348 105t-147 285h151q6 -116 99.5 -185t244.5 -69q162 0 257.5 73t95.5 199q0 200 -232 254l-248 61q-172 41 -261 139t-89 248z" />
    <glyph glyph-name="scircumflex" unicode="&#x15d;" horiz-adv-x="888" 
d="M322 1155h-127l155 250h178l156 -250h-127l-117 182zM63 279h136q0 -86 60.5 -136.5t164.5 -50.5q115 0 179.5 46t64.5 126q0 63 -36 100t-122 58l-170 43q-256 64 -256 268q0 130 98.5 207.5t259.5 77.5q157 0 252 -80.5t99 -218.5h-138q-3 86 -60 134t-157 48
q-104 0 -160.5 -43t-56.5 -123q0 -115 162 -155l170 -43q130 -32 190 -96t60 -171q0 -133 -104 -214t-273 -81q-167 0 -265 83t-98 221z" />
    <glyph glyph-name="Scedilla" unicode="&#x15e;" horiz-adv-x="1153" 
d="M455 -344v86q64 -33 116 -33q41 0 68 18.5t27 51.5t-22 50t-60 17q-46 0 -101 -24l-18 51l49 104q-193 14 -311.5 117.5t-130.5 270.5h151q6 -116 99.5 -185t244.5 -69q162 0 257.5 73t95.5 199q0 200 -232 254l-248 61q-172 41 -261 139t-89 248q0 184 135 296t357 112
q198 0 320.5 -104.5t139.5 -288.5h-149q-12 125 -93.5 192.5t-219.5 67.5q-155 0 -248.5 -74.5t-93.5 -198.5q0 -191 229 -249l252 -62q348 -84 348 -385q0 -184 -128 -296t-345 -120l-31 -67q33 10 60 10q61 0 101 -35.5t40 -99.5q0 -76 -52.5 -117t-129.5 -41
q-80 0 -127 31z" />
    <glyph glyph-name="scedilla" unicode="&#x15f;" horiz-adv-x="888" 
d="M63 279h136q0 -86 60.5 -136.5t164.5 -50.5q115 0 179.5 46t64.5 126q0 63 -36 100t-122 58l-170 43q-256 64 -256 268q0 130 98.5 207.5t259.5 77.5q157 0 252 -80.5t99 -218.5h-138q-3 86 -60 134t-157 48q-104 0 -160.5 -43t-56.5 -123q0 -115 162 -155l170 -43
q130 -32 190 -96t60 -171q0 -127 -95.5 -207t-252.5 -88l-31 -67q33 10 61 10q61 0 101.5 -35.5t40.5 -99.5q0 -75 -53.5 -116.5t-129.5 -41.5q-80 0 -127 31v86q61 -33 115 -33q41 0 68.5 18.5t27.5 51.5t-22 50t-60 17q-45 0 -100 -24l-20 51l49 104q-145 12 -228.5 93
t-83.5 209z" />
    <glyph glyph-name="Scaron" unicode="&#x160;" horiz-adv-x="1153" 
d="M483 1577l-155 250h127l118 -180l117 180h127l-155 -250h-179zM90 1085q0 184 135 296t357 112q198 0 320.5 -104.5t139.5 -288.5h-149q-12 125 -93.5 192.5t-219.5 67.5q-155 0 -248.5 -74.5t-93.5 -198.5q0 -191 229 -249l252 -62q348 -84 348 -385q0 -190 -136 -303
t-364 -113q-214 0 -348 105t-147 285h151q6 -116 99.5 -185t244.5 -69q162 0 257.5 73t95.5 199q0 200 -232 254l-248 61q-172 41 -261 139t-89 248z" />
    <glyph glyph-name="scaron" unicode="&#x161;" horiz-adv-x="888" 
d="M350 1155l-155 250h127l118 -182l117 182h127l-156 -250h-178zM63 279h136q0 -86 60.5 -136.5t164.5 -50.5q115 0 179.5 46t64.5 126q0 63 -36 100t-122 58l-170 43q-256 64 -256 268q0 130 98.5 207.5t259.5 77.5q157 0 252 -80.5t99 -218.5h-138q-3 86 -60 134t-157 48
q-104 0 -160.5 -43t-56.5 -123q0 -115 162 -155l170 -43q130 -32 190 -96t60 -171q0 -133 -104 -214t-273 -81q-167 0 -265 83t-98 221z" />
    <glyph glyph-name="Tcedilla" unicode="&#x162;" horiz-adv-x="1099" 
d="M438 -344v86q64 -33 115 -33q42 0 69 18.5t27 51.5t-22 50t-60 17q-45 0 -100 -24l-18 51l59 127h-33v1331h-450v135h1050v-135h-452v-1331h-33l-43 -92q33 10 59 10q61 0 101.5 -35.5t40.5 -99.5q0 -76 -53 -117t-130 -41q-80 0 -127 31z" />
    <glyph glyph-name="tcedilla" unicode="&#x163;" horiz-adv-x="610" 
d="M375 0h-31l-43 -92q33 10 61 10q60 0 101 -36t41 -99q0 -75 -53 -116.5t-129 -41.5q-80 0 -127 31v86q61 -33 114 -33q41 0 69 18.5t28 51.5t-22.5 50t-61.5 17q-44 0 -101 -24l-18 51l59 127h-26v872h-199v119h199v314h139v-314h198v-119h-198v-872z" />
    <glyph glyph-name="Tcaron" unicode="&#x164;" horiz-adv-x="1099" 
d="M459 1577l-156 250h129l117 -180l117 180h129l-156 -250h-180zM25 1331v135h1050v-135h-452v-1331h-148v1331h-450z" />
    <glyph glyph-name="tcaron" unicode="&#x165;" horiz-adv-x="610" 
d="M479 1151v319h133l-34 -319h-99zM375 0h-139v872h-199v119h199v314h139v-314h198v-119h-198v-872z" />
    <glyph glyph-name="Tbar" unicode="&#x166;" horiz-adv-x="1099" 
d="M248 758v127h227v446h-450v135h1050v-135h-452v-446h229v-127h-229v-758h-148v758h-227z" />
    <glyph glyph-name="tbar" unicode="&#x167;" horiz-adv-x="610" 
d="M375 0h-139v498h-146v112h146v262h-199v119h199v314h139v-314h198v-119h-198v-262h145v-112h-145v-498z" />
    <glyph glyph-name="Utilde" unicode="&#x168;" horiz-adv-x="1419" 
d="M526 1612h-100q-7 101 33.5 159t115.5 58q38 0 75 -17.5t61 -38t54.5 -38t57.5 -17.5q70 0 70 111h102q3 -106 -38 -161.5t-123 -55.5q-40 0 -78 17t-61.5 38t-51.5 38t-51 17q-31 0 -48.5 -28.5t-17.5 -81.5zM168 510v956h147v-950q0 -193 103 -295t295 -102
q188 0 289.5 103.5t101.5 293.5v950h147v-956q0 -249 -144 -392t-394 -143q-255 0 -400 142.5t-145 392.5z" />
    <glyph glyph-name="utilde" unicode="&#x169;" horiz-adv-x="1132" 
d="M371 1141h-101q-6 101 34.5 159t115.5 58q38 0 75 -17.5t61 -38t55 -38t59 -17.5q67 0 67 111h103q3 -106 -38.5 -161.5t-123.5 -55.5q-40 0 -78 17t-61.5 38t-51.5 38t-51 17q-65 0 -65 -110zM844 991h141v-991h-123l-18 168q-41 -87 -136.5 -140t-211.5 -53
q-172 0 -266.5 108.5t-94.5 293.5v616h144v-571q0 -320 262 -320q144 0 223.5 94t79.5 269v526z" />
    <glyph glyph-name="Umacron" unicode="&#x16a;" horiz-adv-x="1419" 
d="M473 1692v112h475v-112h-475zM168 510v956h147v-950q0 -193 103 -295t295 -102q188 0 289.5 103.5t101.5 293.5v950h147v-956q0 -249 -144 -392t-394 -143q-255 0 -400 142.5t-145 392.5z" />
    <glyph glyph-name="umacron" unicode="&#x16b;" horiz-adv-x="1132" 
d="M317 1221v112h476v-112h-476zM844 991h141v-991h-123l-18 168q-41 -87 -136.5 -140t-211.5 -53q-172 0 -266.5 108.5t-94.5 293.5v616h144v-571q0 -320 262 -320q144 0 223.5 94t79.5 269v526z" />
    <glyph glyph-name="Uring" unicode="&#x16e;" horiz-adv-x="1419" 
d="M711 1571q-97 0 -159.5 63t-62.5 160q0 93 64 156t158 63t157.5 -63.5t63.5 -155.5q0 -94 -63.5 -158.5t-157.5 -64.5zM711 1669q52 0 84 34.5t32 90.5q0 54 -32.5 89.5t-83.5 35.5t-84 -35t-33 -90q0 -56 32.5 -90.5t84.5 -34.5zM168 510v956h147v-950q0 -193 103 -295
t295 -102q188 0 289.5 103.5t101.5 293.5v950h147v-956q0 -249 -144 -392t-394 -143q-255 0 -400 142.5t-145 392.5z" />
    <glyph glyph-name="uring" unicode="&#x16f;" horiz-adv-x="1132" 
d="M555 1100q-97 0 -159 63t-62 160q0 94 63.5 156.5t157.5 62.5t157.5 -63.5t63.5 -155.5q0 -94 -63.5 -158.5t-157.5 -64.5zM555 1198q54 0 86.5 34.5t32.5 90.5q0 54 -33.5 89.5t-85.5 35.5q-51 0 -84 -35t-33 -90q0 -56 32.5 -90.5t84.5 -34.5zM844 991h141v-991h-123
l-18 168q-41 -87 -136.5 -140t-211.5 -53q-172 0 -266.5 108.5t-94.5 293.5v616h144v-571q0 -320 262 -320q144 0 223.5 94t79.5 269v526z" />
    <glyph glyph-name="Uhungarumlaut" unicode="&#x170;" horiz-adv-x="1419" 
d="M813 1821l-151 -244h-111l123 244h139zM1057 1821l-183 -244h-112l149 244h146zM168 510v956h147v-950q0 -193 103 -295t295 -102q188 0 289.5 103.5t101.5 293.5v950h147v-956q0 -249 -144 -392t-394 -143q-255 0 -400 142.5t-145 392.5z" />
    <glyph glyph-name="uhungarumlaut" unicode="&#x171;" horiz-adv-x="1132" 
d="M657 1350l-151 -244h-111l125 244h137zM901 1350l-180 -244h-115l150 244h145zM844 991h141v-991h-123l-18 168q-41 -87 -136.5 -140t-211.5 -53q-172 0 -266.5 108.5t-94.5 293.5v616h144v-571q0 -320 262 -320q144 0 223.5 94t79.5 269v526z" />
    <glyph glyph-name="Uogonek" unicode="&#x172;" horiz-adv-x="1419" 
d="M168 510v956h147v-950q0 -193 103 -295t295 -102q188 0 289.5 103.5t101.5 293.5v950h147v-956q0 -200 -94 -333t-264 -179q-57 -25 -85 -61t-28 -72q0 -64 70 -64q19 0 43 9v-109q-35 -12 -74 -12q-67 0 -108 39.5t-41 101.5q0 86 86 147q-14 -2 -43 -2
q-255 0 -400 142.5t-145 392.5z" />
    <glyph glyph-name="uogonek" unicode="&#x173;" horiz-adv-x="1132" 
d="M885 0h-23l-18 168q-41 -87 -136.5 -140t-211.5 -53q-172 0 -266.5 108.5t-94.5 293.5v616h144v-571q0 -320 262 -320q144 0 223.5 94t79.5 269v526h141v-991q-58 -25 -87.5 -61.5t-29.5 -73.5q0 -64 70 -64q19 0 43 9v-109q-35 -12 -74 -12q-67 0 -108 39.5t-41 101.5
q0 52 33 96.5t94 73.5z" />
    <glyph glyph-name="Wcircumflex" unicode="&#x174;" horiz-adv-x="2004" 
d="M883 1577h-127l155 250h179l155 -250h-127l-117 182zM467 0l-436 1466h153l297 -1007q39 -140 58 -242q29 123 67 242l320 1007h153l320 -1007q27 -88 65 -242q28 135 58 240l303 1009h149l-440 -1466h-139l-394 1245l-393 -1245h-141z" />
    <glyph glyph-name="wcircumflex" unicode="&#x175;" horiz-adv-x="1519" 
d="M641 1106h-127l156 250h178l156 -250h-127l-117 182zM356 0l-327 991h145l195 -598q27 -79 61 -213q11 54 59 213l197 598h145l195 -598q32 -95 61 -213q29 120 60 213l196 598h148l-336 -991h-137l-205 623q-34 101 -53 194q-24 -90 -58 -194l-204 -623h-142z" />
    <glyph glyph-name="Ycircumflex" unicode="&#x176;" horiz-adv-x="1177" 
d="M473 1577h-129l158 250h178l156 -250h-129l-117 182zM518 612l-498 854h166l363 -632q29 -57 43 -89q24 49 45 89l358 632h162l-491 -854v-612h-148v612z" />
    <glyph glyph-name="ycircumflex" unicode="&#x177;" horiz-adv-x="964" 
d="M362 1106h-126l155 250h178l156 -250h-127l-117 182zM47 -432v117h109q40 0 65.5 3.5t57.5 16t56 42t42 77.5l43 117l-402 1050h150l319 -864l314 864h145l-454 -1218q-42 -115 -114.5 -167t-180.5 -52q-87 0 -150 14z" />
    <glyph glyph-name="Ydieresis" unicode="&#x178;" horiz-adv-x="1177" 
d="M442 1618q-43 0 -72.5 29.5t-29.5 70.5t30.5 72t71.5 31q40 0 70.5 -31t30.5 -72t-30.5 -70.5t-70.5 -29.5zM739 1618q-41 0 -70.5 29.5t-29.5 70.5q0 42 29.5 72.5t70.5 30.5t72 -31t31 -72t-30.5 -70.5t-72.5 -29.5zM518 612l-498 854h166l363 -632q29 -57 43 -89
q24 49 45 89l358 632h162l-491 -854v-612h-148v612z" />
    <glyph glyph-name="Zacute" unicode="&#x179;" horiz-adv-x="1187" 
d="M799 1821l-156 -244h-117l123 244h150zM1104 0h-1020v135l844 1196h-838v135h1018v-131l-848 -1200h844v-135z" />
    <glyph glyph-name="zacute" unicode="&#x17a;" horiz-adv-x="907" 
d="M672 1350l-156 -244h-115l123 244h148zM827 0h-747v113l573 759h-573v119h747v-114l-575 -758h575v-119z" />
    <glyph glyph-name="Zdotaccent" unicode="&#x17b;" horiz-adv-x="1187" 
d="M580 1618q-42 0 -72.5 30t-30.5 72t30.5 73.5t72.5 31.5q41 0 71.5 -31.5t30.5 -73.5q0 -41 -30.5 -71.5t-71.5 -30.5zM1104 0h-1020v135l844 1196h-838v135h1018v-131l-848 -1200h844v-135z" />
    <glyph glyph-name="zdotaccent" unicode="&#x17c;" horiz-adv-x="907" 
d="M453 1147q-41 0 -72 30.5t-31 71.5t31 73t72 32t72.5 -32t31.5 -73t-31.5 -71.5t-72.5 -30.5zM827 0h-747v113l573 759h-573v119h747v-114l-575 -758h575v-119z" />
    <glyph glyph-name="Zcaron" unicode="&#x17d;" horiz-adv-x="1187" 
d="M489 1577l-155 250h127l119 -180l116 180h127l-155 -250h-179zM1104 0h-1020v135l844 1196h-838v135h1018v-131l-848 -1200h844v-135z" />
    <glyph glyph-name="zcaron" unicode="&#x17e;" horiz-adv-x="907" 
d="M365 1106l-158 250h129l119 -180l116 180h127l-155 -250h-178zM827 0h-747v113l573 759h-573v119h747v-114l-575 -758h575v-119z" />
    <glyph glyph-name="florin" unicode="&#x192;" horiz-adv-x="1140" 
d="M150 823h366l59 412q15 115 85 176.5t188 61.5h172v-136h-186q-98 0 -113 -106l-57 -408h354v-133h-375l-102 -721q-15 -111 -82 -169t-176 -58h-197v135h199q42 0 73.5 28t38.5 75l101 710h-348v133z" />
    <glyph glyph-name="Aringacute" unicode="&#x1fa;" horiz-adv-x="1320" 
d="M877 2101l-156 -243h-117l125 243h148zM178 0h-149l516 1407q-51 28 -80 78t-29 114q0 95 63.5 158.5t157.5 63.5t158 -64t64 -158q0 -60 -29.5 -110t-79.5 -80l524 -1409h-153l-144 389h-675zM657 1475q53 0 85 35t32 92q0 54 -33 89t-84 35q-53 0 -85.5 -34.5
t-32.5 -89.5q0 -57 32 -92t86 -35zM639 1260l-272 -742h583l-274 742q-2 6 -10 28.5t-9 30.5q-4 -24 -18 -59z" />
    <glyph glyph-name="aringacute" unicode="&#x1fb;" horiz-adv-x="1069" 
d="M743 1630l-151 -233h-113l121 233h143zM432 -25q-156 0 -246 80.5t-90 212.5q0 136 98.5 219t272.5 97l328 26v33q0 256 -263 256q-129 0 -201.5 -55.5t-72.5 -155.5h-129q0 111 64 191t178 116q-54 57 -54 148q0 95 64 158t158 63t157.5 -63.5t63.5 -157.5
q0 -89 -55 -150q108 -37 168.5 -124.5t60.5 -227.5v-641h-119l-18 174q-46 -94 -142.5 -146.5t-222.5 -52.5zM539 1018q52 0 84 34.5t32 90.5q0 54 -32.5 89.5t-83.5 35.5q-53 0 -86 -35t-33 -90q0 -56 32.5 -90.5t86.5 -34.5zM465 90q155 0 242.5 98.5t87.5 262.5v53
l-293 -23q-134 -12 -198 -67t-64 -142q0 -89 60.5 -135.5t164.5 -46.5z" />
    <glyph glyph-name="AEacute" unicode="&#x1fc;" horiz-adv-x="1837" 
d="M1364 1821l-158 -244h-114l122 244h150zM18 0l586 1466h1112v-135h-727v-528h658v-133h-658v-535h727v-135h-874v424h-498l-168 -424h-158zM393 553h449v778h-142z" />
    <glyph glyph-name="aeacute" unicode="&#x1fd;" horiz-adv-x="1794" 
d="M1098 1350l-158 -244h-115l123 244h150zM96 274q0 141 97.5 215.5t265.5 77.5l336 8v68q0 122 -71.5 189t-193.5 67q-128 0 -200 -56t-72 -155h-129q0 150 110.5 240t292.5 90q125 0 217.5 -55t131.5 -150q61 98 159.5 151.5t223.5 53.5q203 0 326.5 -130.5t123.5 -340.5
v-70h-790q9 -178 100.5 -279.5t251.5 -101.5q249 0 303 201h137q-40 -157 -152.5 -239.5t-289.5 -82.5q-145 0 -254 66.5t-166 187.5q-45 -116 -155 -185t-259 -69q-163 0 -253.5 80.5t-90.5 218.5zM1264 897q-138 0 -228.5 -86.5t-107.5 -232.5h645q0 143 -84.5 231
t-224.5 88zM240 281q0 -94 62.5 -142.5t172.5 -48.5q145 0 232.5 87t87.5 229v67l-314 -8q-124 -3 -182.5 -48t-58.5 -136z" />
    <glyph glyph-name="Oslashacute" unicode="&#x1fe;" horiz-adv-x="1574" 
d="M1001 1815l-155 -244h-117l125 244h147zM1485 733q0 -219 -88.5 -392t-248 -269.5t-362.5 -96.5q-232 0 -407 127l-78 -102h-147l137 180q-98 101 -150.5 242.5t-52.5 310.5q0 219 88.5 392.5t248 270.5t361.5 97q232 0 410 -129l80 104h145l-137 -180
q96 -103 148.5 -245t52.5 -310zM242 733q0 -263 141 -434l723 948q-134 103 -320 103q-243 0 -393.5 -171t-150.5 -446zM1333 733q0 263 -141 434l-725 -948q136 -102 319 -102q243 0 395 171t152 445z" />
    <glyph glyph-name="oslashacute" unicode="&#x1ff;" horiz-adv-x="1163" 
d="M801 1350l-156 -244h-117l123 244h150zM78 496q0 227 142.5 374.5t361.5 147.5q123 0 231 -51l66 106h129l-103 -168q85 -70 132.5 -176t47.5 -233q0 -226 -142.5 -373.5t-360.5 -147.5q-120 0 -222 48l-79 -127h-131l114 186q-88 70 -137 177.5t-49 236.5zM221 498
q0 -186 115 -301l407 657q-70 37 -161 37q-159 0 -260 -110.5t-101 -282.5zM942 498q0 179 -111 290l-403 -653q74 -33 154 -33q158 0 259 110.5t101 285.5z" />
    <glyph glyph-name="Scommaaccent" unicode="&#x218;" horiz-adv-x="1153" 
d="M90 1085q0 184 135 296t357 112q198 0 320.5 -104.5t139.5 -288.5h-149q-12 125 -93.5 192.5t-219.5 67.5q-155 0 -248.5 -74.5t-93.5 -198.5q0 -191 229 -249l252 -62q348 -84 348 -385q0 -190 -136 -303t-364 -113q-214 0 -348 105t-147 285h151q6 -116 99.5 -185
t244.5 -69q162 0 257.5 73t95.5 199q0 200 -232 254l-248 61q-172 41 -261 139t-89 248zM664 -203q0 -91 -54 -145t-125 -51v61q44 -1 70 20t29 60q-20 -4 -31 -4q-37 0 -63.5 25t-26.5 63q0 43 27.5 71.5t68.5 28.5q48 0 76.5 -34t28.5 -95z" />
    <glyph glyph-name="scommaaccent" unicode="&#x219;" horiz-adv-x="888" 
d="M63 279h136q0 -86 60.5 -136.5t164.5 -50.5q115 0 179.5 46t64.5 126q0 63 -36 100t-122 58l-170 43q-256 64 -256 268q0 130 98.5 207.5t259.5 77.5q157 0 252 -80.5t99 -218.5h-138q-3 86 -60 134t-157 48q-104 0 -160.5 -43t-56.5 -123q0 -115 162 -155l170 -43
q130 -32 190 -96t60 -171q0 -133 -104 -214t-273 -81q-167 0 -265 83t-98 221zM526 -203q0 -91 -54 -145t-126 -51v61q43 -1 69 21t31 61q-15 -6 -30 -6q-39 0 -65.5 25t-26.5 63q0 42 28 71t68 29q48 0 77 -34t29 -95z" />
    <glyph glyph-name="Tcommaaccent" unicode="&#x21a;" horiz-adv-x="1099" 
d="M25 1331v135h1050v-135h-452v-1331h-148v1331h-450zM647 -203q0 -91 -54 -145t-124 -51v61q44 -1 69.5 20t28.5 60q-20 -4 -30 -4q-37 0 -64 25t-27 63q0 43 28 71.5t69 28.5q48 0 76 -34t28 -95z" />
    <glyph glyph-name="tcommaaccent" unicode="&#x21b;" horiz-adv-x="610" 
d="M375 0h-139v872h-199v119h199v314h139v-314h198v-119h-198v-872zM403 -203q0 -91 -54 -145t-126 -51v61q43 -1 69.5 21t31.5 61q-15 -6 -31 -6q-39 0 -65.5 25t-26.5 63q0 42 28 71t68 29q48 0 77 -34t29 -95z" />
    <glyph glyph-name="dotlessj" unicode="&#x237;" horiz-adv-x="436" 
d="M-117 -434l27 129q57 -14 96 -14q73 0 107 43.5t34 134.5v1132h142v-1141q0 -142 -71.5 -222.5t-201.5 -80.5q-64 0 -133 19z" />
    <glyph glyph-name="circumflex" unicode="&#x2c6;" horiz-adv-x="653" 
d="M209 1569h-127l156 250h178l155 -250h-127l-116 182z" />
    <glyph glyph-name="caron" unicode="&#x2c7;" horiz-adv-x="653" 
d="M238 1569l-156 250h127l119 -183l116 183h127l-155 -250h-178z" />
    <glyph glyph-name="breve" unicode="&#x2d8;" horiz-adv-x="702" 
d="M487 1815h115q0 -118 -67.5 -186t-182.5 -68q-116 0 -184 68t-68 186h115q0 -68 35 -106t102 -38q66 0 100.5 37.5t34.5 106.5z" />
    <glyph glyph-name="dotaccent" unicode="&#x2d9;" horiz-adv-x="405" 
d="M203 1610q-43 0 -73 29.5t-30 72.5q0 42 30.5 73.5t72.5 31.5q41 0 71.5 -31.5t30.5 -73.5q0 -41 -30.5 -71.5t-71.5 -30.5z" />
    <glyph glyph-name="ring" unicode="&#x2da;" horiz-adv-x="602" 
d="M301 1563q-96 0 -158.5 62.5t-62.5 158.5q0 95 63.5 158t157.5 63t157.5 -63.5t63.5 -157.5q0 -93 -64 -157t-157 -64zM301 1659q54 0 86.5 35t32.5 92q0 54 -33.5 89.5t-85.5 35.5q-51 0 -84 -35t-33 -90q0 -57 32 -92t85 -35z" />
    <glyph glyph-name="ogonek" unicode="&#x2db;" horiz-adv-x="391" 
d="M211 0h100q-58 -25 -87 -61.5t-29 -73.5q0 -64 71 -64q17 0 41 9v-109q-34 -12 -74 -12q-67 0 -108 39.5t-41 101.5q0 52 33 96.5t94 73.5z" />
    <glyph glyph-name="tilde" unicode="&#x2dc;" horiz-adv-x="759" 
d="M197 1604l-103 -2q-6 102 35 160.5t117 58.5q37 0 74 -17.5t61 -38t55 -38t58 -17.5q69 0 69 111h101q4 -105 -38 -162t-122 -57q-40 0 -78 17.5t-61.5 38.5t-51.5 38.5t-51 17.5q-65 0 -65 -110z" />
    <glyph glyph-name="hungarumlaut" unicode="&#x2dd;" horiz-adv-x="688" 
d="M348 1812l-153 -243h-109l123 243h139zM590 1812l-180 -243h-113l149 243h144z" />
    <glyph glyph-name="gravecomb" unicode="&#x300;" horiz-adv-x="446" 
d="M354 1569h-114l-154 246h150z" />
    <glyph glyph-name="acutecomb" unicode="&#x301;" horiz-adv-x="450" 
d="M362 1812l-155 -243h-115l123 243h147z" />
    <glyph glyph-name="circumflexcomb" unicode="&#x302;" horiz-adv-x="653" 
d="M209 1569h-127l156 250h178l155 -250h-127l-116 182z" />
    <glyph glyph-name="tildecomb" unicode="&#x303;" horiz-adv-x="759" 
d="M197 1604l-103 -2q-6 102 35 160.5t117 58.5q37 0 74 -17.5t61 -38t55 -38t58 -17.5q69 0 69 111h101q4 -105 -38 -162t-122 -57q-40 0 -78 17.5t-61.5 38.5t-51.5 38.5t-51 17.5q-65 0 -65 -110z" />
    <glyph glyph-name="macroncomb" unicode="&#x304;" horiz-adv-x="720" 
d="M123 1681v113h475v-113h-475z" />
    <glyph glyph-name="brevecomb" unicode="&#x306;" horiz-adv-x="702" 
d="M487 1815h115q0 -118 -67.5 -186t-182.5 -68q-116 0 -184 68t-68 186h115q0 -68 35 -106t102 -38q66 0 100.5 37.5t34.5 106.5z" />
    <glyph glyph-name="dotaccentcomb" unicode="&#x307;" horiz-adv-x="405" 
d="M203 1610q-43 0 -73 29.5t-30 72.5q0 42 30.5 73.5t72.5 31.5q41 0 71.5 -31.5t30.5 -73.5q0 -41 -30.5 -71.5t-71.5 -30.5z" />
    <glyph glyph-name="dieresiscomb" unicode="&#x308;" horiz-adv-x="753" 
d="M227 1610q-41 0 -71.5 29.5t-30.5 70.5t30.5 71.5t71.5 30.5q40 0 70.5 -31t30.5 -71q0 -41 -30.5 -70.5t-70.5 -29.5zM526 1610q-43 0 -72.5 29.5t-29.5 70.5t30.5 71.5t71.5 30.5q40 0 70.5 -31t30.5 -71q0 -41 -30.5 -70.5t-70.5 -29.5z" />
    <glyph glyph-name="ringcomb" unicode="&#x30a;" horiz-adv-x="602" 
d="M301 1563q-96 0 -158.5 62.5t-62.5 158.5q0 95 63.5 158t157.5 63t157.5 -63.5t63.5 -157.5q0 -93 -64 -157t-157 -64zM301 1659q54 0 86.5 35t32.5 92q0 54 -33.5 89.5t-85.5 35.5q-51 0 -84 -35t-33 -90q0 -57 32 -92t85 -35z" />
    <glyph glyph-name="hungarumlautcomb" unicode="&#x30b;" horiz-adv-x="688" 
d="M348 1812l-153 -243h-109l123 243h139zM590 1812l-180 -243h-113l149 243h144z" />
    <glyph glyph-name="caroncomb" unicode="&#x30c;" horiz-adv-x="653" 
d="M238 1569l-156 250h127l119 -183l116 183h127l-155 -250h-178z" />
    <glyph glyph-name="commaturnedabovecomb" unicode="&#x312;" horiz-adv-x="376" 
d="M291 1655q0 -43 -28 -72t-68 -29q-48 0 -77.5 34.5t-29.5 94.5q0 91 54 145.5t124 51.5v-61q-44 1 -69.5 -20t-28.5 -60q20 4 31 4q39 0 65.5 -25t26.5 -63z" />
    <glyph glyph-name="commaaccentcomb" unicode="&#x326;" horiz-adv-x="376" 
d="M283 -168q0 -92 -53.5 -146t-125.5 -51v60q44 0 70 21.5t31 60.5q-10 -4 -33 -4q-37 0 -63.5 25t-26.5 63q0 43 27.5 70.5t68.5 27.5q48 0 76.5 -33.5t28.5 -93.5z" />
    <glyph glyph-name="cedillacomb" unicode="&#x327;" horiz-adv-x="468" 
d="M78 -344v86q64 -33 115 -33q42 0 69 18.5t27 51.5t-22 50t-60 17q-46 0 -101 -24l-18 51l86 188l57 -2v-55l-45 -96q33 10 60 10q61 0 101 -35.5t40 -99.5q0 -75 -53 -116.5t-129 -41.5q-80 0 -127 31z" />
    <glyph glyph-name="strokeshortcomb" unicode="&#x335;" horiz-adv-x="999" 
d="M147 1245h592v-100h-592v100z" />
    <glyph glyph-name="slashshortcomb" unicode="&#x337;" horiz-adv-x="475" 
d="M41 649v113l395 190v-114z" />
    <glyph glyph-name="slashlongcomb" unicode="&#x338;" horiz-adv-x="1021" 
d="M940 1094l-727 -1178h-131l729 1178h129z" />
    <glyph glyph-name="Omega" unicode="&#x3a9;" horiz-adv-x="1310" 
d="M569 0h-415v119h211q-103 77 -158 188t-55 234q0 206 144 341.5t361 135.5t359.5 -135t142.5 -340q0 -125 -55.5 -236.5t-157.5 -187.5h211v-119h-416v119q140 56 214.5 169.5t74.5 243.5q0 159 -108 259t-265 100q-159 0 -266.5 -99.5t-107.5 -259.5q0 -133 76.5 -247.5
t209.5 -165.5v-119z" />
    <glyph glyph-name="pi" unicode="&#x3c0;" horiz-adv-x="1232" 
d="M238 0v866h-199v125h1110v-125h-215v-624q0 -62 26.5 -88.5t75.5 -28.5l113 -2v-115q-64 -10 -150 -10q-106 0 -156 53.5t-50 175.5v639h-416v-866h-139z" />
    <glyph glyph-name="Wgrave" unicode="&#x1e80;" horiz-adv-x="2004" 
d="M1055 1577h-117l-152 246h148zM467 0l-436 1466h153l297 -1007q39 -140 58 -242q29 123 67 242l320 1007h153l320 -1007q27 -88 65 -242q28 135 58 240l303 1009h149l-440 -1466h-139l-394 1245l-393 -1245h-141z" />
    <glyph glyph-name="wgrave" unicode="&#x1e81;" horiz-adv-x="1519" 
d="M813 1106h-117l-151 246h147zM356 0l-327 991h145l195 -598q27 -79 61 -213q11 54 59 213l197 598h145l195 -598q32 -95 61 -213q29 120 60 213l196 598h148l-336 -991h-137l-205 623q-34 101 -53 194q-24 -90 -58 -194l-204 -623h-142z" />
    <glyph glyph-name="Wacute" unicode="&#x1e82;" horiz-adv-x="2004" 
d="M1221 1821l-156 -244h-117l125 244h148zM467 0l-436 1466h153l297 -1007q39 -140 58 -242q29 123 67 242l320 1007h153l320 -1007q27 -88 65 -242q28 135 58 240l303 1009h149l-440 -1466h-139l-394 1245l-393 -1245h-141z" />
    <glyph glyph-name="wacute" unicode="&#x1e83;" horiz-adv-x="1519" 
d="M979 1350l-156 -244h-116l124 244h148zM356 0l-327 991h145l195 -598q27 -79 61 -213q11 54 59 213l197 598h145l195 -598q32 -95 61 -213q29 120 60 213l196 598h148l-336 -991h-137l-205 623q-34 101 -53 194q-24 -90 -58 -194l-204 -623h-142z" />
    <glyph glyph-name="Wdieresis" unicode="&#x1e84;" horiz-adv-x="2004" 
d="M852 1618q-41 0 -70.5 29.5t-29.5 70.5q0 42 29.5 72.5t70.5 30.5q40 0 71 -31t31 -72t-31 -70.5t-71 -29.5zM1151 1618q-41 0 -70.5 29.5t-29.5 70.5q0 42 29.5 72.5t70.5 30.5q40 0 70 -31t30 -72t-30 -70.5t-70 -29.5zM467 0l-436 1466h153l297 -1007q39 -140 58 -242
q29 123 67 242l320 1007h153l320 -1007q27 -88 65 -242q28 135 58 240l303 1009h149l-440 -1466h-139l-394 1245l-393 -1245h-141z" />
    <glyph glyph-name="wdieresis" unicode="&#x1e85;" horiz-adv-x="1519" 
d="M610 1147q-41 0 -70.5 29.5t-29.5 70.5q0 42 29.5 72.5t70.5 30.5q40 0 71.5 -31t31.5 -72t-31.5 -70.5t-71.5 -29.5zM909 1147q-41 0 -70.5 29.5t-29.5 70.5q0 42 29.5 72.5t70.5 30.5q40 0 70.5 -31t30.5 -72t-30.5 -70.5t-70.5 -29.5zM356 0l-327 991h145l195 -598
q27 -79 61 -213q11 54 59 213l197 598h145l195 -598q32 -95 61 -213q29 120 60 213l196 598h148l-336 -991h-137l-205 623q-34 101 -53 194q-24 -90 -58 -194l-204 -623h-142z" />
    <glyph glyph-name="Ygrave" unicode="&#x1ef2;" horiz-adv-x="1177" 
d="M643 1577h-115l-153 246h149zM518 612l-498 854h166l363 -632q29 -57 43 -89q24 49 45 89l358 632h162l-491 -854v-612h-148v612z" />
    <glyph glyph-name="ygrave" unicode="&#x1ef3;" horiz-adv-x="964" 
d="M535 1106h-117l-152 246h148zM47 -432v117h109q40 0 65.5 3.5t57.5 16t56 42t42 77.5l43 117l-402 1050h150l319 -864l314 864h145l-454 -1218q-42 -115 -114.5 -167t-180.5 -52q-87 0 -150 14z" />
    <glyph glyph-name="endash" unicode="&#x2013;" horiz-adv-x="1898" 
d="M135 475v125h1628v-125h-1628z" />
    <glyph glyph-name="emdash" unicode="&#x2014;" horiz-adv-x="2330" 
d="M135 475v125h2060v-125h-2060z" />
    <glyph glyph-name="quoteleft" unicode="&#x2018;" horiz-adv-x="501" 
d="M377 1198q0 -52 -33 -85.5t-86 -33.5q-56 0 -94.5 43t-38.5 117q0 95 63.5 168t157.5 88v-76q-54 -11 -89.5 -46t-35.5 -79q22 15 55 15q42 0 71.5 -29.5t29.5 -81.5z" />
    <glyph glyph-name="quoteright" unicode="&#x2019;" horiz-adv-x="501" 
d="M377 1335q0 -97 -63 -170t-158 -86v76q54 11 89.5 45.5t35.5 77.5q-18 -12 -56 -12q-42 0 -71 29t-29 79q0 53 33.5 87t87.5 34q55 0 93 -43.5t38 -116.5z" />
    <glyph glyph-name="quotesinglbase" unicode="&#x201a;" horiz-adv-x="501" 
d="M377 66q0 -97 -63 -170t-158 -86v75q54 9 89.5 44.5t35.5 78.5q-17 -14 -56 -14q-42 0 -71 29t-29 81t33.5 85.5t87.5 33.5q55 0 93 -42.5t38 -114.5z" />
    <glyph glyph-name="quotedblleft" unicode="&#x201c;" horiz-adv-x="833" 
d="M377 1198q0 -52 -33 -85.5t-86 -33.5q-56 0 -94.5 43t-38.5 117q0 95 63.5 168t157.5 88v-76q-54 -11 -89.5 -46t-35.5 -79q22 15 55 15q42 0 71.5 -29.5t29.5 -81.5zM709 1198q0 -52 -33.5 -85.5t-87.5 -33.5q-55 0 -94 43.5t-39 116.5q0 95 64 168t159 88v-76
q-54 -11 -89.5 -45.5t-35.5 -77.5q19 13 55 13q42 0 71.5 -29.5t29.5 -81.5z" />
    <glyph glyph-name="quotedblright" unicode="&#x201d;" horiz-adv-x="833" 
d="M377 1335q0 -97 -63 -170t-158 -86v76q54 11 89.5 45.5t35.5 77.5q-18 -12 -56 -12q-42 0 -71 29t-29 79q0 53 33.5 87t87.5 34q55 0 93 -43.5t38 -116.5zM709 1335q0 -96 -64 -169t-158 -87v76q54 11 89.5 46t35.5 79q-21 -14 -55 -14q-42 0 -72 29t-30 79q0 53 33 87
t87 34q56 0 95 -43.5t39 -116.5z" />
    <glyph glyph-name="quotedblbase" unicode="&#x201e;" horiz-adv-x="833" 
d="M377 66q0 -97 -63 -170t-158 -86v75q54 9 89.5 44.5t35.5 78.5q-17 -14 -56 -14q-42 0 -71 29t-29 81t33.5 85.5t87.5 33.5q55 0 93 -42.5t38 -114.5zM709 66q0 -96 -64 -169t-158 -87v75q54 9 89.5 44.5t35.5 78.5q-21 -14 -55 -14q-42 0 -72 29.5t-30 80.5
q0 52 33.5 85.5t86.5 33.5q56 0 95 -42.5t39 -114.5z" />
    <glyph glyph-name="dagger" unicode="&#x2020;" horiz-adv-x="610" 
d="M254 553v610h-203v99h203v204h102v-204h203v-99h-203v-610h-102z" />
    <glyph glyph-name="daggerdbl" unicode="&#x2021;" horiz-adv-x="612" 
d="M254 553v254h-201v98h201v211h-203v98h203v252h102v-252h203v-98h-203v-211h205v-98h-205v-254h-102z" />
    <glyph glyph-name="bullet" unicode="&#x2022;" horiz-adv-x="770" 
d="M387 260q-116 0 -199.5 82.5t-83.5 196.5t83 197t200 83q114 0 196.5 -83t82.5 -197q0 -113 -82.5 -196t-196.5 -83z" />
    <glyph glyph-name="ellipsis" unicode="&#x2026;" horiz-adv-x="1417" 
d="M268 -23q-53 0 -91 37t-38 88q0 52 38.5 90.5t90.5 38.5t90.5 -38.5t38.5 -90.5q0 -51 -38 -88t-91 -37zM709 -23q-54 0 -91.5 37t-37.5 88q0 53 37.5 91t91.5 38q53 0 91 -38.5t38 -90.5q0 -51 -38 -88t-91 -37zM1147 -23q-52 0 -89.5 37t-37.5 88q0 53 37.5 91t89.5 38
q53 0 91 -38.5t38 -90.5q0 -51 -38 -88t-91 -37z" />
    <glyph glyph-name="perthousand" unicode="&#x2030;" horiz-adv-x="2650" 
d="M817 1130q0 -158 -100.5 -260t-257.5 -102t-259 102t-102 260t102 261.5t259 103.5q156 0 257 -103t101 -262zM1561 1466l-1115 -1466h-147l1112 1466h150zM694 1130q0 109 -65.5 177.5t-169.5 68.5q-106 0 -172 -68.5t-66 -177.5q0 -107 67 -176t171 -69q103 0 169 69
t66 176zM1763 336q0 -158 -100.5 -260.5t-257.5 -102.5t-259 102.5t-102 260.5t102 261t259 103q156 0 257 -102.5t101 -261.5zM2552 336q0 -158 -102 -260.5t-259 -102.5t-257.5 102.5t-100.5 260.5q0 159 101 261.5t257 102.5q157 0 259 -103t102 -261zM1640 336
q0 109 -65.5 177.5t-169.5 68.5q-106 0 -172 -68.5t-66 -177.5q0 -107 67 -175.5t171 -68.5q103 0 169 68.5t66 175.5zM2429 336q0 109 -66 177.5t-172 68.5q-104 0 -169.5 -68.5t-65.5 -177.5q0 -107 66 -175.5t169 -68.5q104 0 171 68.5t67 175.5z" />
    <glyph glyph-name="minute" unicode="&#x2032;" horiz-adv-x="356" 
d="M256 1399l-35 -371h-86l-37 371q-4 46 20.5 71t59.5 25q34 0 58 -25t20 -71z" />
    <glyph glyph-name="guilsinglleft" unicode="&#x2039;" horiz-adv-x="763" 
d="M516 0l-434 496l434 495h166l-434 -495l434 -496h-166z" />
    <glyph glyph-name="guilsinglright" unicode="&#x203a;" horiz-adv-x="763" 
d="M248 0h-166l434 496l-434 495h166l434 -495z" />
    <glyph glyph-name="asterism" unicode="&#x2042;" horiz-adv-x="1798" 
d="M674 1174l-127 47l37 88l123 -41q89 -31 159 -78q-18 95 -18 178v135h96v-135q0 -110 -16 -178q73 46 162 78l124 43l35 -90l-129 -47q-85 -30 -172 -41q50 -45 115 -136l76 -110l-80 -58l-76 111q-59 80 -86 156q-24 -74 -84 -156l-78 -111l-82 58l78 110q62 84 117 136
q-88 11 -174 41zM190 395l-131 47l37 93l125 -43q104 -39 162 -78q-18 92 -18 178v135h96v-135q0 -95 -17 -178q60 41 160 78l125 43l37 -93l-129 -45q-84 -30 -174 -41q67 -71 117 -137l73 -110l-80 -54l-75 107q-57 80 -88 157q-21 -73 -80 -157l-82 -109l-78 56l76 110
q59 80 116 137q-103 14 -172 39zM1161 395l-131 47l37 90l123 -40q104 -39 162 -78q-19 97 -19 178v135h99v-135q0 -95 -17 -178q70 45 158 78l127 43l37 -93l-131 -45q-85 -30 -172 -41q64 -67 114 -137l76 -110l-80 -54l-76 107q-57 80 -88 157q-25 -76 -82 -157l-79 -109
l-80 56l78 110q57 81 116 137q-103 14 -172 39z" />
    <glyph glyph-name="fraction" unicode="&#x2044;" horiz-adv-x="239" 
d="M655 1454l-942 -1454h-129l940 1454h131z" />
    <glyph glyph-name="zero.superior" unicode="&#x2070;" horiz-adv-x="849" 
d="M63 1102q0 207 98.5 334t264.5 127q168 0 265 -126.5t97 -334.5q0 -207 -98 -333t-264 -126q-168 0 -265.5 125.5t-97.5 333.5zM176 1102q0 -167 65.5 -262t184.5 -95q118 0 183 95t65 262t-65 261.5t-183 94.5q-119 0 -184.5 -94.5t-65.5 -261.5z" />
    <glyph glyph-name="four.superior" unicode="&#x2074;" horiz-adv-x="761" 
d="M731 854h-106v-178h-109v178h-473v104l436 605h146v-607h106v-102zM172 956h344v482z" />
    <glyph glyph-name="five.superior" unicode="&#x2075;" horiz-adv-x="722" 
d="M45 963h111q0 -88 57.5 -143.5t146.5 -55.5q90 0 146.5 57.5t56.5 149.5q0 91 -56 147t-147 56q-110 0 -180 -82l-106 18l110 453h443v-105h-359l-59 -239q68 53 168 53q131 0 216 -85.5t85 -217.5q0 -133 -90 -220t-228 -87q-135 0 -225 85.5t-90 215.5z" />
    <glyph glyph-name="six.superior" unicode="&#x2076;" horiz-adv-x="763" 
d="M176 1278l211 289h129l-221 -293q47 20 98 20q139 0 226.5 -87.5t87.5 -221.5q0 -140 -93 -231.5t-229 -91.5q-138 0 -233 93.5t-95 229.5q0 77 26.5 141t92.5 152zM174 981q0 -95 58.5 -156t152.5 -61q90 0 148.5 61.5t58.5 155.5q0 93 -58.5 154t-148.5 61
q-94 0 -152.5 -61t-58.5 -154z" />
    <glyph glyph-name="seven.superior" unicode="&#x2077;" horiz-adv-x="659" 
d="M629 1458l-322 -782h-114l323 782h-483v105h596v-105z" />
    <glyph glyph-name="eight.superior" unicode="&#x2078;" horiz-adv-x="753" 
d="M57 915q0 82 46 145t124 89q-63 25 -97 77.5t-34 121.5q0 105 78.5 168t204.5 63q124 0 202 -63t78 -170q0 -69 -35 -121.5t-98 -77.5q79 -23 124.5 -86t45.5 -146q0 -116 -89 -184.5t-230 -68.5q-142 0 -231 69t-89 184zM195 1339q0 -65 48.5 -106t133.5 -41
q83 0 131.5 40.5t48.5 104.5q0 67 -50 104.5t-130 37.5t-131 -37t-51 -103zM172 930q0 -77 58 -121.5t147 -44.5q91 0 149 44.5t58 121.5q0 76 -58.5 120t-148.5 44q-91 0 -148 -42.5t-57 -121.5z" />
    <glyph glyph-name="nine.superior" unicode="&#x2079;" horiz-adv-x="763" 
d="M590 965l-213 -289h-127l219 293q-47 -21 -98 -21q-138 0 -226 88.5t-88 223.5q0 139 93.5 231t230.5 92t231.5 -93.5t94.5 -229.5q0 -78 -26 -143t-91 -152zM592 1262q0 94 -59 155.5t-152 61.5q-92 0 -150.5 -61.5t-58.5 -155.5q0 -93 58.5 -153t150.5 -60q93 0 152 60
t59 153z" />
    <glyph glyph-name="zero.inferior" unicode="&#x2080;" horiz-adv-x="851" 
d="M63 236q0 208 98.5 335t264.5 127q168 0 265 -126.5t97 -335.5q0 -207 -98 -332t-264 -125q-169 0 -266 124.5t-97 332.5zM176 236q0 -166 65.5 -260.5t184.5 -94.5q118 0 183 94.5t65 260.5q0 168 -65 263t-183 95q-119 0 -184.5 -95t-65.5 -263z" />
    <glyph glyph-name="one.inferior" unicode="&#x2081;" horiz-adv-x="446" 
d="M238 578h-195v104h307v-887h-112v783z" />
    <glyph glyph-name="two.inferior" unicode="&#x2082;" horiz-adv-x="704" 
d="M651 -205h-594v92l316 258q155 125 155 261q0 186 -178 186q-86 0 -134 -54.5t-48 -152.5h-111q0 142 80.5 227.5t214.5 85.5t211.5 -77.5t77.5 -210.5q0 -177 -197 -336l-215 -174h422v-105z" />
    <glyph glyph-name="three.inferior" unicode="&#x2083;" horiz-adv-x="708" 
d="M291 254h-58v80l271 244h-416v104h547v-107l-248 -227q115 -9 191.5 -83.5t76.5 -194.5q0 -131 -88.5 -210t-222.5 -79q-133 0 -216 80t-83 209h111q0 -86 51 -136.5t137 -50.5q88 0 142.5 51t54.5 138q0 74 -45 122t-129 58q-23 2 -76 2z" />
    <glyph glyph-name="four.inferior" unicode="&#x2084;" horiz-adv-x="770" 
d="M731 -27h-106v-178h-109v178h-473v105l436 604h146v-606h106v-103zM172 76h344v481z" />
    <glyph glyph-name="five.inferior" unicode="&#x2085;" horiz-adv-x="722" 
d="M45 82h111q0 -88 57.5 -143.5t146.5 -55.5q90 0 146.5 57.5t56.5 149.5q0 91 -56 147t-147 56q-110 0 -180 -82l-106 18l110 453h443v-104h-359l-59 -240q68 53 168 53q131 0 216 -85.5t85 -217.5q0 -133 -90 -220t-228 -87q-135 0 -225 85.5t-90 215.5z" />
    <glyph glyph-name="six.inferior" unicode="&#x2086;" horiz-adv-x="763" 
d="M176 397l211 289h129l-221 -293q49 21 98 21q139 0 226.5 -88t87.5 -222q0 -140 -93 -231.5t-229 -91.5q-138 0 -233 93.5t-95 229.5q0 77 26.5 141t92.5 152zM174 100q0 -95 58.5 -156t152.5 -61q90 0 148.5 61.5t58.5 155.5q0 93 -58.5 154t-148.5 61q-94 0 -152.5 -61
t-58.5 -154z" />
    <glyph glyph-name="seven.inferior" unicode="&#x2087;" horiz-adv-x="659" 
d="M629 578l-322 -783h-114l323 783h-483v104h596v-104z" />
    <glyph glyph-name="eight.inferior" unicode="&#x2088;" horiz-adv-x="753" 
d="M57 35q0 81 46 144t124 89q-63 25 -97 77.5t-34 121.5q0 105 78.5 168t204.5 63q124 0 202 -63t78 -170q0 -69 -35 -121.5t-98 -77.5q79 -23 124.5 -86t45.5 -145q0 -116 -89 -185t-230 -69t-230.5 69t-89.5 185zM195 459q0 -65 48.5 -106.5t133.5 -41.5q83 0 131.5 41
t48.5 105q0 67 -50 104t-130 37q-81 0 -131.5 -36.5t-50.5 -102.5zM172 49q0 -77 58 -121.5t147 -44.5q91 0 149 44.5t58 121.5q0 76 -58.5 120t-148.5 44q-91 0 -148 -42.5t-57 -121.5z" />
    <glyph glyph-name="nine.inferior" unicode="&#x2089;" horiz-adv-x="763" 
d="M590 84l-213 -289h-127l219 293q-44 -20 -98 -20q-138 0 -226 88t-88 223q0 139 93.5 231t230.5 92t231.5 -93.5t94.5 -229.5q0 -78 -26 -143t-91 -152zM592 381q0 94 -59 155.5t-152 61.5q-92 0 -150.5 -61.5t-58.5 -155.5q0 -93 58.5 -153t150.5 -60q93 0 152 60
t59 153z" />
    <glyph glyph-name="Euro" unicode="&#x20ac;" horiz-adv-x="1341" 
d="M950 -25q-278 0 -474.5 147.5t-254.5 407.5h-164v117h146q-4 58 -4 86q0 30 4 92h-146v117h164q60 255 256.5 402t480.5 147q158 0 267 -39v-139q-115 39 -267 39q-224 0 -377.5 -107.5t-209.5 -302.5h614v-117h-637q-4 -58 -4 -92q0 -28 4 -86h637v-117h-616
q54 -198 209.5 -307.5t379.5 -109.5q140 0 271 43v-142q-134 -39 -279 -39z" />
    <glyph glyph-name="numero" unicode="&#x2116;" horiz-adv-x="2537" 
d="M2437 1016q0 -207 -141 -347.5t-348 -140.5q-134 0 -246.5 65t-178 177.5t-65.5 245.5q0 202 141.5 340.5t348.5 138.5t348 -137.5t141 -341.5zM326 0h-148v1466h150l807 -1220v1220h145v-1466h-145l-809 1221v-1221zM2300 1014q0 152 -100 251t-252 99q-151 0 -252 -100
t-101 -250q0 -149 103 -253t250 -104q151 0 251.5 101.5t100.5 255.5zM2380 254h-864v127h864v-127z" />
    <glyph glyph-name="soundcopyright" unicode="&#x2117;" horiz-adv-x="983" 
d="M494 678q-175 0 -293.5 117.5t-118.5 291.5q0 172 119.5 289t292.5 117t290 -116.5t117 -289.5q0 -177 -116 -293t-291 -116zM494 741q147 0 244.5 98.5t97.5 247.5q0 147 -98 245t-244 98q-148 0 -246 -98t-98 -245q0 -149 97.5 -247.5t246.5 -98.5zM430 854h-70v455
h170q76 0 121 -41.5t45 -112.5q0 -73 -44.5 -115.5t-121.5 -42.5h-100v-143zM430 1243v-180h98q95 0 95 90t-95 90h-98z" />
    <glyph glyph-name="trademark" unicode="&#x2122;" horiz-adv-x="1302" 
d="M246 1391h-193v75h467v-75h-192v-494h-82v494zM672 897h-78v569h78l217 -483l213 483h78v-569h-78v399l-176 -399h-76l-178 393v-393z" />
    <glyph glyph-name="estimated" unicode="&#x212e;" horiz-adv-x="1595" 
d="M123 723q0 160 50.5 296.5t139.5 231.5t214.5 149t271.5 54q148 0 272 -46.5t213 -132t139 -212.5t50 -283q0 -62 -3 -108h-1142v-369q80 -115 207 -177.5t288 -62.5q157 0 290 75t198 198l78 -29q-75 -151 -227 -238t-343 -87q-206 0 -364.5 93t-245 261.5t-86.5 386.5z
M328 1118v-373h940v410q-76 104 -199 160.5t-270 56.5q-150 0 -272 -68t-199 -186z" />
    <glyph glyph-name="oneeighth" unicode="&#x215b;" horiz-adv-x="1325" 
d="M203 1374h-162v92h262v-686h-100v594zM1135 1454l-942 -1454h-130l941 1454h131zM774 186q0 63 34.5 111t94.5 68q-46 21 -73 61t-27 92q0 81 61 129.5t158 48.5t158 -48t61 -130q0 -53 -27.5 -93.5t-74.5 -59.5q61 -19 96 -67t35 -112q0 -90 -69 -143t-179 -53
q-111 0 -179.5 53t-68.5 143zM895 508q0 -46 33.5 -74t93.5 -28q58 0 92.5 28t34.5 74t-35 72t-92 26t-92 -26t-35 -72zM877 199q0 -55 40.5 -86t104.5 -31q63 0 103 31.5t40 85.5q0 55 -40 84.5t-103 29.5q-64 0 -104.5 -29.5t-40.5 -84.5z" />
    <glyph glyph-name="threeeighths" unicode="&#x215c;" horiz-adv-x="1411" 
d="M43 997h104q0 -62 36.5 -98.5t99.5 -36.5t99 34t36 91q0 67 -45 104t-129 37h-56v70l187 174h-299v94h430v-92l-182 -168q88 -9 142 -66t54 -145q0 -104 -65.5 -165.5t-173.5 -61.5q-104 0 -171 63t-67 166zM1221 1454l-942 -1454h-129l940 1454h131zM860 186
q0 63 35 111t94 68q-46 21 -73 61t-27 92q0 81 61 129.5t158 48.5t158 -48t61 -130q0 -53 -27.5 -93.5t-74.5 -59.5q61 -19 96 -67t35 -112q0 -90 -69 -143t-179 -53t-179 53t-69 143zM981 508q0 -46 33.5 -74t93.5 -28q58 0 92.5 28t34.5 74t-35 72t-92 26t-92 -26t-35 -72
zM965 199q0 -55 39.5 -86t103.5 -31t104.5 31.5t40.5 85.5q0 55 -40.5 84.5t-104.5 29.5q-63 0 -103 -29.5t-40 -84.5z" />
    <glyph glyph-name="fiveeighths" unicode="&#x215d;" horiz-adv-x="1441" 
d="M295 770q-106 0 -176 66t-70 170h105q0 -64 39 -103t104 -39t105 41.5t40 106.5t-40 106t-107 41q-84 0 -131 -63l-96 16l88 354h354v-94h-281l-43 -166q48 39 123 39q108 0 172 -66t64 -167q0 -106 -70 -174t-180 -68zM1251 1454l-944 -1454h-129l942 1454h131zM889 186
q0 63 35 111t94 68q-45 21 -71.5 61t-26.5 92q0 81 61 129.5t158 48.5q96 0 156.5 -48t60.5 -130q0 -53 -27 -93.5t-74 -59.5q60 -19 94.5 -67.5t34.5 -111.5q0 -90 -68 -143t-179 -53q-110 0 -179 53t-69 143zM1010 508q0 -46 33.5 -74t93.5 -28q59 0 93 28t34 74t-35 72
t-92 26t-92 -26t-35 -72zM993 199q0 -55 40.5 -86t103.5 -31q64 0 104.5 31.5t40.5 85.5q0 55 -40.5 84.5t-104.5 29.5q-63 0 -103.5 -29.5t-40.5 -84.5z" />
    <glyph glyph-name="seveneighths" unicode="&#x215e;" horiz-adv-x="1290" 
d="M399 1370h-374v96h477v-96l-262 -590h-109zM1100 1454l-942 -1454h-129l940 1454h131zM739 186q0 63 34.5 111t94.5 68q-46 21 -73 61t-27 92q0 81 61 129.5t158 48.5t158 -48t61 -130q0 -53 -27.5 -93.5t-74.5 -59.5q61 -19 96 -67t35 -112q0 -90 -69 -143t-179 -53
t-179 53t-69 143zM860 508q0 -46 33.5 -74t93.5 -28q58 0 92.5 28t34.5 74t-35 72t-92 26t-92 -26t-35 -72zM842 199q0 -55 40.5 -86t104.5 -31q63 0 103 31.5t40 85.5q0 55 -40 84.5t-103 29.5q-64 0 -104.5 -29.5t-40.5 -84.5z" />
    <glyph glyph-name="arrowleft" unicode="&#x2190;" horiz-adv-x="1867" 
d="M844 -27l-86 -86l-635 633l635 635l86 -84l-488 -489h1389v-121h-1389z" />
    <glyph glyph-name="arrowup" unicode="&#x2191;" horiz-adv-x="1527" 
d="M209 807l-86 88l641 629l641 -629l-86 -88l-494 483v-1290h-120v1290z" />
    <glyph glyph-name="arrowright" unicode="&#x2192;" horiz-adv-x="1867" 
d="M1026 1153l84 84l635 -633l-635 -633l-84 84l485 490h-1388v119h1388z" />
    <glyph glyph-name="arrowdown" unicode="&#x2193;" horiz-adv-x="1511" 
d="M1305 508l84 -86l-633 -635l-633 635l86 86l487 -488v1459h121v-1459z" />
    <glyph glyph-name="arrowboth" unicode="&#x2194;" horiz-adv-x="2158" 
d="M123 524l444 451v-180l-205 -209l465 2v2h504l467 -2l-207 209v178l445 -449l-443 -452v182l203 209l-965 -2v2l-471 -2l209 -213v-176z" />
    <glyph glyph-name="arrowupdn" unicode="&#x2195;" horiz-adv-x="1144" 
d="M571 -334l-448 445h176l211 -205l-2 467v501l2 467l-211 -204h-176l448 442l451 -442h-180l-209 204v-1435l209 205h180z" />
    <glyph glyph-name="arrowNW" unicode="&#x2196;" horiz-adv-x="1701" 
d="M123 1466h897v-120l-690 -3l1249 -1259l-84 -84l-1251 1260v-691h-121v897z" />
    <glyph glyph-name="arrowNE" unicode="&#x2197;" horiz-adv-x="1714" 
d="M694 1346v120h897v-895h-123v689l-1259 -1260l-86 84l1259 1262h-688z" />
    <glyph glyph-name="arrowSE" unicode="&#x2198;" horiz-adv-x="1710" 
d="M1466 901l121 -2v-895h-897v121h690l-1257 1257l84 84l1257 -1255z" />
    <glyph glyph-name="arrowSW" unicode="&#x2199;" horiz-adv-x="1716" 
d="M1020 119v-121h-897v897h123v-690l1261 1263l86 -86l-1263 -1261z" />
    <glyph glyph-name="partialdiff" unicode="&#x2202;" horiz-adv-x="1273" 
d="M117 502q0 146 68.5 266t185.5 187t256 67q104 0 197 -44t157 -126q-60 174 -172.5 314t-323.5 321h183q251 -213 370 -434t119 -490q0 -270 -148.5 -429t-381.5 -159q-216 0 -363 149t-147 378zM260 500q0 -174 105 -286t268 -112q166 0 273.5 114t107.5 292
q0 169 -104 278t-267 109q-167 0 -275 -112t-108 -283z" />
    <glyph glyph-name="emptyset" unicode="&#x2205;" horiz-adv-x="1640" 
d="M817 -25q-152 0 -283.5 56t-228.5 159l-176 -159l-74 80l183 165q-136 198 -136 457q0 163 55 305t150 241.5t227.5 156.5t282.5 57q152 0 284 -56.5t230 -160.5l180 164l74 -80l-186 -170q133 -198 133 -457q0 -162 -55 -303.5t-150 -241t-227.5 -156.5t-282.5 -57z
M248 733q0 -203 96 -360l883 807q-77 84 -182.5 130t-227.5 46q-246 0 -407.5 -175t-161.5 -448zM817 111q247 0 409.5 175t162.5 447q0 202 -97 361l-882 -807q76 -84 180.5 -130t226.5 -46z" />
    <glyph glyph-name="increment" unicode="&#x2206;" horiz-adv-x="1359" 
d="M1274 0h-1188v129l504 1337h176l508 -1343v-123zM659 1270l-428 -1147h895l-434 1147q-4 10 -10 29t-6 20q-2 -11 -17 -49z" />
    <glyph glyph-name="product" unicode="&#x220f;" horiz-adv-x="1378" 
d="M326 0h-148v1466h1020v-1466h-147v1331h-725v-1331z" />
    <glyph glyph-name="summation" unicode="&#x2211;" horiz-adv-x="1091" 
d="M1006 0h-953v154l455 579l-455 580v153h953v-135h-791l467 -602l-467 -594h791v-135z" />
    <glyph glyph-name="minus" unicode="&#x2212;" 
d="M164 754h1024v-127h-1024v127z" />
    <glyph glyph-name="radical" unicode="&#x221a;" horiz-adv-x="1421" 
d="M406 0l-406 989h150l323 -811l483 1290h392v-133h-293l-514 -1335h-135z" />
    <glyph glyph-name="infinity" unicode="&#x221e;" horiz-adv-x="1759" 
d="M115 578q0 159 102.5 260.5t263.5 101.5q121 0 215.5 -64t184.5 -200q89 136 182.5 200t214.5 64q161 0 264 -102t103 -260q0 -159 -103.5 -261t-263.5 -102q-122 0 -215.5 63.5t-181.5 198.5q-90 -135 -184 -198.5t-216 -63.5q-160 0 -263 102t-103 261zM252 578
q0 -107 65 -171.5t172 -64.5q175 0 302 236q-127 233 -302 233q-108 0 -172.5 -63.5t-64.5 -169.5zM969 578q127 -236 301 -236q107 0 172 64.5t65 171.5q0 106 -64.5 169.5t-172.5 63.5q-174 0 -301 -233z" />
    <glyph glyph-name="integral" unicode="&#x222b;" horiz-adv-x="759" 
d="M217 -29h-156v129h152q42 0 69 29t27 76v1052q0 102 67 170t167 68h155v-127h-151q-42 0 -69 -28.5t-27 -75.5v-1053q0 -103 -67 -171.5t-167 -68.5z" />
    <glyph glyph-name="approxequal" unicode="&#x2248;" 
d="M1069 942h119q0 -140 -69 -224.5t-185 -84.5q-56 0 -115.5 20.5t-110 49.5t-98.5 58t-97.5 49.5t-90.5 20.5q-69 0 -102 -42.5t-37 -137.5h-119q0 136 69 219.5t185 83.5q62 0 135 -31t129.5 -68t125 -68t122.5 -31q69 0 101.5 44.5t37.5 141.5zM1069 567h119
q0 -139 -69 -224t-185 -85q-56 0 -115.5 20.5t-110 50t-98.5 58.5t-97.5 49.5t-90.5 20.5q-69 0 -101.5 -42t-37.5 -136h-119q0 136 69 219.5t185 83.5q51 0 107.5 -20.5t106.5 -50t99.5 -58.5t102 -49.5t96.5 -20.5q69 0 101.5 44t37.5 140z" />
    <glyph glyph-name="notequal" unicode="&#x2260;" 
d="M297 39l160 293h-293v127h360l162 295h-522v127h590l159 293h142l-160 -293h293v-127h-361l-161 -295h522v-127h-590l-160 -293h-141z" />
    <glyph glyph-name="lessequal" unicode="&#x2264;" 
d="M1188 373v-140l-1024 361v145l1024 363v-141l-866 -293zM164 0v127h1024v-127h-1024z" />
    <glyph glyph-name="greaterequal" unicode="&#x2265;" 
d="M1188 594l-1024 -361v140l866 295l-866 293v141l1024 -363v-145zM164 127h1024v-127h-1024v127z" />
    <glyph glyph-name="filledbox" unicode="&#x25a0;" horiz-adv-x="1699" 
d="M123 0v1454h1454v-1454h-1454z" />
    <glyph glyph-name="squarewhite" unicode="&#x25a1;" horiz-adv-x="1699" 
d="M123 0v1454h1454v-1454h-1454zM1454 1331h-1208v-1208h1208v1208z" />
    <glyph glyph-name="triagup" unicode="&#x25b2;" horiz-adv-x="1978" 
d="M123 0l866 1454l866 -1454h-1732z" />
    <glyph glyph-name="triangleupwhite" unicode="&#x25b3;" horiz-adv-x="1982" 
d="M991 1458l869 -1456h-1737zM342 123h1296l-647 1087z" />
    <glyph glyph-name="lozenge" unicode="&#x25ca;" horiz-adv-x="1236" 
d="M1114 727l-424 -727h-145l-422 727l422 727h145zM965 727l-347 600l-346 -600l346 -600z" />
    <glyph glyph-name="circle" unicode="&#x25cb;" horiz-adv-x="1843" 
d="M922 -117q-162 0 -310 63.5t-255 170.5t-170.5 255t-63.5 310t63.5 310t171 255t255.5 170.5t309 63.5q162 0 310 -63.5t254.5 -170.5t170 -255t63.5 -310t-63.5 -310t-170 -255t-254.5 -170.5t-310 -63.5zM922 14q136 0 260 53t213.5 142.5t142.5 213t53 259.5
q0 180 -90 334.5t-244.5 245t-334.5 90.5q-181 0 -335 -90t-243.5 -244t-89.5 -336t89.5 -335.5t243 -243t335.5 -89.5z" />
    <glyph glyph-name="circleblack" unicode="&#x25cf;" horiz-adv-x="1843" 
d="M922 -117q-162 0 -310 63.5t-255 170.5t-170.5 255t-63.5 310t63.5 310t171 255t255.5 170.5t309 63.5q162 0 310 -63.5t254.5 -170.5t170 -255t63.5 -310t-63.5 -310t-170 -255t-254.5 -170.5t-310 -63.5z" />
    <glyph glyph-name="peace" unicode="&#x262e;" horiz-adv-x="1843" 
d="M922 -117q-162 0 -310 63.5t-255 170.5t-170.5 255t-63.5 310t63.5 310t171 255t255.5 170.5t309 63.5q162 0 310 -63.5t254.5 -170.5t170 -255t63.5 -310t-63.5 -310t-170 -255t-254.5 -170.5t-310 -63.5zM254 682q0 -144 61 -279l549 359v588q-126 -11 -239 -68
t-194.5 -145.5t-129 -207t-47.5 -247.5zM1591 682q0 127 -48 245t-129 206.5t-193.5 146.5t-237.5 70v-588l549 -356q59 134 59 276zM373 301q85 -120 213 -196t278 -89v602zM983 618v-602q149 13 277 89.5t213 197.5z" />
    <glyph glyph-name="check" unicode="&#x2713;" horiz-adv-x="1517" 
d="M506 14l-443 475l95 97l342 -369l684 825l106 -86z" />
    <glyph glyph-name="ITF" unicode="&#xf8ff;" horiz-adv-x="3561" 
d="M205 0v1434h442v-1434h-442zM739 1016v418h443v-418h-443zM1272 0v1434h444v-1434h-444zM1806 1016v418h443v-418h-443zM2339 0v1434h444v-1434h-444zM2873 1016v418h443v-418h-443zM2873 506v420h443v-420h-443z" />
    <glyph glyph-name="G.ss01" horiz-adv-x="1550" 
d="M88 725q0 226 88.5 401t250 271t372.5 96q240 0 410 -118t227 -339h-158q-57 158 -182.5 238t-298.5 80q-252 0 -403.5 -171t-151.5 -458q0 -283 149.5 -445.5t399.5 -162.5q150 0 262 59t177 177t68 284h-548v133h702v-113q0 -308 -181 -494t-480 -186q-206 0 -365 90
t-248.5 260.5t-89.5 397.5z" />
    <glyph glyph-name="idotaccent" horiz-adv-x="436" 
d="M219 1147q-43 0 -73.5 30.5t-30.5 71.5q0 42 31 73.5t73 31.5q40 0 71.5 -32t31.5 -73t-31.5 -71.5t-71.5 -30.5zM147 0v991h142v-991h-142z" />
    <glyph glyph-name="a.ss01" horiz-adv-x="1202" 
d="M930 991h125v-991h-129l-15 203q-54 -112 -150.5 -170t-223.5 -58q-214 0 -336.5 147t-122.5 378q0 228 126.5 373t338.5 145q126 0 225.5 -58t149.5 -176zM905 496q0 176 -90.5 284.5t-249.5 108.5q-160 0 -252 -109t-92 -284t91 -284.5t249 -109.5q160 0 252 109.5
t92 284.5z" />
    <glyph glyph-name="g.ss02" horiz-adv-x="1083" 
d="M121 629q0 170 117.5 279.5t300.5 109.5q145 0 239 -64q64 121 209 121q27 0 37 -2v-127q-20 4 -45 4q-83 0 -133 -59q52 -46 83.5 -118t31.5 -146q0 -167 -117 -273t-301 -106q-108 0 -197 39q-52 -3 -81 -26.5t-29 -63.5q0 -88 137 -88h338q161 0 247 -65t86 -187
q0 -148 -137.5 -232t-378.5 -84q-234 0 -346 64.5t-112 197.5q0 69 41 123.5t110 79.5q-108 42 -108 154q0 65 38.5 111t108.5 65q-139 107 -139 293zM256 629q0 -119 79 -191.5t208 -72.5q127 0 204.5 72t77.5 192q0 121 -79 196.5t-205 75.5q-125 0 -205 -76t-80 -196z
M190 -166q0 -91 80 -131.5t260 -40.5q375 0 375 193q0 69 -47.5 102t-148.5 33h-316q-98 0 -150.5 -40.5t-52.5 -115.5z" />
    <glyph glyph-name="t.ss03" horiz-adv-x="655" 
d="M559 125l21 -121q-76 -24 -146 -24q-118 0 -179.5 70t-61.5 198v624h-156v119h156v314h141v-314h237v-119h-237v-614q0 -77 35 -114.5t96 -37.5q42 0 94 19z" />
    <glyph glyph-name="f_y" horiz-adv-x="1564" 
d="M647 -432v117h109q39 0 64.5 3.5t58 16t56.5 42t42 77.5l43 117l-356 931h-334v-872h-142v872h-151v119h151v193q0 159 75.5 234t199.5 75q64 0 108 -8v-123h-86q-88 0 -121.5 -42.5t-33.5 -135.5v-193h436l321 -866l314 866h145l-454 -1218q-43 -114 -114.5 -166.5
t-182.5 -52.5q-85 0 -148 14z" />
    <glyph glyph-name="t_i" horiz-adv-x="1095" 
d="M885 1274q-43 0 -71 27.5t-28 70.5t28 72t71 29q41 0 69.5 -29t28.5 -72q0 -42 -28 -70t-70 -28zM375 0h-139v872h-199v119h199v314h139v-314h579v-991h-141v872h-438v-872z" />
    <glyph glyph-name="t_t" horiz-adv-x="1214" 
d="M375 0h-139v874h-199v117h199v314h139v-314h465v314h141v-314h197v-117h-197v-874h-141v874h-465v-874z" />
    <glyph glyph-name="t_y" horiz-adv-x="1579" 
d="M375 0h-139v874h-199v117h199v314h139v-314h405l322 -866l313 866h146l-455 -1218q-43 -114 -114.5 -166.5t-182.5 -52.5q-87 0 -150 14v117h111q39 0 64.5 3.5t58 16t56.5 42t42 77.5l41 115l-354 935h-303v-874z" />
    <glyph glyph-name="zero.tf" 
d="M98 731q0 228 69 400t200 267t309 95q177 0 308.5 -95t200 -267t68.5 -400q0 -347 -154 -553.5t-423 -206.5t-423.5 206.5t-154.5 553.5zM244 731q0 -289 113 -457t319 -168t319 168t113 457q0 290 -113 458.5t-319 168.5t-319 -168.5t-113 -458.5z" />
    <glyph glyph-name="one.tf" 
d="M649 133v1200h-385v133h529v-1333h381v-133h-934v133h409z" />
    <glyph glyph-name="two.tf" 
d="M1161 0h-964v117l469 409q204 178 272 280t68 232q0 149 -84 234.5t-232 85.5q-151 0 -243 -102.5t-97 -272.5h-147q6 231 140.5 370.5t350.5 139.5q207 0 334 -122.5t127 -323.5q0 -158 -83.5 -287.5t-307.5 -323.5l-340 -299h737v-137z" />
    <glyph glyph-name="three.tf" 
d="M606 786h-119v103l453 446h-702v131h890v-118l-438 -437q208 -11 338.5 -134t130.5 -320q0 -216 -142.5 -349t-367.5 -133q-219 0 -351 126.5t-132 344.5h147q0 -157 91 -247t247 -90q163 0 262 96.5t99 255.5q0 152 -106.5 238.5t-299.5 86.5z" />
    <glyph glyph-name="four.tf" 
d="M1167 311h-172v-311h-143v311h-770v131l717 1024h196v-1024h172v-131zM242 442h610v873z" />
    <glyph glyph-name="five.tf" 
d="M659 -25q-221 0 -352 128.5t-131 345.5h148q0 -158 90.5 -248t247.5 -90q165 0 264.5 100.5t99.5 263.5q0 159 -98 263t-266 104q-98 0 -187 -41t-153 -109l-115 37l176 737h709v-135h-603l-110 -459q131 101 303 101q223 0 358.5 -141.5t135.5 -352.5q0 -222 -144 -363
t-373 -141z" />
    <glyph glyph-name="six.tf" 
d="M338 973l367 493h172l-388 -512q98 52 203 52q225 0 366.5 -145.5t141.5 -364.5q0 -148 -68.5 -267.5t-188 -186.5t-265.5 -67q-145 0 -266 68.5t-190.5 188.5t-69.5 264q0 127 40.5 231.5t145.5 245.5zM301 494q0 -168 106 -276.5t271 -108.5q164 0 268.5 108.5
t104.5 276.5t-104.5 275.5t-268.5 107.5q-165 0 -271 -107.5t-106 -275.5z" />
    <glyph glyph-name="seven.tf" 
d="M178 1466h996v-135l-576 -1331h-154l582 1331h-848v135z" />
    <glyph glyph-name="eight.tf" 
d="M156 399q0 134 75 236.5t205 146.5q-110 44 -169.5 131t-59.5 201q0 169 130 274t341 105q209 0 338 -105.5t129 -275.5q0 -115 -60 -202t-167 -128q128 -40 204 -144t76 -241q0 -188 -144 -305t-376 -117q-234 0 -378 117.5t-144 306.5zM346 1110q0 -122 90.5 -196
t239.5 -74q151 0 239.5 72t88.5 194q0 118 -88.5 187t-239.5 69q-150 0 -240 -68.5t-90 -183.5zM299 412q0 -136 105 -219.5t274 -83.5t272 83.5t103 219.5q0 135 -102.5 216t-274.5 81t-274.5 -81t-102.5 -216z" />
    <glyph glyph-name="nine.tf" 
d="M1014 496l-367 -496h-172l389 514q-96 -51 -205 -51q-225 0 -366 145.5t-141 364.5q0 223 150 371.5t372 148.5q145 0 266 -68.5t190.5 -188.5t69.5 -265q0 -127 -41 -231t-145 -244zM1051 973q0 168 -106 276.5t-271 108.5q-164 0 -268.5 -108.5t-104.5 -276.5
q0 -166 104.5 -273.5t268.5 -107.5q165 0 271 107.5t106 273.5z" />
    <glyph glyph-name="zero.dnom" horiz-adv-x="710" 
d="M59 344q0 159 80 255.5t213 96.5q139 0 219 -98.5t80 -257.5t-80.5 -255.5t-216.5 -96.5q-138 0 -216.5 98t-78.5 258zM162 342q0 -121 50 -190.5t140 -69.5q93 0 144 70t51 190q0 121 -51.5 191.5t-143.5 70.5q-90 0 -140 -70.5t-50 -191.5z" />
    <glyph glyph-name="one.dnom" horiz-adv-x="397" 
d="M203 592h-162v94h262v-686h-100v592z" />
    <glyph glyph-name="two.dnom" horiz-adv-x="579" 
d="M535 0h-478v72l224 180q73 61 104 110t31 105q0 63 -36 100t-97 37q-62 0 -99 -37t-37 -98h-102q0 101 67 164t173 63q107 0 171 -61t64 -164q0 -77 -39.5 -142t-134.5 -143l-117 -94h306v-92z" />
    <glyph glyph-name="three.dnom" horiz-adv-x="565" 
d="M43 217h104q0 -63 36.5 -99t99.5 -36t99 33t36 90q0 68 -45 105.5t-129 37.5h-56v68l187 176h-299v94h430v-92l-184 -170q88 -9 143 -65.5t55 -145.5q0 -103 -65.5 -164t-173.5 -61q-104 0 -171 63t-67 166z" />
    <glyph glyph-name="four.dnom" horiz-adv-x="618" 
d="M383 137h-352v90l327 459h123v-457h86v-92h-86v-137h-98v137zM143 229h240v336z" />
    <glyph glyph-name="five.dnom" horiz-adv-x="595" 
d="M295 -10q-106 0 -176 65t-70 170h105q0 -65 39 -103t104 -38q66 0 105.5 40.5t39.5 106.5q0 65 -40 106.5t-107 41.5q-83 0 -131 -64l-96 17l88 354h354v-94h-281l-43 -166q48 39 123 39q107 0 171.5 -67t64.5 -167q0 -106 -70 -173.5t-180 -67.5z" />
    <glyph glyph-name="six.dnom" horiz-adv-x="630" 
d="M145 473l158 213h121l-166 -217q35 12 68 12q107 0 176 -67.5t69 -171.5q0 -107 -73.5 -179.5t-180.5 -72.5q-109 0 -183.5 73t-74.5 179q0 65 18.5 115.5t67.5 115.5zM162 240q0 -69 43 -112.5t112 -43.5q67 0 109.5 43.5t42.5 112.5q0 66 -43 108.5t-109 42.5
q-69 0 -112 -42.5t-43 -108.5z" />
    <glyph glyph-name="seven.dnom" horiz-adv-x="526" 
d="M399 590h-374v96h477v-96l-262 -590h-109z" />
    <glyph glyph-name="eight.dnom" horiz-adv-x="606" 
d="M55 186q0 63 35 111t94 68q-46 21 -73 61t-27 92q0 81 61 129.5t158 48.5t158 -48t61 -130q0 -54 -27 -94t-75 -59q61 -19 96 -67t35 -112q0 -90 -68.5 -143t-179.5 -53q-110 0 -179 53t-69 143zM176 508q0 -46 33.5 -74t93.5 -28q58 0 92.5 28t34.5 74t-35 72t-92 26
t-92 -26t-35 -72zM160 199q0 -55 39.5 -86t103.5 -31q65 0 105.5 31.5t40.5 85.5q0 55 -41 84.5t-105 29.5q-63 0 -103 -29.5t-40 -84.5z" />
    <glyph glyph-name="nine.dnom" horiz-adv-x="630" 
d="M485 213l-157 -213h-121l166 217q-35 -12 -68 -12q-106 0 -176 67.5t-70 171.5q0 107 73.5 179.5t180.5 72.5q109 0 183.5 -73t74.5 -179q0 -66 -18.5 -115.5t-67.5 -115.5zM469 446q0 69 -43.5 112.5t-112.5 43.5q-67 0 -109 -44t-42 -112q0 -66 42.5 -108.5
t108.5 -42.5q69 0 112.5 42.5t43.5 108.5z" />
    <glyph glyph-name="zero.numr" horiz-adv-x="710" 
d="M59 1124q0 159 80 257t213 98q139 0 219 -99.5t80 -259.5q0 -159 -80.5 -255.5t-216.5 -96.5q-138 0 -216.5 98t-78.5 258zM162 1122q0 -120 50 -190t140 -70q92 0 143.5 70.5t51.5 189.5q0 122 -51.5 192t-143.5 70q-90 0 -140 -70.5t-50 -191.5z" />
    <glyph glyph-name="one.numr" horiz-adv-x="397" 
d="M203 1374h-162v92h262v-686h-100v594z" />
    <glyph glyph-name="two.numr" horiz-adv-x="579" 
d="M535 780h-478v74l224 180q74 62 104.5 110t30.5 103q0 64 -35.5 100.5t-97.5 36.5t-99 -36t-37 -99h-102q0 101 67 165.5t173 64.5q107 0 171 -62.5t64 -165.5q0 -76 -39.5 -140t-134.5 -142l-115 -95h304v-94z" />
    <glyph glyph-name="three.numr" horiz-adv-x="565" 
d="M43 997h104q0 -62 36.5 -98.5t99.5 -36.5t99 34t36 91q0 67 -45 104t-129 37h-56v70l187 174h-299v94h430v-92l-182 -168q88 -9 142 -66t54 -145q0 -104 -65.5 -165.5t-173.5 -61.5q-104 0 -171 63t-67 166z" />
    <glyph glyph-name="four.numr" horiz-adv-x="618" 
d="M383 920h-352v88l327 458h123v-454h86v-92h-86v-140h-98v140zM143 1012h240v334z" />
    <glyph glyph-name="five.numr" horiz-adv-x="595" 
d="M295 770q-106 0 -176 66t-70 170h105q0 -64 39 -103t104 -39t105 41.5t40 106.5t-40 106t-107 41q-84 0 -131 -63l-96 16l88 354h354v-94h-281l-43 -166q48 39 123 39q108 0 172 -66t64 -167q0 -106 -70 -174t-180 -68z" />
    <glyph glyph-name="six.numr" horiz-adv-x="630" 
d="M145 1253l158 213h121l-166 -217q33 13 68 13q107 0 176 -67t69 -173q0 -107 -73.5 -179.5t-180.5 -72.5q-109 0 -183.5 73t-74.5 179q0 66 18.5 115.5t67.5 115.5zM162 1022q0 -70 43 -114t112 -44q67 0 109.5 44.5t42.5 113.5q0 66 -43 107.5t-109 41.5
q-69 0 -112 -41.5t-43 -107.5z" />
    <glyph glyph-name="seven.numr" horiz-adv-x="526" 
d="M399 1370h-374v96h477v-96l-262 -590h-109z" />
    <glyph glyph-name="eight.numr" horiz-adv-x="606" 
d="M55 969q0 63 34.5 110.5t94.5 67.5q-46 19 -73 59t-27 92q0 82 61 131.5t158 49.5t158 -49t61 -132q0 -52 -27 -93t-73 -58q60 -20 94.5 -68t34.5 -110q0 -90 -68.5 -144.5t-179.5 -54.5q-110 0 -179 54.5t-69 144.5zM176 1288q0 -45 33.5 -72.5t93.5 -27.5
q58 0 92.5 27.5t34.5 72.5q0 47 -35.5 74t-91.5 27t-91.5 -27t-35.5 -74zM160 981q0 -57 39.5 -88t103.5 -31q65 0 105.5 31.5t40.5 87.5q0 55 -41 85t-105 30q-63 0 -103 -30t-40 -85z" />
    <glyph glyph-name="nine.numr" horiz-adv-x="630" 
d="M485 995l-157 -215h-121l166 219q-30 -12 -68 -12q-106 0 -176 67t-70 171q0 108 73 181t181 73t183 -74t75 -180q0 -65 -18.5 -114.5t-67.5 -115.5zM469 1227q0 70 -43.5 113.5t-112.5 43.5q-67 0 -109 -44t-42 -113q0 -66 42.5 -109t108.5 -43q69 0 112.5 43t43.5 109z
" />
    <glyph glyph-name="registered.ss01" horiz-adv-x="1232" 
d="M618 434q-148 0 -271.5 70t-194 191.5t-70.5 267.5q0 147 71 269t194 191.5t271 69.5q147 0 269.5 -70t193 -192t70.5 -268t-70 -267t-192.5 -191.5t-270.5 -70.5zM618 514q192 0 321.5 129t129.5 320q0 192 -129.5 321t-321.5 129q-195 0 -322.5 -128t-127.5 -322
t127.5 -321.5t322.5 -127.5zM520 692h-82v545h203q86 0 139.5 -46t53.5 -120q0 -108 -105 -156l117 -223h-94l-103 203h-129v-203zM745 1067q0 43 -28.5 66.5t-79.5 23.5h-117v-184h117q49 0 78.5 25.5t29.5 68.5z" />
    <glyph glyph-name="bracketleftsuperior" horiz-adv-x="434" 
d="M205 567h219v-96h-326v1301h326v-97h-219v-1108z" />
    <glyph glyph-name="bracketrightsuperior" horiz-adv-x="434" 
d="M229 1675h-219v97h326v-1301h-326v96h219v1108z" />
    <glyph glyph-name="Gbreve.ss01" horiz-adv-x="1550" 
d="M881 1825h114q0 -118 -68 -186t-184 -68t-182.5 68t-66.5 186h114q0 -69 34.5 -106.5t100.5 -37.5q67 0 102.5 38t35.5 106zM88 725q0 226 88.5 401t250 271t372.5 96q240 0 410 -118t227 -339h-158q-57 158 -182.5 238t-298.5 80q-252 0 -403.5 -171t-151.5 -458
q0 -283 149.5 -445.5t399.5 -162.5q150 0 262 59t177 177t68 284h-548v133h702v-113q0 -308 -181 -494t-480 -186q-206 0 -365 90t-248.5 260.5t-89.5 397.5z" />
    <glyph glyph-name="Gcircumflex.ss01" horiz-adv-x="1550" 
d="M625 1579h-127l155 250h178l156 -250h-127l-117 182zM88 725q0 226 88.5 401t250 271t372.5 96q240 0 410 -118t227 -339h-158q-57 158 -182.5 238t-298.5 80q-252 0 -403.5 -171t-151.5 -458q0 -283 149.5 -445.5t399.5 -162.5q150 0 262 59t177 177t68 284h-548v133
h702v-113q0 -308 -181 -494t-480 -186q-206 0 -365 90t-248.5 260.5t-89.5 397.5z" />
    <glyph glyph-name="Gcommaaccent.ss01" horiz-adv-x="1550" 
d="M88 725q0 226 88.5 401t250 271t372.5 96q240 0 410 -118t227 -339h-158q-57 158 -182.5 238t-298.5 80q-252 0 -403.5 -171t-151.5 -458q0 -283 149.5 -445.5t399.5 -162.5q150 0 262 59t177 177t68 284h-548v133h702v-113q0 -308 -181 -494t-480 -186q-206 0 -365 90
t-248.5 260.5t-89.5 397.5zM893 -203q0 -91 -53.5 -145t-124.5 -51v61q44 -1 69.5 20t28.5 60q-20 -4 -31 -4q-37 0 -63.5 25t-26.5 63q0 43 27.5 71.5t68.5 28.5q48 0 76.5 -34t28.5 -95z" />
    <glyph glyph-name="Gdotaccent.ss01" horiz-adv-x="1550" 
d="M743 1620q-43 0 -72.5 29.5t-29.5 72.5q0 42 30.5 73.5t71.5 31.5t72 -32t31 -73t-31 -71.5t-72 -30.5zM88 725q0 226 88.5 401t250 271t372.5 96q240 0 410 -118t227 -339h-158q-57 158 -182.5 238t-298.5 80q-252 0 -403.5 -171t-151.5 -458q0 -283 149.5 -445.5
t399.5 -162.5q150 0 262 59t177 177t68 284h-548v133h702v-113q0 -308 -181 -494t-480 -186q-206 0 -365 90t-248.5 260.5t-89.5 397.5z" />
    <glyph glyph-name="Q.ss04" horiz-adv-x="1574" 
d="M1337 -270l-534 245h-17q-203 0 -362.5 96.5t-247.5 269t-88 392.5q0 219 88.5 392.5t248 270.5t361.5 97q203 0 362.5 -96.5t248 -269.5t88.5 -394q0 -260 -124 -451.5t-333 -265.5l365 -166zM1333 733q0 275 -152 446t-395 171t-393.5 -171t-150.5 -446t150.5 -445.5
t393.5 -170.5t395 171t152 445z" />
    <glyph glyph-name="aacute.ss01" horiz-adv-x="1202" 
d="M795 1370l-156 -244h-115l123 244h148zM930 991h125v-991h-129l-15 203q-54 -112 -150.5 -170t-223.5 -58q-214 0 -336.5 147t-122.5 378q0 228 126.5 373t338.5 145q126 0 225.5 -58t149.5 -176zM905 496q0 176 -90.5 284.5t-249.5 108.5q-160 0 -252 -109t-92 -284
t91 -284.5t249 -109.5q160 0 252 109.5t92 284.5z" />
    <glyph glyph-name="abreve.ss01" horiz-adv-x="1202" 
d="M713 1372h114q0 -119 -67 -187.5t-182 -68.5q-116 0 -184 69t-68 187h114q0 -69 35.5 -106t102.5 -37q135 0 135 143zM930 991h125v-991h-129l-15 203q-54 -112 -150.5 -170t-223.5 -58q-214 0 -336.5 147t-122.5 378q0 228 126.5 373t338.5 145q126 0 225.5 -58
t149.5 -176zM905 496q0 176 -90.5 284.5t-249.5 108.5q-160 0 -252 -109t-92 -284t91 -284.5t249 -109.5q160 0 252 109.5t92 284.5z" />
    <glyph glyph-name="acircumflex.ss01" horiz-adv-x="1202" 
d="M459 1126h-127l155 248h179l155 -248h-127l-116 181zM930 991h125v-991h-129l-15 203q-54 -112 -150.5 -170t-223.5 -58q-214 0 -336.5 147t-122.5 378q0 228 126.5 373t338.5 145q126 0 225.5 -58t149.5 -176zM905 496q0 176 -90.5 284.5t-249.5 108.5q-160 0 -252 -109
t-92 -284t91 -284.5t249 -109.5q160 0 252 109.5t92 284.5z" />
    <glyph glyph-name="adieresis.ss01" horiz-adv-x="1202" 
d="M428 1167q-41 0 -71.5 29.5t-30.5 69.5q0 41 30.5 71.5t71.5 30.5q40 0 70 -30.5t30 -71.5q0 -40 -30 -69.5t-70 -29.5zM727 1167q-42 0 -72 29.5t-30 69.5q0 41 30.5 71.5t71.5 30.5q40 0 70 -30.5t30 -71.5q0 -40 -30 -69.5t-70 -29.5zM930 991h125v-991h-129l-15 203
q-54 -112 -150.5 -170t-223.5 -58q-214 0 -336.5 147t-122.5 378q0 228 126.5 373t338.5 145q126 0 225.5 -58t149.5 -176zM905 496q0 176 -90.5 284.5t-249.5 108.5q-160 0 -252 -109t-92 -284t91 -284.5t249 -109.5q160 0 252 109.5t92 284.5z" />
    <glyph glyph-name="agrave.ss01" horiz-adv-x="1202" 
d="M629 1126h-115l-154 244h150zM930 991h125v-991h-129l-15 203q-54 -112 -150.5 -170t-223.5 -58q-214 0 -336.5 147t-122.5 378q0 228 126.5 373t338.5 145q126 0 225.5 -58t149.5 -176zM905 496q0 176 -90.5 284.5t-249.5 108.5q-160 0 -252 -109t-92 -284t91 -284.5
t249 -109.5q160 0 252 109.5t92 284.5z" />
    <glyph glyph-name="amacron.ss01" horiz-adv-x="1202" 
d="M340 1239v113h473v-113h-473zM930 991h125v-991h-129l-15 203q-54 -112 -150.5 -170t-223.5 -58q-214 0 -336.5 147t-122.5 378q0 228 126.5 373t338.5 145q126 0 225.5 -58t149.5 -176zM905 496q0 176 -90.5 284.5t-249.5 108.5q-160 0 -252 -109t-92 -284t91 -284.5
t249 -109.5q160 0 252 109.5t92 284.5z" />
    <glyph glyph-name="aogonek.ss01" horiz-adv-x="1202" 
d="M954 0h-28l-15 203q-54 -112 -150.5 -170t-223.5 -58q-214 0 -336.5 147t-122.5 378q0 228 126.5 373t338.5 145q126 0 225.5 -58t149.5 -176l12 207h125v-991q-58 -25 -87.5 -61.5t-29.5 -73.5q0 -64 70 -64q19 0 43 9v-109q-35 -12 -74 -12q-67 0 -108.5 39.5
t-41.5 101.5q0 52 33 96.5t94 73.5zM905 496q0 176 -90.5 284.5t-249.5 108.5q-160 0 -252 -109t-92 -284t91 -284.5t249 -109.5q160 0 252 109.5t92 284.5z" />
    <glyph glyph-name="aring.ss01" horiz-adv-x="1202" 
d="M578 1120q-97 0 -159.5 62t-62.5 159q0 95 64 158.5t158 63.5t157.5 -64t63.5 -158t-63.5 -157.5t-157.5 -63.5zM578 1217q52 0 84 34.5t32 91.5q0 54 -32.5 88.5t-83.5 34.5q-53 0 -86 -34t-33 -89q0 -57 32.5 -91.5t86.5 -34.5zM930 991h125v-991h-129l-15 203
q-54 -112 -150.5 -170t-223.5 -58q-214 0 -336.5 147t-122.5 378q0 228 126.5 373t338.5 145q126 0 225.5 -58t149.5 -176zM905 496q0 176 -90.5 284.5t-249.5 108.5q-160 0 -252 -109t-92 -284t91 -284.5t249 -109.5q160 0 252 109.5t92 284.5z" />
    <glyph glyph-name="aringacute.ss01" horiz-adv-x="1202" 
d="M758 1630l-154 -233h-110l118 233h146zM930 991h125v-991h-129l-15 203q-54 -112 -150.5 -170t-223.5 -58q-214 0 -336.5 147t-122.5 378q0 180 81 311t224 182q-53 59 -53 150q0 95 63.5 158t157.5 63t157.5 -63.5t63.5 -157.5q0 -92 -61 -156q144 -54 207 -203z
M551 1018q52 0 84.5 34.5t32.5 90.5q0 54 -33 89.5t-84 35.5q-53 0 -86 -35t-33 -90q0 -56 32.5 -90.5t86.5 -34.5zM905 496q0 176 -90.5 284.5t-249.5 108.5q-160 0 -252 -109t-92 -284t91 -284.5t249 -109.5q160 0 252 109.5t92 284.5z" />
    <glyph glyph-name="atilde.ss01" horiz-adv-x="1202" 
d="M393 1159h-102q-6 102 34.5 160.5t114.5 58.5q38 0 75 -17t61 -38t55 -38t59 -17q70 0 70 110h100q4 -105 -38 -162t-124 -57q-39 0 -76.5 17.5t-61 38t-51 38t-50.5 17.5q-66 0 -66 -111zM930 991h125v-991h-129l-15 203q-54 -112 -150.5 -170t-223.5 -58
q-214 0 -336.5 147t-122.5 378q0 228 126.5 373t338.5 145q126 0 225.5 -58t149.5 -176zM905 496q0 176 -90.5 284.5t-249.5 108.5q-160 0 -252 -109t-92 -284t91 -284.5t249 -109.5q160 0 252 109.5t92 284.5z" />
    <glyph glyph-name="gbreve.ss02" horiz-adv-x="1083" 
d="M690 1352h115q0 -117 -68 -185.5t-184 -68.5t-183 68t-67 186h115q0 -69 34.5 -106.5t100.5 -37.5q67 0 102 38t35 106zM121 629q0 170 117.5 279.5t300.5 109.5q145 0 239 -64q64 121 209 121q27 0 37 -2v-127q-20 4 -45 4q-83 0 -133 -59q52 -46 83.5 -118t31.5 -146
q0 -167 -117 -273t-301 -106q-108 0 -197 39q-52 -3 -81 -26.5t-29 -63.5q0 -88 137 -88h338q161 0 247 -65t86 -187q0 -148 -137.5 -232t-378.5 -84q-234 0 -346 64.5t-112 197.5q0 69 41 123.5t110 79.5q-108 42 -108 154q0 65 38.5 111t108.5 65q-139 107 -139 293z
M256 629q0 -119 79 -191.5t208 -72.5q127 0 204.5 72t77.5 192q0 121 -79 196.5t-205 75.5q-125 0 -205 -76t-80 -196zM190 -166q0 -91 80 -131.5t260 -40.5q375 0 375 193q0 69 -47.5 102t-148.5 33h-316q-98 0 -150.5 -40.5t-52.5 -115.5z" />
    <glyph glyph-name="gcircumflex.ss02" horiz-adv-x="1083" 
d="M434 1106h-127l156 250h178l158 -250h-129l-117 182zM121 629q0 170 117.5 279.5t300.5 109.5q145 0 239 -64q64 121 209 121q27 0 37 -2v-127q-20 4 -45 4q-83 0 -133 -59q52 -46 83.5 -118t31.5 -146q0 -167 -117 -273t-301 -106q-108 0 -197 39q-52 -3 -81 -26.5
t-29 -63.5q0 -88 137 -88h338q161 0 247 -65t86 -187q0 -148 -137.5 -232t-378.5 -84q-234 0 -346 64.5t-112 197.5q0 69 41 123.5t110 79.5q-108 42 -108 154q0 65 38.5 111t108.5 65q-139 107 -139 293zM256 629q0 -119 79 -191.5t208 -72.5q127 0 204.5 72t77.5 192
q0 121 -79 196.5t-205 75.5q-125 0 -205 -76t-80 -196zM190 -166q0 -91 80 -131.5t260 -40.5q375 0 375 193q0 69 -47.5 102t-148.5 33h-316q-98 0 -150.5 -40.5t-52.5 -115.5z" />
    <glyph glyph-name="gcommaaccent.ss02" horiz-adv-x="1083" 
d="M647 1192q0 -43 -27.5 -70.5t-68.5 -27.5q-48 0 -77.5 33.5t-29.5 93.5q0 92 54.5 145.5t126.5 50.5v-59q-43 1 -70.5 -21.5t-30.5 -60.5q10 4 33 4q37 0 63.5 -25t26.5 -63zM121 629q0 170 117.5 279.5t300.5 109.5q145 0 239 -64q64 121 209 121q27 0 37 -2v-127
q-20 4 -45 4q-83 0 -133 -59q52 -46 83.5 -118t31.5 -146q0 -167 -117 -273t-301 -106q-108 0 -197 39q-52 -3 -81 -26.5t-29 -63.5q0 -88 137 -88h338q161 0 247 -65t86 -187q0 -148 -137.5 -232t-378.5 -84q-234 0 -346 64.5t-112 197.5q0 69 41 123.5t110 79.5
q-108 42 -108 154q0 65 38.5 111t108.5 65q-139 107 -139 293zM256 629q0 -119 79 -191.5t208 -72.5q127 0 204.5 72t77.5 192q0 121 -79 196.5t-205 75.5q-125 0 -205 -76t-80 -196zM190 -166q0 -91 80 -131.5t260 -40.5q375 0 375 193q0 69 -47.5 102t-148.5 33h-316
q-98 0 -150.5 -40.5t-52.5 -115.5z" />
    <glyph glyph-name="gdotaccent.ss02" horiz-adv-x="1083" 
d="M553 1147q-42 0 -72 30t-30 72t30.5 73.5t71.5 31.5t71.5 -31.5t30.5 -73.5q0 -41 -30.5 -71.5t-71.5 -30.5zM121 629q0 170 117.5 279.5t300.5 109.5q145 0 239 -64q64 121 209 121q27 0 37 -2v-127q-20 4 -45 4q-83 0 -133 -59q52 -46 83.5 -118t31.5 -146
q0 -167 -117 -273t-301 -106q-108 0 -197 39q-52 -3 -81 -26.5t-29 -63.5q0 -88 137 -88h338q161 0 247 -65t86 -187q0 -148 -137.5 -232t-378.5 -84q-234 0 -346 64.5t-112 197.5q0 69 41 123.5t110 79.5q-108 42 -108 154q0 65 38.5 111t108.5 65q-139 107 -139 293z
M256 629q0 -119 79 -191.5t208 -72.5q127 0 204.5 72t77.5 192q0 121 -79 196.5t-205 75.5q-125 0 -205 -76t-80 -196zM190 -166q0 -91 80 -131.5t260 -40.5q375 0 375 193q0 69 -47.5 102t-148.5 33h-316q-98 0 -150.5 -40.5t-52.5 -115.5z" />
    <glyph glyph-name="tbar.ss03" horiz-adv-x="616" 
d="M559 125l21 -121q-76 -24 -146 -24q-118 0 -179.5 70t-61.5 198v250h-125v112h125v262h-156v119h156v314h141v-314h237v-119h-237v-262h164v-112h-164v-240q0 -77 35 -114.5t96 -37.5q42 0 94 19z" />
    <glyph glyph-name="tcaron.ss03" horiz-adv-x="655" 
d="M444 1149v317h131l-34 -317h-97zM559 125l21 -121q-76 -24 -146 -24q-118 0 -179.5 70t-61.5 198v624h-156v119h156v314h141v-314h237v-119h-237v-614q0 -77 35 -114.5t96 -37.5q42 0 94 19z" />
    <glyph glyph-name="tcedilla.ss03" horiz-adv-x="655" 
d="M285 -344v86q64 -33 116 -33q41 0 68 18.5t27 51.5t-22 50t-60 17q-46 0 -101 -24l-18 51l55 117q-77 23 -117 89.5t-40 168.5v624h-156v119h156v314h141v-314h237v-119h-237v-614q0 -77 35 -114.5t96 -37.5q42 0 94 19l21 -121q-76 -24 -146 -24h-8l-33 -72q33 10 60 10
q61 0 101 -35.5t40 -99.5q0 -76 -52.5 -117t-129.5 -41q-80 0 -127 31z" />
    <glyph glyph-name="tcommaaccent.ss03" horiz-adv-x="655" 
d="M559 125l21 -121q-76 -24 -146 -24q-118 0 -179.5 70t-61.5 198v624h-156v119h156v314h141v-314h237v-119h-237v-614q0 -77 35 -114.5t96 -37.5q42 0 94 19zM494 -203q0 -91 -54 -145t-125 -51v61q44 -1 70 20t29 60q-20 -4 -31 -4q-37 0 -63.5 25t-26.5 63
q0 43 27.5 71.5t68.5 28.5q48 0 76.5 -34t28.5 -95z" />
    <glyph glyph-name="caroncomb.alt" horiz-adv-x="1210" 
d="M639 1149v317h131l-35 -317h-96z" />
    <glyph glyph-name="strokeshortcomb.case" horiz-adv-x="686" 
d="M41 670v127h604v-127h-604z" />
    <glyph glyph-name="strokelongcomb.case" horiz-adv-x="1460" 
d="M14 1114v131h1432v-131h-1432z" />
    <glyph glyph-name="slashshortcomb.case" horiz-adv-x="772" 
d="M41 618v132l690 329v-131z" />
    <glyph glyph-name="slashlongcomb.case" horiz-adv-x="1021" 
d="M1145 1466l-1120 -1466h-148l1122 1466h146z" />
    <glyph glyph-name="dotaccentcomb.i" horiz-adv-x="405" 
d="M203 1726q-44 0 -75.5 30.5t-31.5 72.5q0 44 31.5 76t75.5 32q42 0 73 -32t31 -76q0 -41 -31.5 -72t-72.5 -31z" />
    </font>
</defs>
</svg>
