<?xml version="1.0" standalone="no"?>
<!DOCTYPE svg PUBLIC "-//W3C//DTD SVG 1.1//EN" "http://www.w3.org/Graphics/SVG/1.1/DTD/svg11.dtd" >
<svg xmlns="http://www.w3.org/2000/svg" xmlns:xlink="http://www.w3.org/1999/xlink" version="1.1">
<metadata>
Created by FontForge 20170731 at Wed Sep  6 15:13:23 2023
 By Aleksey,,,
Copyright 2017-2021 Indian Type Foundry. All rights reserved.
</metadata>
<defs>
<font id="Satoshi-Bold" horiz-adv-x="1351" >
  <font-face 
    font-family="Satoshi"
    font-weight="700"
    font-stretch="normal"
    units-per-em="2048"
    panose-1="0 0 0 0 0 0 0 0 0 0"
    ascent="1638"
    descent="-410"
    x-height="1012"
    cap-height="1497"
    bbox="-418 -500 3265 2232"
    underline-thickness="163"
    underline-position="-562"
    unicode-range="U+0020-FB04"
  />
<missing-glyph horiz-adv-x="1024" 
d="M102 -469v2245h820v-2245h-820zM205 -367h614v2040h-614v-2040z" />
    <glyph glyph-name="f_f" unicode="ff" horiz-adv-x="1355" 
d="M29 1012h145v123q0 198 96 293.5t267 95.5q70 0 129 -11v-213h-88q-89 0 -122.5 -41.5t-33.5 -123.5v-123h414v123q0 199 95.5 294t266.5 95q70 0 129 -11v-213h-86q-90 0 -124 -41.5t-34 -123.5v-123h242v-209h-242v-803h-247v803h-414v-803h-248v803h-145v209z" />
    <glyph glyph-name="fi" unicode="fi" horiz-adv-x="1214" 
d="M836 0v803h-414v-803h-248v803h-145v209h145v123q0 198 93.5 293.5t254.5 95.5q70 0 129 -11v-213h-88q-80 0 -110.5 -41.5t-30.5 -123.5v-123h663v-1012h-249zM961 1219q-63 0 -106.5 43t-43.5 106q0 62 43.5 105t106.5 43q61 0 104 -43t43 -105q0 -63 -42.5 -106
t-104.5 -43z" />
    <glyph glyph-name="fl" unicode="fl" horiz-adv-x="1208" 
d="M29 1012h145v123q0 198 91.5 293.5t252.5 95.5q70 0 129 -11v-213h-88q-79 0 -108 -41t-29 -124v-123h403v512h250v-1524h-250v803h-403v-803h-248v803h-145v209z" />
    <glyph glyph-name="f_f_i" unicode="ffi" horiz-adv-x="1875" 
d="M29 1012h145v123q0 198 96 293.5t267 95.5q70 0 129 -11v-213h-88q-89 0 -122.5 -41.5t-33.5 -123.5v-123h414v123q0 198 93.5 293.5t254.5 95.5q70 0 129 -11v-213h-86q-80 0 -112 -42t-32 -123v-123h664v-1012h-250v803h-414v-803h-247v803h-414v-803h-248v803h-145
v209zM1622 1225q-63 0 -105 43t-42 106t42 106.5t105 43.5t106.5 -43.5t43.5 -106.5t-43.5 -106t-106.5 -43z" />
    <glyph glyph-name="f_f_l" unicode="ffl" horiz-adv-x="1869" 
d="M29 1012h145v123q0 198 96 293.5t267 95.5q70 0 129 -11v-213h-88q-89 0 -122.5 -41.5t-33.5 -123.5v-123h414v123q0 199 95.5 294t266.5 95q70 0 129 -11v-213h-86q-90 0 -124 -41.5t-34 -123.5v-123h406v512h248v-1524h-248v803h-406v-803h-247v803h-414v-803h-248v803
h-145v209z" />
    <glyph glyph-name="f_t" unicode="ft" horiz-adv-x="1320" 
d="M29 1012h145v123q0 198 93.5 293.5t254.5 95.5q70 0 129 -11v-213h-88q-80 0 -110.5 -41.5t-30.5 -123.5v-123h426v315h250v-315h196v-209h-196v-803h-250v803h-426v-803h-248v803h-145v209z" />
    <glyph glyph-name=".notdef" horiz-adv-x="1024" 
d="M102 -469v2245h820v-2245h-820zM205 -367h614v2040h-614v-2040z" />
    <glyph glyph-name=".null" horiz-adv-x="0" 
 />
    <glyph glyph-name="nonmarkingreturn" horiz-adv-x="682" 
 />
    <glyph glyph-name="space" unicode=" " horiz-adv-x="552" 
 />
    <glyph glyph-name="exclam" unicode="!" horiz-adv-x="655" 
d="M426 449h-201q-45 273 -45 704v344h295v-344q0 -437 -49 -704zM328 -27q-69 0 -118.5 48t-49.5 114q0 67 49.5 115.5t118.5 48.5q66 0 115 -48.5t49 -115.5q0 -66 -49 -114t-115 -48z" />
    <glyph glyph-name="quotedbl" unicode="&#x22;" horiz-adv-x="888" 
d="M379 1346l-62 -443h-133l-61 443q-12 80 29 120.5t104 40.5q54 0 94 -41t29 -120zM768 1346l-61 -443h-134l-61 443q-12 80 29 120.5t104 40.5q54 0 94 -41t29 -120z" />
    <glyph glyph-name="numbersign" unicode="#" horiz-adv-x="1472" 
d="M131 621h195l51 253h-225l47 234h223l76 389h247l-75 -389h260l76 389h247l-75 -389h211l-48 -234h-208l-50 -253h234l-47 -234h-232l-75 -387h-248l76 387h-263l-75 -387h-248l76 387h-197zM573 621h263l49 253h-260z" />
    <glyph glyph-name="dollar" unicode="$" horiz-adv-x="1212" 
d="M532 -195v170q-214 15 -341.5 132.5t-131.5 304.5h263q2 -88 56 -141.5t154 -65.5v436l-65 14q-387 83 -387 424q0 179 123.5 299t328.5 142v174h158v-174q194 -20 307 -135.5t119 -299.5h-254q-3 83 -47.5 135.5t-124.5 69.5v-440l70 -16q196 -43 288.5 -141t92.5 -261
q0 -186 -122 -307.5t-329 -144.5v-175h-158zM524 887l8 -2v407q-93 -15 -144.5 -68.5t-51.5 -136.5q0 -82 45 -130t143 -70zM705 604l-15 4v-399q93 19 145 71.5t52 129.5q0 154 -182 194z" />
    <glyph glyph-name="percent" unicode="%" horiz-adv-x="1964" 
d="M852 1133q0 -173 -110 -283.5t-281 -110.5t-281 110.5t-110 283.5q0 172 110.5 282.5t280.5 110.5t280.5 -110.5t110.5 -282.5zM1673 1495l-1136 -1495h-250l1136 1495h250zM653 1133q0 89 -53 144.5t-139 55.5t-138.5 -55t-52.5 -145q0 -89 53 -145t138 -56q86 0 139 56
t53 145zM1892 367q0 -172 -109.5 -283t-279.5 -111q-171 0 -281 111t-110 283t109.5 282.5t281.5 110.5q170 0 279.5 -110.5t109.5 -282.5zM1694 367q0 89 -53 144.5t-138 55.5q-86 0 -139 -55.5t-53 -144.5t53 -145t139 -56q85 0 138 56t53 145z" />
    <glyph glyph-name="ampersand" unicode="&#x26;" horiz-adv-x="1507" 
d="M1190 0l-100 113q-185 -140 -451 -140q-244 0 -394.5 117.5t-150.5 306.5q0 274 348 443q-88 101 -124.5 178t-36.5 162q0 149 108.5 245.5t274.5 96.5q164 0 267 -92t103 -238q0 -112 -63 -205.5t-203 -187.5l301 -338q41 109 41 256h244q0 -260 -117 -443l244 -274
h-291zM518 1182q0 -55 28 -108.5t101 -137.5q156 92 156 248q0 66 -37 102.5t-102 36.5q-68 0 -107 -37.5t-39 -103.5zM358 422q0 -109 82.5 -171.5t227.5 -62.5q165 0 276 88l-381 429q-106 -60 -155.5 -128t-49.5 -155z" />
    <glyph glyph-name="quotesingle" unicode="'" horiz-adv-x="499" 
d="M379 1346l-62 -443h-133l-61 443q-12 80 29 120.5t104 40.5q54 0 94 -41t29 -120z" />
    <glyph glyph-name="parenleft" unicode="(" horiz-adv-x="630" 
d="M631 -391h-199q-157 178 -248.5 440.5t-91.5 552.5q0 276 87.5 540t252.5 451h199q-131 -178 -209 -439.5t-78 -551.5q0 -277 75 -541.5t212 -451.5z" />
    <glyph glyph-name="parenright" unicode=")" horiz-adv-x="630" 
d="M199 -391h-199q138 187 212.5 451t74.5 542q0 290 -78 551.5t-209 439.5h199q165 -188 253.5 -451.5t88.5 -539.5q0 -289 -92.5 -552t-249.5 -441z" />
    <glyph glyph-name="asterisk" unicode="*" horiz-adv-x="860" 
d="M186 1157l-137 49l47 125l133 -43q84 -30 152 -76q-19 78 -19 168v146h134v-146q0 -88 -17 -168q67 46 150 76l135 45l47 -127l-139 -49q-70 -25 -164 -37q65 -56 110 -123l82 -123l-110 -75l-82 116q-45 62 -82 150q-20 -74 -76 -150l-86 -116l-110 75l82 123
q48 67 114 123q-105 15 -164 37z" />
    <glyph glyph-name="plus" unicode="+" 
d="M164 795h407v407h209v-407h408v-209h-408v-410h-209v410h-407v209z" />
    <glyph glyph-name="comma" unicode="," horiz-adv-x="595" 
d="M463 90q0 -127 -82 -219t-207 -107v101q71 12 116.5 51t45.5 92q-24 -12 -60 -12q-61 0 -103 40t-42 101q0 73 43.5 118.5t112.5 45.5q77 0 126.5 -58.5t49.5 -152.5z" />
    <glyph glyph-name="hyphen" unicode="-" horiz-adv-x="911" 
d="M127 436v221h659v-221h-659z" />
    <glyph glyph-name="period" unicode="." horiz-adv-x="595" 
d="M297 -25q-68 0 -117 48t-49 114q0 67 49 115.5t117 48.5t117 -48.5t49 -115.5q0 -66 -49 -114t-117 -48z" />
    <glyph glyph-name="slash" unicode="/" horiz-adv-x="833" 
d="M248 0h-248l584 1495h250z" />
    <glyph glyph-name="zero" unicode="0" horiz-adv-x="1443" 
d="M88 745q0 231 78 408t222 275t333 98t333.5 -98t223 -275t78.5 -408t-75.5 -405t-219.5 -270.5t-340 -96.5t-339.5 96.5t-218.5 270.5t-75 405zM346 745q0 -258 98.5 -399t276.5 -141q179 0 278 140.5t99 399.5q0 264 -99 406.5t-278 142.5q-178 0 -276.5 -142.5
t-98.5 -406.5z" />
    <glyph glyph-name="one" unicode="1" horiz-adv-x="815" 
d="M397 1262h-327v235h579v-1497h-252v1262z" />
    <glyph glyph-name="two" unicode="2" horiz-adv-x="1206" 
d="M1133 2l-1039 -2v197l490 413q153 130 211.5 218.5t58.5 195.5q0 127 -65.5 196.5t-184.5 69.5q-123 0 -195 -81.5t-73 -225.5h-260q1 246 145.5 393.5t382.5 147.5q240 0 379 -129.5t139 -356.5q0 -151 -81.5 -279.5t-260.5 -281.5l-270 -231h623v-244z" />
    <glyph glyph-name="three" unicode="3" horiz-adv-x="1165" 
d="M530 741h-182v170l385 355h-622v231h950v-209l-365 -336q180 -35 294 -160.5t114 -316.5q0 -113 -42.5 -207.5t-115.5 -159t-172.5 -100t-212.5 -35.5q-148 0 -264.5 57.5t-186 173t-69.5 273.5h258q0 -127 72 -198.5t194 -71.5q123 0 198 74t75 198q0 119 -78.5 190.5
t-229.5 71.5z" />
    <glyph glyph-name="four" unicode="4" horiz-adv-x="1323" 
d="M1247 285h-182v-285h-248v285h-760v229l678 983h330v-983h182v-229zM336 514h481v700z" />
    <glyph glyph-name="five" unicode="5" horiz-adv-x="1228" 
d="M604 -25q-235 0 -377.5 138.5t-142.5 365.5h260q0 -127 70.5 -198.5t195.5 -71.5q132 0 210.5 80.5t78.5 216.5q0 133 -76 213t-209 80q-84 0 -157.5 -37.5t-114.5 -97.5l-231 49l184 784h780v-242h-592l-80 -311q113 74 265 74q223 0 360 -138t137 -360
q0 -243 -155.5 -394t-405.5 -151z" />
    <glyph glyph-name="six" unicode="6" horiz-adv-x="1269" 
d="M301 1057l324 440h299l-359 -477q59 16 113 16q230 0 374 -145.5t144 -374.5q0 -157 -72.5 -281.5t-199.5 -193t-285 -68.5q-159 0 -289 72t-203 196.5t-73 276.5q0 133 49.5 250t177.5 289zM342 516q0 -137 82.5 -223t214.5 -86q128 0 210.5 86.5t82.5 222.5
q0 135 -82 220t-211 85q-133 0 -215 -85t-82 -220z" />
    <glyph glyph-name="seven" unicode="7" horiz-adv-x="1101" 
d="M14 1497h1076v-242l-543 -1255h-273l553 1255h-813v242z" />
    <glyph glyph-name="eight" unicode="8" horiz-adv-x="1312" 
d="M86 424q0 133 69 234.5t187 146.5q-98 44 -150.5 126t-52.5 191q0 179 144 290.5t376 111.5q231 0 373 -111.5t142 -294.5q0 -109 -53.5 -190.5t-153.5 -122.5q119 -41 189.5 -144t70.5 -237q0 -203 -156 -326t-416 -123q-259 0 -414 122.5t-155 326.5zM377 1100
q0 -94 75.5 -149.5t202.5 -55.5q126 0 200.5 54.5t74.5 148.5q0 93 -74.5 147.5t-200.5 54.5q-128 0 -203 -54t-75 -146zM342 442q0 -109 84.5 -172t230.5 -63q143 0 227.5 63.5t84.5 171.5q0 109 -84.5 172.5t-229.5 63.5t-229 -63.5t-84 -172.5z" />
    <glyph glyph-name="nine" unicode="9" horiz-adv-x="1269" 
d="M969 440l-324 -440h-299l359 477q-59 -16 -113 -16q-230 0 -374 145.5t-144 374.5q0 157 72.5 281.5t199.5 193t285 68.5q159 0 289 -72t203 -196.5t73 -276.5q0 -133 -49.5 -250t-177.5 -289zM928 981q0 137 -82.5 223t-214.5 86q-129 0 -211 -86.5t-82 -222.5
q0 -135 82 -220t211 -85q133 0 215 85t82 220z" />
    <glyph glyph-name="colon" unicode=":" horiz-adv-x="636" 
d="M317 721q-67 0 -116 48t-49 114q0 67 48.5 115.5t116.5 48.5t117 -48.5t49 -115.5q0 -66 -49 -114t-117 -48zM317 -25q-67 0 -116 48t-49 114q0 67 48.5 115.5t116.5 48.5t117 -48.5t49 -115.5q0 -66 -49 -114t-117 -48z" />
    <glyph glyph-name="semicolon" unicode=";" horiz-adv-x="636" 
d="M317 721q-67 0 -116 48t-49 114q0 67 48.5 115.5t116.5 48.5t117 -48.5t49 -115.5q0 -66 -49 -114t-117 -48zM483 90q0 -127 -81.5 -219t-206.5 -107v101q71 12 116 51t45 92q-24 -12 -59 -12q-61 0 -103 40t-42 101q0 73 43 118.5t112 45.5q77 0 126.5 -58.5
t49.5 -152.5z" />
    <glyph glyph-name="less" unicode="&#x3c;" 
d="M1188 262v-244l-1024 361v264l1024 358v-243l-778 -248z" />
    <glyph glyph-name="equal" unicode="=" 
d="M164 942h1024v-211h-1024v211zM164 502h1024v-211h-1024v211z" />
    <glyph glyph-name="greater" unicode="&#x3e;" 
d="M1188 379l-1024 -361v244l778 248l-778 248v243l1024 -358v-264z" />
    <glyph glyph-name="question" unicode="?" horiz-adv-x="1134" 
d="M629 383h-228v47q0 54 13.5 102t33 82.5t52.5 71t59 58.5t66 53q45 36 68 57t52.5 55.5t42.5 70.5t13 79q0 105 -62 168t-168 63q-109 0 -177 -74t-68 -192h-260q0 219 144.5 359.5t367.5 140.5q227 0 358 -122t131 -327q0 -63 -17 -119t-39 -94t-62 -78t-68 -61.5
t-74 -54.5q-45 -32 -71 -54t-54 -52t-40.5 -62t-12.5 -70v-47zM524 -27q-69 0 -117.5 48t-48.5 114q0 68 48.5 116t117.5 48q68 0 117 -48.5t49 -115.5q0 -65 -49.5 -113.5t-116.5 -48.5z" />
    <glyph glyph-name="at" unicode="@" horiz-adv-x="1933" 
d="M537 461q0 125 89 202t255 89l276 22v21q0 176 -190 176q-101 0 -156 -40t-55 -114h-193q0 150 112.5 240t301.5 90q192 0 296.5 -101.5t104.5 -287.5v-318q0 -114 105 -114q85 0 136.5 102t51.5 268q0 194 -88.5 348t-247.5 240t-360 86q-202 0 -365.5 -94
t-255.5 -259.5t-92 -369.5q0 -205 92 -371t255.5 -260t365.5 -94q224 0 426 141l72 -139q-217 -155 -498 -155q-186 0 -349.5 67t-279.5 182.5t-183 279t-67 349.5q0 247 114.5 448t315.5 315t449 114q185 0 345.5 -62.5t273.5 -171.5t178 -263t65 -331q0 -237 -105 -379.5
t-282 -142.5q-106 0 -172 44.5t-88 129.5q-31 -76 -121.5 -125t-200.5 -49q-155 0 -243 76.5t-88 210.5zM768 469q0 -123 160 -123q107 0 169 59.5t62 163.5v49l-194 -16q-104 -9 -150.5 -41t-46.5 -92z" />
    <glyph glyph-name="A" unicode="A" horiz-adv-x="1394" 
d="M295 0h-272l540 1497h268l541 -1497h-276l-121 346h-559zM664 1051l-170 -484h405l-172 484q-28 91 -31 114q-11 -51 -32 -114z" />
    <glyph glyph-name="B" unicode="B" horiz-adv-x="1333" 
d="M166 0v1497h596q221 0 348 -107.5t127 -295.5q0 -254 -215 -344q238 -77 238 -344q0 -192 -128 -299t-360 -107h-606zM739 1266h-311v-408h317q107 0 165.5 54.5t58.5 154.5q0 96 -59.5 147.5t-170.5 51.5zM762 637h-334v-406h334q111 0 170 53t59 154q0 95 -60 147
t-169 52z" />
    <glyph glyph-name="C" unicode="C" horiz-adv-x="1554" 
d="M799 -25q-327 0 -523 210.5t-196 562.5q0 230 91 406t257 272t383 96q266 0 449 -144t221 -385h-277q-38 130 -144 203.5t-255 73.5q-207 0 -329 -140.5t-122 -379.5q0 -238 123 -380.5t328 -142.5q151 0 260.5 74t146.5 199h273q-43 -236 -231.5 -380.5t-454.5 -144.5z
" />
    <glyph glyph-name="D" unicode="D" horiz-adv-x="1515" 
d="M705 0h-539v1497h524q219 0 389 -94.5t264.5 -266t94.5 -391.5q0 -218 -92 -387.5t-259.5 -263.5t-381.5 -94zM666 1255h-238v-1013h252q224 0 352.5 134.5t128.5 368.5q0 238 -131.5 374t-363.5 136z" />
    <glyph glyph-name="E" unicode="E" horiz-adv-x="1214" 
d="M1096 0h-930v1497h930v-242h-668v-385h598v-231h-598v-397h668v-242z" />
    <glyph glyph-name="F" unicode="F" horiz-adv-x="1161" 
d="M985 612h-557v-612h-262v1497h926v-242h-664v-407h557v-236z" />
    <glyph glyph-name="G" unicode="G" horiz-adv-x="1601" 
d="M821 1276q-220 0 -343.5 -146.5t-123.5 -392.5q0 -245 128.5 -380.5t340.5 -135.5q195 0 306.5 101.5t111.5 281.5v6h-453v232h697v-842h-221l-17 172q-63 -88 -184 -141.5t-270 -53.5q-208 0 -370 94.5t-252.5 269.5t-90.5 402q0 226 92 403t262.5 276.5t392.5 99.5
q258 0 438 -138.5t212 -365.5h-277q-34 127 -136 192.5t-243 65.5z" />
    <glyph glyph-name="H" unicode="H" horiz-adv-x="1519" 
d="M428 0h-262v1497h262v-618h664v618h262v-1497h-262v635h-664v-635z" />
    <glyph glyph-name="I" unicode="I" horiz-adv-x="593" 
d="M428 1497v-1497h-262v1497h262z" />
    <glyph glyph-name="J" unicode="J" horiz-adv-x="1130" 
d="M41 422v88h252v-88q0 -92 53 -148.5t158 -56.5q107 0 158 56.5t51 158.5v1065h262v-1079q0 -199 -128 -322t-341 -123q-223 0 -344 124t-121 325z" />
    <glyph glyph-name="K" unicode="K" horiz-adv-x="1380" 
d="M428 1497v-786l606 786h309l-495 -639l502 -858h-303l-371 637l-248 -318v-319h-262v1497h262z" />
    <glyph glyph-name="L" unicode="L" horiz-adv-x="1101" 
d="M428 1497v-1255h627v-242h-889v1497h262z" />
    <glyph glyph-name="M" unicode="M" horiz-adv-x="1810" 
d="M420 0h-254v1497h254l483 -1192l483 1192h259v-1497h-254v461q0 248 2 334t12 161l-381 -956h-242l-379 954q17 -109 17 -417v-537z" />
    <glyph glyph-name="N" unicode="N" horiz-adv-x="1552" 
d="M424 0h-258v1497h260l702 -1061v1061h258v-1497h-258l-704 1061v-1061z" />
    <glyph glyph-name="O" unicode="O" horiz-adv-x="1609" 
d="M1532 750q0 -225 -92 -401.5t-258.5 -275t-378.5 -98.5q-211 0 -376 98t-256 274.5t-91 402.5q0 225 91.5 401.5t257 274.5t376.5 98q159 0 294 -57t230.5 -158t149 -245.5t53.5 -313.5zM1255 750q0 239 -122 380.5t-328 141.5t-328.5 -141.5t-122.5 -380.5t122.5 -381
t328.5 -142q205 0 327.5 143t122.5 380z" />
    <glyph glyph-name="P" unicode="P" horiz-adv-x="1308" 
d="M758 516h-330v-516h-262v1497h592q225 0 360 -134t135 -355q0 -218 -136 -355t-359 -137zM707 1264h-279v-514h274q134 0 205.5 68t71.5 192q0 123 -70.5 188.5t-201.5 65.5z" />
    <glyph glyph-name="Q" unicode="Q" horiz-adv-x="1609" 
d="M1341 -113l-163 185q-169 -97 -375 -97q-211 0 -376 98t-256 274.5t-91 402.5q0 225 91.5 401.5t257 274.5t376.5 98q159 0 294 -57t230.5 -158t149 -245.5t53.5 -313.5q0 -325 -182 -535l159 -178zM1255 750q0 239 -122 380.5t-328 141.5t-328.5 -141.5t-122.5 -380.5
t122.5 -381t328.5 -142q112 0 199 43l-199 224l166 149l198 -223q86 134 86 330z" />
    <glyph glyph-name="R" unicode="R" horiz-adv-x="1372" 
d="M428 0h-262v1497h571q255 0 397 -123t142 -344q0 -150 -69 -256t-201 -160l284 -614h-286l-254 559h-322v-559zM428 1264v-473h309q125 0 194.5 62.5t69.5 176.5q0 112 -69.5 173t-194.5 61h-309z" />
    <glyph glyph-name="S" unicode="S" horiz-adv-x="1212" 
d="M80 1079q0 197 148 321t384 124q227 0 362.5 -118t141.5 -321h-262q-4 96 -69.5 150.5t-176.5 54.5q-122 0 -194 -54.5t-72 -148.5q0 -79 44 -125.5t138 -68.5l236 -51q193 -41 287 -142t94 -268q0 -209 -149.5 -334t-397.5 -125q-240 0 -385.5 119t-149.5 320h263
q1 -95 73.5 -149t198.5 -54q131 0 208 54t77 147q0 76 -41.5 121t-132.5 65l-238 53q-191 41 -289 150t-98 280z" />
    <glyph glyph-name="T" unicode="T" horiz-adv-x="1208" 
d="M35 1255v242h1139v-242h-439v-1255h-262v1255h-438z" />
    <glyph glyph-name="U" unicode="U" horiz-adv-x="1497" 
d="M156 547v950h262v-934q0 -161 85 -247.5t245 -86.5q159 0 245 87t86 247v934h262v-950q0 -263 -160 -417.5t-433 -154.5q-272 0 -432 154t-160 418z" />
    <glyph glyph-name="V" unicode="V" horiz-adv-x="1433" 
d="M586 0l-566 1497h279l328 -862q49 -133 94 -299q52 182 96 299l324 862h272l-557 -1497h-270z" />
    <glyph glyph-name="W" unicode="W" horiz-adv-x="2119" 
d="M477 0l-446 1497h272l238 -790q40 -142 67 -297q29 153 74 297l236 790h288l232 -790q37 -124 71 -297q38 184 72 295l242 792h266l-455 -1497h-254l-319 1090l-326 -1090h-258z" />
    <glyph glyph-name="X" unicode="X" horiz-adv-x="1394" 
d="M543 748l-498 749h311l183 -268q88 -133 168 -281l348 549h305l-490 -747l492 -750h-309l-168 248q-90 136 -178 299l-365 -547h-307z" />
    <glyph glyph-name="Y" unicode="Y" horiz-adv-x="1312" 
d="M526 590l-506 907h293l295 -545q28 -50 54 -110q2 4 19.5 42.5t33.5 67.5l293 545h284l-504 -907v-590h-262v590z" />
    <glyph glyph-name="Z" unicode="Z" horiz-adv-x="1204" 
d="M1141 0h-1078v244l740 1011h-723v242h1048v-233l-745 -1022h758v-242z" />
    <glyph glyph-name="bracketleft" unicode="[" horiz-adv-x="626" 
d="M365 2h251v-192h-479v1902h479v-194h-251v-1516z" />
    <glyph glyph-name="backslash" unicode="\" horiz-adv-x="833" 
d="M250 1495l584 -1495h-248l-586 1495h250z" />
    <glyph glyph-name="bracketright" unicode="]" horiz-adv-x="626" 
d="M10 -190v192h252v1516h-252v194h477v-1902h-477z" />
    <glyph glyph-name="asciicircum" unicode="^" horiz-adv-x="1058" 
d="M350 819h-215l273 678h243l273 -678h-215l-181 471z" />
    <glyph glyph-name="underscore" unicode="_" horiz-adv-x="1116" 
d="M123 -219v184h870v-184h-870z" />
    <glyph glyph-name="grave" unicode="`" horiz-adv-x="565" 
d="M481 1575h-186l-199 305h232z" />
    <glyph glyph-name="a" unicode="a" horiz-adv-x="1122" 
d="M430 -27q-160 0 -253 86t-93 230q0 140 97.5 224t277.5 97l303 23v22q0 193 -209 193q-110 0 -169.5 -44t-59.5 -124h-213q0 164 124 263t330 99q207 0 324 -110t117 -318v-614h-220l-18 150q-32 -78 -126 -127.5t-212 -49.5zM512 162q116 0 184 66t68 182v53l-211 -17
q-114 -10 -164.5 -46.5t-50.5 -100.5q0 -137 174 -137z" />
    <glyph glyph-name="b" unicode="b" horiz-adv-x="1267" 
d="M360 0h-231v1524h250v-660q49 84 143.5 132t210.5 48q214 0 339.5 -150.5t125.5 -393.5q0 -235 -132 -381t-349 -146q-115 0 -205.5 49t-134.5 136zM381 510q0 -137 78.5 -222t206.5 -85q130 0 205 85t75 222q0 138 -75 223.5t-205 85.5q-128 0 -206.5 -86t-78.5 -223z
" />
    <glyph glyph-name="c" unicode="c" horiz-adv-x="1126" 
d="M70 508q0 235 140.5 384.5t364.5 149.5q207 0 339.5 -107t152.5 -290h-250q-22 85 -81.5 129.5t-149.5 44.5q-121 0 -194 -84.5t-73 -226.5q0 -143 69.5 -226t189.5 -83q94 0 156.5 44.5t82.5 127.5h252q-23 -178 -158.5 -288t-332.5 -110q-230 0 -369 146.5t-139 388.5z
" />
    <glyph glyph-name="d" unicode="d" horiz-adv-x="1267" 
d="M545 -27q-218 0 -346.5 146t-128.5 383q0 240 132 390t357 150q106 0 194.5 -42t135.5 -117v641h248v-1524h-230l-16 158q-45 -87 -137.5 -136t-208.5 -49zM600 203q130 0 208.5 85t78.5 222t-78.5 223t-208.5 86q-129 0 -205 -86t-76 -223t76 -222t205 -85z" />
    <glyph glyph-name="e" unicode="e" horiz-adv-x="1140" 
d="M582 -27q-226 0 -369 149t-143 384q0 238 140 387t363 149q227 0 361.5 -140.5t134.5 -377.5v-75l-762 -3q27 -268 279 -268q102 0 168 39t88 111h231q-32 -166 -162.5 -260.5t-328.5 -94.5zM575 838q-110 0 -176.5 -59t-85.5 -173h508q0 105 -67 168.5t-179 63.5z" />
    <glyph glyph-name="f" unicode="f" horiz-adv-x="694" 
d="M29 1012h145v123q0 198 96.5 293.5t268.5 95.5q70 0 129 -11v-213h-88q-90 0 -124 -41.5t-34 -123.5v-123h242v-209h-242v-803h-248v803h-145v209z" />
    <glyph glyph-name="g" unicode="g" horiz-adv-x="1257" 
d="M72 528q0 224 133.5 370t347.5 146q114 0 200 -45t130 -127l14 140h231v-961q0 -254 -142 -401.5t-388 -147.5q-218 0 -357.5 117t-162.5 320h250q12 -98 83.5 -153.5t186.5 -55.5q129 0 206 75t77 201v168q-48 -71 -137 -112.5t-197 -41.5q-213 0 -344 143t-131 365z
M324 535q0 -129 75 -213t197 -84q128 0 203 82t75 215q0 131 -74.5 210.5t-203.5 79.5q-123 0 -197.5 -82t-74.5 -208z" />
    <glyph glyph-name="h" unicode="h" horiz-adv-x="1206" 
d="M379 0h-250v1524h252v-643q48 75 134.5 118t193.5 43q185 0 283 -110t98 -309v-623h-250v563q0 124 -56.5 188t-154.5 64q-116 0 -183 -73t-67 -189v-553z" />
    <glyph glyph-name="i" unicode="i" horiz-adv-x="507" 
d="M254 1214q-64 0 -109 44.5t-45 107.5t44.5 106.5t109.5 43.5q62 0 105.5 -43.5t43.5 -106.5t-43.5 -107.5t-105.5 -44.5zM129 0v1012h250v-1012h-250z" />
    <glyph glyph-name="j" unicode="j" horiz-adv-x="507" 
d="M254 1214q-63 0 -107.5 44.5t-44.5 107.5t44.5 106.5t107.5 43.5q62 0 107 -44t45 -106q0 -63 -45 -107.5t-107 -44.5zM-113 -475l41 221q42 -12 86 -12q63 0 89 36t26 115v1127h250v-1155q0 -164 -90 -259.5t-252 -95.5q-66 0 -150 23z" />
    <glyph glyph-name="k" unicode="k" horiz-adv-x="1101" 
d="M381 0h-248v1524h248v-936l393 424h313l-385 -402l377 -610h-286l-265 426l-147 -154v-272z" />
    <glyph glyph-name="l" unicode="l" horiz-adv-x="514" 
d="M381 0h-248v1524h248v-1524z" />
    <glyph glyph-name="m" unicode="m" horiz-adv-x="1812" 
d="M379 0h-250v1012h229l21 -119q41 67 118 108t181 41q113 0 192.5 -51t120.5 -141q39 89 124.5 140.5t199.5 51.5q182 0 281.5 -101.5t99.5 -278.5v-662h-248v596q0 107 -53 164t-144 57q-95 0 -154 -62t-59 -182v-573h-250v598q0 104 -51.5 160.5t-142.5 56.5
q-94 0 -154.5 -62t-60.5 -180v-573z" />
    <glyph glyph-name="n" unicode="n" horiz-adv-x="1206" 
d="M379 0h-250v1012h231l21 -131q47 76 133.5 118.5t190.5 42.5q188 0 286.5 -110t98.5 -309v-623h-250v563q0 124 -56.5 188t-156.5 64q-115 0 -181.5 -73t-66.5 -197v-545z" />
    <glyph glyph-name="o" unicode="o" horiz-adv-x="1220" 
d="M70 508q0 235 152 383.5t388 148.5t388.5 -148.5t152.5 -383.5t-152.5 -384t-388.5 -149t-388 149t-152 384zM319 508q0 -138 81 -223.5t210 -85.5t210 85.5t81 223.5t-81 223.5t-210 85.5t-210 -85.5t-81 -223.5z" />
    <glyph glyph-name="p" unicode="p" horiz-adv-x="1267" 
d="M129 -469v1481h231l17 -154q45 87 138 135.5t210 48.5q214 0 343.5 -143t129.5 -381q0 -242 -126 -393.5t-347 -151.5q-115 0 -207 43t-139 119v-604h-250zM381 506q0 -137 78.5 -222t206.5 -85q130 0 205 85t75 222q0 138 -75 223.5t-205 85.5q-128 0 -206.5 -86
t-78.5 -223z" />
    <glyph glyph-name="q" unicode="q" horiz-adv-x="1267" 
d="M70 518q0 238 129.5 381t343.5 143q117 0 210 -48.5t138 -135.5l16 154h230v-1481h-248v604q-47 -76 -140 -119t-206 -43q-221 0 -347 151.5t-126 393.5zM319 506q0 -137 76 -222t205 -85q130 0 208.5 85t78.5 222t-78.5 223t-208.5 86q-129 0 -205 -86t-76 -223z" />
    <glyph glyph-name="r" unicode="r" horiz-adv-x="804" 
d="M764 1016v-232h-92q-138 0 -215.5 -73.5t-77.5 -218.5v-492h-250v1010h236l14 -148q33 77 104 122.5t170 45.5q54 0 111 -14z" />
    <glyph glyph-name="s" unicode="s" horiz-adv-x="948" 
d="M51 307h238q2 -67 49.5 -105t132.5 -38q87 0 133.5 32.5t46.5 88.5q0 41 -26 67.5t-90 40.5l-183 43q-138 31 -204 100t-66 189q0 147 111.5 232t289.5 85q171 0 276.5 -90t106.5 -237h-237q-2 65 -43.5 103t-112.5 38q-73 0 -114.5 -32t-41.5 -89q0 -83 132 -114
l182 -43q131 -30 193.5 -94.5t62.5 -178.5q0 -152 -117 -242t-307 -90q-188 0 -300 92t-112 242z" />
    <glyph glyph-name="t" unicode="t" horiz-adv-x="696" 
d="M473 0h-250v803h-194v209h194v315h250v-315h197v-209h-197v-803z" />
    <glyph glyph-name="u" unicode="u" horiz-adv-x="1193" 
d="M815 1012h250v-1012h-231l-19 135q-46 -72 -136.5 -117t-191.5 -45q-173 0 -271.5 109.5t-98.5 296.5v633h250v-545q0 -141 54 -205.5t161 -64.5q119 0 176 69.5t57 214.5v531z" />
    <glyph glyph-name="v" unicode="v" horiz-adv-x="1097" 
d="M416 0l-402 1012h267l176 -465q74 -209 90 -281q20 90 94 281l184 465h258l-421 -1012h-246z" />
    <glyph glyph-name="w" unicode="w" horiz-adv-x="1632" 
d="M352 0l-327 1012h260l133 -434q32 -111 61 -263q21 115 70 263l139 434h254l135 -434q50 -172 66 -261q21 101 67 261l136 434h264l-350 -1012h-234l-139 438q-57 184 -72 281q-17 -80 -80 -285l-139 -434h-244z" />
    <glyph glyph-name="x" unicode="x" horiz-adv-x="1050" 
d="M305 0h-285l349 496l-349 516h291l224 -344l215 344h280l-344 -512l334 -500h-287l-215 334z" />
    <glyph glyph-name="y" unicode="y" horiz-adv-x="1083" 
d="M41 -469v209h149q80 0 126.5 28.5t76.5 112.5l29 76l-408 1055h265l260 -738l274 738h258l-496 -1237q-57 -140 -140 -203.5t-208 -63.5q-96 0 -186 23z" />
    <glyph glyph-name="z" unicode="z" horiz-adv-x="968" 
d="M893 0h-817v205l504 598h-504v209h817v-207l-512 -596h512v-209z" />
    <glyph glyph-name="braceleft" unicode="{" horiz-adv-x="714" 
d="M92 662v198q209 0 209 182v422q0 112 71.5 180t190.5 68h142v-194h-93q-39 0 -61.5 -25t-22.5 -72v-407q0 -102 -44 -163t-134 -91q90 -28 134 -89t44 -163v-408q0 -47 22.5 -72.5t61.5 -25.5h93v-192h-142q-119 0 -190.5 67t-71.5 180v420q0 185 -209 185z" />
    <glyph glyph-name="bar" unicode="|" horiz-adv-x="688" 
d="M248 -180v1798h194v-1798h-194z" />
    <glyph glyph-name="braceright" unicode="}" horiz-adv-x="714" 
d="M152 -190h-142v192h92q39 0 61.5 25.5t22.5 72.5v408q0 102 44.5 163t134.5 89q-91 30 -135 91.5t-44 162.5v407q0 47 -22.5 72t-61.5 25h-92v194h142q119 0 190.5 -68t71.5 -180v-422q0 -182 209 -182v-198q-209 0 -209 -185v-420q0 -113 -71.5 -180t-190.5 -67z" />
    <glyph glyph-name="asciitilde" unicode="~" 
d="M995 803h193q0 -154 -78 -253t-207 -99q-66 0 -133 25t-112.5 54.5t-98 54.5t-92.5 25q-108 0 -111 -141h-192q0 149 78.5 246.5t206.5 97.5q63 0 128 -25t110.5 -55t100 -55t97.5 -25q59 0 83.5 38t26.5 112z" />
    <glyph glyph-name="exclamdown" unicode="&#xa1;" horiz-adv-x="655" 
d="M328 1524q66 0 115 -48t49 -114q0 -67 -49 -115.5t-115 -48.5q-69 0 -118.5 48.5t-49.5 115.5q0 66 49.5 114t118.5 48zM225 1049h201q49 -267 49 -705v-344h-295v344q0 432 45 705z" />
    <glyph glyph-name="cent" unicode="&#xa2;" horiz-adv-x="1175" 
d="M489 -2v227q-182 35 -290.5 176t-108.5 347q0 203 109 345t290 177v227h211v-225q168 -25 272.5 -127.5t123.5 -261.5h-252q-44 174 -238 174q-119 0 -192.5 -84.5t-73.5 -224.5q0 -141 73 -224.5t193 -83.5q196 0 238 172h252q-19 -157 -125.5 -261.5t-270.5 -129.5
v-223h-211z" />
    <glyph glyph-name="sterling" unicode="&#xa3;" horiz-adv-x="1331" 
d="M791 0h-736v244q104 7 168 81t64 185q0 58 -25 145h-196v195h131q-37 117 -37 194q0 207 144.5 343.5t373.5 136.5q220 0 360 -123t146 -334h-262q-6 111 -73 167t-179 56q-116 0 -186 -65.5t-70 -175.5q0 -70 39 -199h462v-195h-397q19 -82 19 -135q0 -93 -39.5 -166.5
t-116.5 -109.5h371q135 0 190 63t57 191h252q0 -237 -119 -367.5t-341 -130.5z" />
    <glyph glyph-name="currency" unicode="&#xa4;" horiz-adv-x="1458" 
d="M1180 139l-160 160q-131 -86 -289 -86q-160 0 -291 86l-161 -160l-162 166l162 158q-82 132 -82 282q0 153 82 285l-162 160l162 164l161 -158q133 86 291 86t289 -86l160 158l161 -164l-159 -158q84 -130 84 -287q0 -151 -84 -284l159 -156zM1036 745q0 126 -89.5 216
t-215.5 90q-127 0 -216 -90t-89 -216q0 -125 89.5 -214t215.5 -89q125 0 215 89.5t90 213.5z" />
    <glyph glyph-name="yen" unicode="&#xa5;" horiz-adv-x="1345" 
d="M471 764l-430 733h297l334 -623l336 623h297l-431 -733h263v-186h-340v-119h340v-187h-340v-272h-248v272h-342v187h342v119h-342v186h264z" />
    <glyph glyph-name="brokenbar" unicode="&#xa6;" horiz-adv-x="688" 
d="M442 1618v-717h-194v717h194zM248 -180v717h194v-717h-194z" />
    <glyph glyph-name="section" unicode="&#xa7;" horiz-adv-x="989" 
d="M924 770q0 -87 -50.5 -158t-134.5 -108q144 -71 144 -228q0 -132 -113 -216.5t-287 -84.5q-171 0 -277 90t-106 238h236q2 -65 43.5 -103t114.5 -38q75 0 116 31.5t41 87.5q0 44 -35 75t-98 45l-196 45q-256 58 -256 281q0 86 49.5 158t134.5 112q-144 68 -144 226
q0 132 113.5 217.5t288.5 85.5q171 0 276.5 -90.5t106.5 -239.5h-238q-2 66 -42.5 104.5t-112.5 38.5q-75 0 -116.5 -31.5t-41.5 -88.5q0 -44 34 -74.5t99 -44.5l195 -47q256 -60 256 -283zM690 750q0 72 -50 115.5t-144 43.5q-95 0 -146 -43.5t-51 -115.5q0 -71 51 -114.5
t146 -43.5q94 0 144 43.5t50 114.5z" />
    <glyph glyph-name="dieresis" unicode="&#xa8;" horiz-adv-x="864" 
d="M250 1599q-57 0 -96 40.5t-39 97.5q0 56 40 96.5t95 40.5q56 0 96.5 -41t40.5 -96q0 -57 -40.5 -97.5t-96.5 -40.5zM614 1599q-57 0 -96 40.5t-39 97.5q0 56 40 96.5t95 40.5q56 0 97 -41t41 -96q0 -57 -41 -97.5t-97 -40.5z" />
    <glyph glyph-name="copyright" unicode="&#xa9;" horiz-adv-x="1681" 
d="M842 -27q-157 0 -298 61t-242 164.5t-160.5 247.5t-59.5 304q0 214 100.5 391.5t275 280t384.5 102.5q156 0 296.5 -60.5t241.5 -163.5t160 -246.5t59 -303.5t-59 -304t-160 -247.5t-241.5 -164.5t-296.5 -61zM842 125q167 0 303.5 82t214.5 225.5t78 317.5t-78 317
t-214.5 224t-303.5 81t-305 -81.5t-216.5 -224.5t-78.5 -316q0 -174 78.5 -317.5t216 -225.5t305.5 -82zM457 748q0 178 109 291.5t280 113.5q154 0 254 -80.5t117 -218.5h-193q-34 129 -172 129q-91 0 -148 -64.5t-57 -168.5q0 -107 54.5 -170.5t144.5 -63.5q145 0 180 127
h191q-17 -134 -119.5 -216.5t-251.5 -82.5q-175 0 -282 111.5t-107 292.5z" />
    <glyph glyph-name="guillemotleft" unicode="&#xab;" horiz-adv-x="1478" 
d="M524 0l-442 506l442 506h320l-445 -506l445 -506h-320zM1077 0l-442 506l442 506h320l-445 -506l445 -506h-320z" />
    <glyph glyph-name="logicalnot" unicode="&#xac;" 
d="M1161 772v-590h-237v377h-797v213h1034z" />
    <glyph glyph-name="registered" unicode="&#xae;" horiz-adv-x="1036" 
d="M520 655q-187 0 -312.5 125t-125.5 310q0 184 126 309t312 125t310 -124t124 -310t-124 -310.5t-310 -124.5zM520 733q152 0 252 101.5t100 255.5t-100 255t-252 101q-154 0 -254 -101t-100 -255t100.5 -255.5t253.5 -101.5zM428 852h-84v489h197q83 0 131.5 -39.5
t48.5 -109.5q0 -48 -25.5 -86.5t-72.5 -56.5l106 -197h-92l-92 176h-117v-176zM633 1186q0 76 -94 76h-111v-158h111q44 0 69 22t25 60z" />
    <glyph glyph-name="macron" unicode="&#xaf;" horiz-adv-x="794" 
d="M123 1651v174h549v-174h-549z" />
    <glyph glyph-name="degree" unicode="&#xb0;" horiz-adv-x="638" 
d="M590 1253q0 -116 -77 -193t-194 -77t-193.5 77t-76.5 193q0 117 76.5 194t193.5 77t194 -77t77 -194zM449 1253q0 61 -36.5 98.5t-93.5 37.5q-58 0 -93.5 -38t-35.5 -98q0 -59 35.5 -96t93.5 -37q57 0 93.5 36.5t36.5 96.5z" />
    <glyph glyph-name="plusminus" unicode="&#xb1;" 
d="M164 913h407v332h209v-332h408v-208h-408v-334h-209v334h-407v208zM164 0v211h1024v-211h-1024z" />
    <glyph glyph-name="twosuperior" unicode="&#xb2;" horiz-adv-x="735" 
d="M686 676h-627v129l330 274q63 52 91 99.5t28 105.5q0 77 -36 117.5t-105 40.5q-71 0 -110.5 -46t-39.5 -130h-168q4 152 89.5 240.5t228.5 88.5q145 0 228 -80.5t83 -220.5q0 -168 -172 -311l-184 -154h364v-153z" />
    <glyph glyph-name="threesuperior" unicode="&#xb3;" horiz-adv-x="729" 
d="M291 1114h-68v111l232 200h-373v154h577v-143l-223 -195q108 -18 177 -90t69 -190q0 -136 -93.5 -219t-232.5 -83q-137 0 -226 82.5t-89 225.5h166q0 -73 41.5 -113.5t111.5 -40.5q68 0 110 41.5t42 108.5q0 65 -38.5 105t-117.5 44q-20 2 -65 2z" />
    <glyph glyph-name="acute" unicode="&#xb4;" horiz-adv-x="567" 
d="M471 1878l-201 -303h-184l154 303h231z" />
    <glyph glyph-name="micro" unicode="&#xb5;" horiz-adv-x="1193" 
d="M369 -469h-252v1481h250v-545q0 -141 54 -205.5t161 -64.5q119 0 176 69.5t57 214.5v531h250v-1012h-231l-19 135q-103 -162 -276 -162q-126 0 -199 101z" />
    <glyph glyph-name="paragraph" unicode="&#xb6;" horiz-adv-x="1234" 
d="M55 1085q0 189 108 300.5t283 111.5h302v-1673h-216v846h-86q-177 0 -284 111t-107 304zM1028 -180h-94v1675h94v-1675z" />
    <glyph glyph-name="periodcentered" unicode="&#xb7;" horiz-adv-x="681" 
d="M342 352q-91 0 -156 64t-65 153q0 91 65 155t156 64q89 0 154 -65t65 -154q0 -88 -65 -152.5t-154 -64.5z" />
    <glyph glyph-name="cedilla" unicode="&#xb8;" horiz-adv-x="530" 
d="M68 -401v114q76 -37 137 -37q51 0 78.5 21t27.5 57q0 33 -23 51.5t-63 18.5q-48 0 -100 -19l-27 70l99 203l75 -2v-64l-55 -106q33 10 68 10q67 0 115.5 -40.5t48.5 -119.5q0 -92 -65 -142t-165 -50q-89 0 -151 35z" />
    <glyph glyph-name="onesuperior" unicode="&#xb9;" horiz-adv-x="520" 
d="M260 1423h-219v156h389v-903h-170v747z" />
    <glyph glyph-name="guillemotright" unicode="&#xbb;" horiz-adv-x="1478" 
d="M399 0h-317l442 506l-442 506h317l445 -506zM952 0h-317l442 506l-442 506h317l445 -506z" />
    <glyph glyph-name="onequarter" unicode="&#xbc;" horiz-adv-x="1447" 
d="M217 1362h-184v135h329v-733h-145v598zM1298 1454l-968 -1454h-201l967 1454h202zM1165 139h-360v119l321 475h181v-463h94v-131h-94v-139h-142v139zM967 270h198v291z" />
    <glyph glyph-name="onehalf" unicode="&#xbd;" horiz-adv-x="1519" 
d="M217 1362h-184v135h329v-733h-145v598zM1298 1454l-968 -1454h-201l967 1454h202zM1475 0h-529v109l240 190q117 94 117 190q0 58 -29 90.5t-82 32.5q-56 0 -87.5 -32.5t-31.5 -90.5h-147q0 114 74 185t194 71t189 -66.5t69 -180.5q0 -157 -168 -289l-92 -76h283v-133z
" />
    <glyph glyph-name="threequarters" unicode="&#xbe;" horiz-adv-x="1511" 
d="M39 1004h149q0 -57 31.5 -88t85.5 -31q51 0 81 29.5t30 80.5q0 55 -35.5 87t-106.5 32h-88v96l170 154h-282v133h473v-123l-170 -153q84 -18 136 -75t52 -149q0 -113 -74.5 -180t-189.5 -67q-112 0 -187 67.5t-75 186.5zM1362 1454l-969 -1454h-203l969 1454h203z
M1229 139h-361v119l322 475h180v-463h94v-131h-94v-139h-141v139zM1030 270h199v291z" />
    <glyph glyph-name="questiondown" unicode="&#xbf;" horiz-adv-x="1134" 
d="M608 1526q69 0 118.5 -48.5t49.5 -115.5t-49.5 -115.5t-118.5 -48.5q-66 0 -115 49t-49 115t49 115t115 49zM504 1116h227v-49q0 -54 -14 -102.5t-32 -81.5t-52.5 -71t-57.5 -58t-65 -54q-44 -33 -69 -55.5t-54 -56t-42 -70.5t-13 -80q0 -104 62 -167.5t169 -63.5
q109 0 177.5 74.5t68.5 191.5h258q0 -218 -143.5 -359t-366.5 -141q-227 0 -359 123t-132 328q0 63 17 119t39.5 94t62 77.5t68 61.5t73.5 53q90 64 134 116t44 122v49z" />
    <glyph glyph-name="Agrave" unicode="&#xc0;" horiz-adv-x="1394" 
d="M791 1604h-187l-198 305h231zM295 0h-272l540 1497h268l541 -1497h-276l-121 346h-559zM664 1051l-170 -484h405l-172 484q-28 91 -31 114q-11 -51 -32 -114z" />
    <glyph glyph-name="Aacute" unicode="&#xc1;" horiz-adv-x="1394" 
d="M993 1907l-200 -303h-185l154 303h231zM295 0h-272l540 1497h268l541 -1497h-276l-121 346h-559zM664 1051l-170 -484h405l-172 484q-28 91 -31 114q-11 -51 -32 -114z" />
    <glyph glyph-name="Acircumflex" unicode="&#xc2;" horiz-adv-x="1394" 
d="M582 1604h-195l184 319h256l185 -319h-195l-117 202zM295 0h-272l540 1497h268l541 -1497h-276l-121 346h-559zM664 1051l-170 -484h405l-172 484q-28 91 -31 114q-11 -51 -32 -114z" />
    <glyph glyph-name="Atilde" unicode="&#xc3;" horiz-adv-x="1394" 
d="M498 1620h-148q-13 131 39.5 210t149.5 79q46 0 90 -19t73.5 -41.5t64 -41.5t62.5 -19q72 0 72 121h148q12 -142 -41 -215.5t-154 -73.5q-48 0 -94 19t-75 41.5t-61.5 41.5t-56.5 19q-69 0 -69 -121zM295 0h-272l540 1497h268l541 -1497h-276l-121 346h-559zM664 1051
l-170 -484h405l-172 484q-28 91 -31 114q-11 -51 -32 -114z" />
    <glyph glyph-name="Adieresis" unicode="&#xc4;" horiz-adv-x="1394" 
d="M518 1628q-57 0 -97 40t-40 97q0 56 40 97t97 41q55 0 95 -41t40 -97q0 -57 -39.5 -97t-95.5 -40zM883 1628q-57 0 -97.5 40t-40.5 97q0 55 41.5 96.5t96.5 41.5t95 -41t40 -97q0 -57 -39.5 -97t-95.5 -40zM295 0h-272l540 1497h268l541 -1497h-276l-121 346h-559z
M664 1051l-170 -484h405l-172 484q-28 91 -31 114q-11 -51 -32 -114z" />
    <glyph glyph-name="Aring" unicode="&#xc5;" horiz-adv-x="1394" 
d="M700 1579q-116 0 -190 73t-74 187q0 112 75.5 187t188.5 75q112 0 187.5 -75.5t75.5 -186.5q0 -110 -75.5 -185t-187.5 -75zM700 1714q54 0 86.5 35t32.5 94q0 54 -33.5 88.5t-85.5 34.5q-54 0 -87 -34t-33 -89q0 -59 32.5 -94t87.5 -35zM295 0h-272l540 1497h268
l541 -1497h-276l-121 346h-559zM664 1051l-170 -484h405l-172 484q-28 91 -31 114q-11 -51 -32 -114z" />
    <glyph glyph-name="AE" unicode="&#xc6;" horiz-adv-x="1925" 
d="M12 0l602 1497h1194v-242h-667v-385h598v-231h-598v-397h667v-242h-927v373h-430l-144 -373h-295zM535 594h346v661h-90z" />
    <glyph glyph-name="Ccedilla" unicode="&#xc7;" horiz-adv-x="1554" 
d="M649 -401v114q76 -37 137 -37q52 0 80.5 21t28.5 57q0 34 -23 52t-65 18q-48 0 -100 -19l-25 70l49 102q-299 23 -475 231t-176 540q0 230 91 406t257 272t383 96q266 0 449 -144t221 -385h-277q-38 130 -144 203.5t-255 73.5q-207 0 -329 -140.5t-122 -379.5
q0 -238 123 -380.5t328 -142.5q151 0 260.5 74t146.5 199h273q-41 -228 -218.5 -371t-430.5 -154l-35 -69q33 10 67 10q67 0 115.5 -40.5t48.5 -119.5q0 -92 -65.5 -142t-165.5 -50q-87 0 -152 35z" />
    <glyph glyph-name="Egrave" unicode="&#xc8;" horiz-adv-x="1214" 
d="M717 1604h-185l-200 305h233zM1096 0h-930v1497h930v-242h-668v-385h598v-231h-598v-397h668v-242z" />
    <glyph glyph-name="Eacute" unicode="&#xc9;" horiz-adv-x="1214" 
d="M922 1907l-201 -303h-186l153 303h234zM1096 0h-930v1497h930v-242h-668v-385h598v-231h-598v-397h668v-242z" />
    <glyph glyph-name="Ecircumflex" unicode="&#xca;" horiz-adv-x="1214" 
d="M510 1604h-197l185 319h256l186 -319h-197l-116 202zM1096 0h-930v1497h930v-242h-668v-385h598v-231h-598v-397h668v-242z" />
    <glyph glyph-name="Edieresis" unicode="&#xcb;" horiz-adv-x="1214" 
d="M444 1628q-57 0 -97 40t-40 97q0 56 41 97t96 41t95.5 -41t40.5 -97q0 -57 -40 -97t-96 -40zM809 1628q-57 0 -96 40t-39 97q0 56 40 97t95 41t96 -41t41 -97q0 -57 -40.5 -97t-96.5 -40zM1096 0h-930v1497h930v-242h-668v-385h598v-231h-598v-397h668v-242z" />
    <glyph glyph-name="Igrave" unicode="&#xcc;" horiz-adv-x="593" 
d="M387 1604h-186l-199 305h231zM428 1497v-1497h-262v1497h262z" />
    <glyph glyph-name="Iacute" unicode="&#xcd;" horiz-adv-x="593" 
d="M590 1907l-199 -303h-186l153 303h232zM428 1497v-1497h-262v1497h262z" />
    <glyph glyph-name="Icircumflex" unicode="&#xce;" horiz-adv-x="593" 
d="M180 1604h-196l184 319h256l184 -319h-194l-117 202zM428 1497v-1497h-262v1497h262z" />
    <glyph glyph-name="Idieresis" unicode="&#xcf;" horiz-adv-x="593" 
d="M115 1628q-57 0 -97.5 40t-40.5 97q0 56 40.5 97t97.5 41q55 0 95 -41t40 -97q0 -57 -39.5 -97t-95.5 -40zM479 1628q-57 0 -97 40t-40 97q0 56 41 97t96 41t95 -41t40 -97q0 -57 -39.5 -97t-95.5 -40zM428 1497v-1497h-262v1497h262z" />
    <glyph glyph-name="Eth" unicode="&#xd0;" horiz-adv-x="1515" 
d="M27 641v215h139v641h524q219 0 389 -94.5t264.5 -266t94.5 -391.5q0 -218 -92 -387.5t-259.5 -263.5t-381.5 -94h-539v641h-139zM731 641h-303v-399h252q224 0 352.5 134.5t128.5 368.5q0 238 -131.5 374t-363.5 136h-238v-399h303v-215z" />
    <glyph glyph-name="Ntilde" unicode="&#xd1;" horiz-adv-x="1552" 
d="M582 1620h-148q-13 131 39.5 210t149.5 79q46 0 90 -19t73.5 -41.5t64 -41.5t62.5 -19q72 0 72 121h148q12 -142 -41 -215.5t-154 -73.5q-48 0 -94 19t-75 41.5t-61.5 41.5t-56.5 19q-69 0 -69 -121zM424 0h-258v1497h260l702 -1061v1061h258v-1497h-258l-704 1061v-1061
z" />
    <glyph glyph-name="Ograve" unicode="&#xd2;" horiz-adv-x="1609" 
d="M895 1604h-184l-199 305h231zM1532 750q0 -225 -92 -401.5t-258.5 -275t-378.5 -98.5q-211 0 -376 98t-256 274.5t-91 402.5q0 225 91.5 401.5t257 274.5t376.5 98q159 0 294 -57t230.5 -158t149 -245.5t53.5 -313.5zM1255 750q0 239 -122 380.5t-328 141.5
t-328.5 -141.5t-122.5 -380.5t122.5 -381t328.5 -142q205 0 327.5 143t122.5 380z" />
    <glyph glyph-name="Oacute" unicode="&#xd3;" horiz-adv-x="1609" 
d="M1100 1907l-201 -303h-184l153 303h232zM1532 750q0 -225 -92 -401.5t-258.5 -275t-378.5 -98.5q-211 0 -376 98t-256 274.5t-91 402.5q0 225 91.5 401.5t257 274.5t376.5 98q159 0 294 -57t230.5 -158t149 -245.5t53.5 -313.5zM1255 750q0 239 -122 380.5t-328 141.5
t-328.5 -141.5t-122.5 -380.5t122.5 -381t328.5 -142q205 0 327.5 143t122.5 380z" />
    <glyph glyph-name="Ocircumflex" unicode="&#xd4;" horiz-adv-x="1609" 
d="M688 1604h-196l186 319h256l184 -319h-196l-117 202zM1532 750q0 -225 -92 -401.5t-258.5 -275t-378.5 -98.5q-211 0 -376 98t-256 274.5t-91 402.5q0 225 91.5 401.5t257 274.5t376.5 98q159 0 294 -57t230.5 -158t149 -245.5t53.5 -313.5zM1255 750q0 239 -122 380.5
t-328 141.5t-328.5 -141.5t-122.5 -380.5t122.5 -381t328.5 -142q205 0 327.5 143t122.5 380z" />
    <glyph glyph-name="Otilde" unicode="&#xd5;" horiz-adv-x="1609" 
d="M604 1620h-147q-13 132 38 210.5t150 78.5q45 0 89.5 -19t73.5 -41.5t64 -41.5t64 -19q72 0 72 121h147q12 -142 -40.5 -215.5t-153.5 -73.5q-48 0 -94 19t-75 41.5t-61.5 41.5t-56.5 19q-70 0 -70 -121zM1532 750q0 -225 -92 -401.5t-258.5 -275t-378.5 -98.5
q-211 0 -376 98t-256 274.5t-91 402.5q0 225 91.5 401.5t257 274.5t376.5 98q159 0 294 -57t230.5 -158t149 -245.5t53.5 -313.5zM1255 750q0 239 -122 380.5t-328 141.5t-328.5 -141.5t-122.5 -380.5t122.5 -381t328.5 -142q205 0 327.5 143t122.5 380z" />
    <glyph glyph-name="Odieresis" unicode="&#xd6;" horiz-adv-x="1609" 
d="M623 1628q-57 0 -96.5 40t-39.5 97q0 56 40.5 97t95.5 41t96 -41t41 -97q0 -57 -40.5 -97t-96.5 -40zM987 1628q-57 0 -96 40t-39 97q0 56 40 97t95 41t96 -41t41 -97q0 -57 -40.5 -97t-96.5 -40zM1532 750q0 -225 -92 -401.5t-258.5 -275t-378.5 -98.5q-211 0 -376 98
t-256 274.5t-91 402.5q0 225 91.5 401.5t257 274.5t376.5 98q159 0 294 -57t230.5 -158t149 -245.5t53.5 -313.5zM1255 750q0 239 -122 380.5t-328 141.5t-328.5 -141.5t-122.5 -380.5t122.5 -381t328.5 -142q205 0 327.5 143t122.5 380z" />
    <glyph glyph-name="multiply" unicode="&#xd7;" 
d="M342 1174l336 -334l334 334l149 -148l-336 -336l336 -336l-149 -147l-334 336l-338 -338l-150 147l338 338l-335 336z" />
    <glyph glyph-name="Oslash" unicode="&#xd8;" horiz-adv-x="1609" 
d="M1532 750q0 -225 -92 -401.5t-258.5 -275t-378.5 -98.5q-217 0 -379 101l-55 -74h-250l151 201q-92 102 -141 242.5t-49 304.5q0 225 91.5 401.5t257 274.5t376.5 98q219 0 387 -105l61 80h240l-154 -203q193 -215 193 -546zM354 750q0 -197 84 -328l598 790
q-102 60 -231 60q-206 0 -328.5 -141.5t-122.5 -380.5zM1255 750q0 194 -81 325l-594 -792q101 -56 225 -56q205 0 327.5 143t122.5 380z" />
    <glyph glyph-name="Ugrave" unicode="&#xd9;" horiz-adv-x="1497" 
d="M840 1604h-187l-198 305h231zM156 547v950h262v-934q0 -161 85 -247.5t245 -86.5q159 0 245 87t86 247v934h262v-950q0 -263 -160 -417.5t-433 -154.5q-272 0 -432 154t-160 418z" />
    <glyph glyph-name="Uacute" unicode="&#xda;" horiz-adv-x="1497" 
d="M1042 1907l-200 -303h-185l154 303h231zM156 547v950h262v-934q0 -161 85 -247.5t245 -86.5q159 0 245 87t86 247v934h262v-950q0 -263 -160 -417.5t-433 -154.5q-272 0 -432 154t-160 418z" />
    <glyph glyph-name="Ucircumflex" unicode="&#xdb;" horiz-adv-x="1497" 
d="M631 1604h-195l185 319h256l184 -319h-195l-116 202zM156 547v950h262v-934q0 -161 85 -247.5t245 -86.5q159 0 245 87t86 247v934h262v-950q0 -263 -160 -417.5t-433 -154.5q-272 0 -432 154t-160 418z" />
    <glyph glyph-name="Udieresis" unicode="&#xdc;" horiz-adv-x="1497" 
d="M567 1628q-57 0 -97 40t-40 97q0 56 40 97t97 41q55 0 95 -41t40 -97q0 -57 -39.5 -97t-95.5 -40zM932 1628q-57 0 -97 40t-40 97q0 56 40 97t97 41q55 0 95 -41t40 -97q0 -57 -39.5 -97t-95.5 -40zM156 547v950h262v-934q0 -161 85 -247.5t245 -86.5q159 0 245 87
t86 247v934h262v-950q0 -263 -160 -417.5t-433 -154.5q-272 0 -432 154t-160 418z" />
    <glyph glyph-name="Yacute" unicode="&#xdd;" horiz-adv-x="1312" 
d="M954 1907l-200 -303h-185l154 303h231zM526 590l-506 907h293l295 -545q28 -50 54 -110q2 4 19.5 42.5t33.5 67.5l293 545h284l-504 -907v-590h-262v590z" />
    <glyph glyph-name="Thorn" unicode="&#xde;" horiz-adv-x="1308" 
d="M758 283h-330v-283h-262v1497h262v-274h330q223 0 359 -131.5t136 -337.5q0 -204 -137 -337.5t-358 -133.5zM707 989h-279v-473h274q133 0 205 64.5t72 173.5q0 110 -71.5 172.5t-200.5 62.5z" />
    <glyph glyph-name="germandbls" unicode="&#xdf;" horiz-adv-x="1218" 
d="M379 0h-250v1055q0 217 129.5 343t347.5 126q211 0 333 -103.5t122 -281.5q0 -95 -44 -172t-120 -115q132 -54 200 -152t68 -233q0 -209 -140.5 -338t-379.5 -129q-94 0 -162 14v213h158q130 0 201 67.5t71 182.5q0 121 -78.5 185.5t-228.5 64.5h-94v203h94
q96 0 150.5 52t54.5 144q0 88 -54 140.5t-149 52.5q-102 0 -165.5 -66t-63.5 -174v-1079z" />
    <glyph glyph-name="agrave" unicode="&#xe0;" horiz-adv-x="1122" 
d="M666 1133h-185l-198 305h231zM430 -27q-160 0 -253 86t-93 230q0 140 97.5 224t277.5 97l303 23v22q0 193 -209 193q-110 0 -169.5 -44t-59.5 -124h-213q0 164 124 263t330 99q207 0 324 -110t117 -318v-614h-220l-18 150q-32 -78 -126 -127.5t-212 -49.5zM512 162
q116 0 184 66t68 182v53l-211 -17q-114 -10 -164.5 -46.5t-50.5 -100.5q0 -137 174 -137z" />
    <glyph glyph-name="aacute" unicode="&#xe1;" horiz-adv-x="1122" 
d="M870 1436l-200 -303h-185l154 303h231zM430 -27q-160 0 -253 86t-93 230q0 140 97.5 224t277.5 97l303 23v22q0 193 -209 193q-110 0 -169.5 -44t-59.5 -124h-213q0 164 124 263t330 99q207 0 324 -110t117 -318v-614h-220l-18 150q-32 -78 -126 -127.5t-212 -49.5z
M512 162q116 0 184 66t68 182v53l-211 -17q-114 -10 -164.5 -46.5t-50.5 -100.5q0 -137 174 -137z" />
    <glyph glyph-name="acircumflex" unicode="&#xe2;" horiz-adv-x="1122" 
d="M459 1133h-195l185 319h256l184 -319h-197l-117 202zM430 -27q-160 0 -253 86t-93 230q0 140 97.5 224t277.5 97l303 23v22q0 193 -209 193q-110 0 -169.5 -44t-59.5 -124h-213q0 164 124 263t330 99q207 0 324 -110t117 -318v-614h-220l-18 150q-32 -78 -126 -127.5
t-212 -49.5zM512 162q116 0 184 66t68 182v53l-211 -17q-114 -10 -164.5 -46.5t-50.5 -100.5q0 -137 174 -137z" />
    <glyph glyph-name="atilde" unicode="&#xe3;" horiz-adv-x="1122" 
d="M375 1149h-148q-13 132 38.5 210.5t150.5 78.5q46 0 90.5 -19t73.5 -41.5t64 -41.5t63 -19q71 0 71 121h148q12 -142 -41 -215.5t-154 -73.5q-48 0 -94 19t-75 41.5t-61.5 41.5t-56.5 19q-69 0 -69 -121zM430 -27q-160 0 -253 86t-93 230q0 140 97.5 224t277.5 97l303 23
v22q0 193 -209 193q-110 0 -169.5 -44t-59.5 -124h-213q0 164 124 263t330 99q207 0 324 -110t117 -318v-614h-220l-18 150q-32 -78 -126 -127.5t-212 -49.5zM512 162q116 0 184 66t68 182v53l-211 -17q-114 -10 -164.5 -46.5t-50.5 -100.5q0 -137 174 -137z" />
    <glyph glyph-name="adieresis" unicode="&#xe4;" horiz-adv-x="1122" 
d="M393 1157q-57 0 -96 40t-39 97q0 56 40 97t95 41t96 -41t41 -97q0 -57 -40.5 -97t-96.5 -40zM760 1157q-57 0 -97 40t-40 97q0 56 40 97t97 41q55 0 95 -41t40 -97q0 -57 -39.5 -97t-95.5 -40zM430 -27q-160 0 -253 86t-93 230q0 140 97.5 224t277.5 97l303 23v22
q0 193 -209 193q-110 0 -169.5 -44t-59.5 -124h-213q0 164 124 263t330 99q207 0 324 -110t117 -318v-614h-220l-18 150q-32 -78 -126 -127.5t-212 -49.5zM512 162q116 0 184 66t68 182v53l-211 -17q-114 -10 -164.5 -46.5t-50.5 -100.5q0 -137 174 -137z" />
    <glyph glyph-name="aring" unicode="&#xe5;" horiz-adv-x="1122" 
d="M575 1108q-114 0 -188 73t-74 187q0 112 75.5 187t186.5 75q112 0 188.5 -76t76.5 -186q0 -111 -75.5 -185.5t-189.5 -74.5zM575 1243q55 0 88 35t33 94q0 54 -33.5 88.5t-87.5 34.5q-53 0 -85.5 -34t-32.5 -89q0 -59 32 -94t86 -35zM430 -27q-160 0 -253 86t-93 230
q0 140 97.5 224t277.5 97l303 23v22q0 193 -209 193q-110 0 -169.5 -44t-59.5 -124h-213q0 164 124 263t330 99q207 0 324 -110t117 -318v-614h-220l-18 150q-32 -78 -126 -127.5t-212 -49.5zM512 162q116 0 184 66t68 182v53l-211 -17q-114 -10 -164.5 -46.5t-50.5 -100.5
q0 -137 174 -137z" />
    <glyph glyph-name="ae" unicode="&#xe6;" horiz-adv-x="1820" 
d="M84 291q0 146 100.5 225t272.5 82l305 8v49q0 95 -56 144t-159 49q-106 0 -164.5 -44.5t-58.5 -123.5h-213q0 162 121.5 262t318.5 100q246 0 346 -149q133 149 356 149q229 0 362.5 -142.5t133.5 -375.5v-75l-764 -3q16 -127 86 -197.5t195 -70.5q104 0 169.5 40
t84.5 110h231q-33 -164 -162 -259.5t-327 -95.5q-135 0 -242 56.5t-172 158.5q-54 -103 -159 -159t-243 -56q-172 0 -267 85.5t-95 232.5zM1255 838q-114 0 -181 -62.5t-87 -171.5h514q0 104 -65.5 169t-180.5 65zM338 303q0 -68 46.5 -104.5t129.5 -36.5q116 0 183 62.5
t67 166.5v58l-232 -9q-103 -3 -148.5 -34.5t-45.5 -102.5z" />
    <glyph glyph-name="ccedilla" unicode="&#xe7;" horiz-adv-x="1126" 
d="M70 508q0 235 140.5 384.5t364.5 149.5q207 0 339.5 -107t152.5 -290h-250q-22 85 -81.5 129.5t-149.5 44.5q-121 0 -194 -84.5t-73 -226.5q0 -143 69.5 -226t189.5 -83q94 0 156.5 44.5t82.5 127.5h252q-22 -167 -144.5 -275.5t-303.5 -120.5l-35 -69q33 10 67 10
q67 0 115.5 -40.5t48.5 -119.5q0 -92 -65.5 -142t-165.5 -50q-87 0 -152 35v114q76 -37 137 -37q52 0 79.5 21t27.5 57q0 33 -23 51.5t-63 18.5q-48 0 -100 -19l-25 70l47 100q-203 22 -323.5 165.5t-120.5 367.5z" />
    <glyph glyph-name="egrave" unicode="&#xe8;" horiz-adv-x="1140" 
d="M668 1133h-185l-198 305h231zM582 -27q-226 0 -369 149t-143 384q0 238 140 387t363 149q227 0 361.5 -140.5t134.5 -377.5v-75l-762 -3q27 -268 279 -268q102 0 168 39t88 111h231q-32 -166 -162.5 -260.5t-328.5 -94.5zM575 838q-110 0 -176.5 -59t-85.5 -173h508
q0 105 -67 168.5t-179 63.5z" />
    <glyph glyph-name="eacute" unicode="&#xe9;" horiz-adv-x="1140" 
d="M872 1436l-200 -303h-185l154 303h231zM582 -27q-226 0 -369 149t-143 384q0 238 140 387t363 149q227 0 361.5 -140.5t134.5 -377.5v-75l-762 -3q27 -268 279 -268q102 0 168 39t88 111h231q-32 -166 -162.5 -260.5t-328.5 -94.5zM575 838q-110 0 -176.5 -59t-85.5 -173
h508q0 105 -67 168.5t-179 63.5z" />
    <glyph glyph-name="ecircumflex" unicode="&#xea;" horiz-adv-x="1140" 
d="M461 1133h-195l185 319h256l184 -319h-195l-116 202zM582 -27q-226 0 -369 149t-143 384q0 238 140 387t363 149q227 0 361.5 -140.5t134.5 -377.5v-75l-762 -3q27 -268 279 -268q102 0 168 39t88 111h231q-32 -166 -162.5 -260.5t-328.5 -94.5zM575 838
q-110 0 -176.5 -59t-85.5 -173h508q0 105 -67 168.5t-179 63.5z" />
    <glyph glyph-name="edieresis" unicode="&#xeb;" horiz-adv-x="1140" 
d="M395 1157q-57 0 -96 40t-39 97q0 56 40 97t95 41t96 -41t41 -97q0 -57 -40.5 -97t-96.5 -40zM762 1157q-57 0 -97 40t-40 97q0 56 40 97t97 41q55 0 95 -41t40 -97q0 -57 -39.5 -97t-95.5 -40zM582 -27q-226 0 -369 149t-143 384q0 238 140 387t363 149
q227 0 361.5 -140.5t134.5 -377.5v-75l-762 -3q27 -268 279 -268q102 0 168 39t88 111h231q-32 -166 -162.5 -260.5t-328.5 -94.5zM575 838q-110 0 -176.5 -59t-85.5 -173h508q0 105 -67 168.5t-179 63.5z" />
    <glyph glyph-name="igrave" unicode="&#xec;" horiz-adv-x="507" 
d="M346 1133h-184l-201 305h232zM129 0v1012h250v-1012h-250z" />
    <glyph glyph-name="iacute" unicode="&#xed;" horiz-adv-x="507" 
d="M549 1436l-199 -303h-186l153 303h232zM129 0v1012h250v-1012h-250z" />
    <glyph glyph-name="icircumflex" unicode="&#xee;" horiz-adv-x="507" 
d="M139 1133h-196l184 319h256l186 -319h-196l-117 202zM129 0v1012h250v-1012h-250z" />
    <glyph glyph-name="idieresis" unicode="&#xef;" horiz-adv-x="507" 
d="M74 1157q-57 0 -97 40t-40 97q0 56 41 97t96 41t95 -41t40 -97q0 -57 -39.5 -97t-95.5 -40zM438 1157q-57 0 -96 40t-39 97q0 56 40 97t95 41t96 -41t41 -97q0 -57 -40.5 -97t-96.5 -40zM129 0v1012h250v-1012h-250z" />
    <glyph glyph-name="eth" unicode="&#xf0;" horiz-adv-x="1220" 
d="M70 500q0 146 70.5 263t187 180t254.5 63q163 0 272 -93q-74 167 -180 308l-250 -101l-55 140l206 83q-84 105 -163 181h286q28 -28 90 -94l158 65l58 -139l-117 -47q264 -354 264 -748q0 -140 -42 -253t-115.5 -185.5t-172 -111t-213.5 -38.5q-242 0 -390 147.5
t-148 379.5zM319 489q0 -125 78 -207.5t211 -82.5t210 81.5t77 208.5t-76 210t-209 83q-134 0 -212.5 -83.5t-78.5 -209.5z" />
    <glyph glyph-name="ntilde" unicode="&#xf1;" horiz-adv-x="1206" 
d="M420 1149h-148q-13 132 38.5 210.5t150.5 78.5q46 0 90.5 -19t73.5 -41.5t64 -41.5t63 -19q71 0 71 121h148q12 -142 -41 -215.5t-154 -73.5q-48 0 -94 19t-75 41.5t-61.5 41.5t-56.5 19q-69 0 -69 -121zM379 0h-250v1012h231l21 -131q47 76 133.5 118.5t190.5 42.5
q188 0 286.5 -110t98.5 -309v-623h-250v563q0 124 -56.5 188t-156.5 64q-115 0 -181.5 -73t-66.5 -197v-545z" />
    <glyph glyph-name="ograve" unicode="&#xf2;" horiz-adv-x="1220" 
d="M700 1133h-184l-199 305h232zM70 508q0 235 152 383.5t388 148.5t388.5 -148.5t152.5 -383.5t-152.5 -384t-388.5 -149t-388 149t-152 384zM319 508q0 -138 81 -223.5t210 -85.5t210 85.5t81 223.5t-81 223.5t-210 85.5t-210 -85.5t-81 -223.5z" />
    <glyph glyph-name="oacute" unicode="&#xf3;" horiz-adv-x="1220" 
d="M905 1436l-200 -303h-185l154 303h231zM70 508q0 235 152 383.5t388 148.5t388.5 -148.5t152.5 -383.5t-152.5 -384t-388.5 -149t-388 149t-152 384zM319 508q0 -138 81 -223.5t210 -85.5t210 85.5t81 223.5t-81 223.5t-210 85.5t-210 -85.5t-81 -223.5z" />
    <glyph glyph-name="ocircumflex" unicode="&#xf4;" horiz-adv-x="1220" 
d="M494 1133h-197l186 319h256l185 -319h-197l-117 202zM70 508q0 235 152 383.5t388 148.5t388.5 -148.5t152.5 -383.5t-152.5 -384t-388.5 -149t-388 149t-152 384zM319 508q0 -138 81 -223.5t210 -85.5t210 85.5t81 223.5t-81 223.5t-210 85.5t-210 -85.5t-81 -223.5z
" />
    <glyph glyph-name="otilde" unicode="&#xf5;" horiz-adv-x="1220" 
d="M410 1149h-148q-13 132 38.5 210.5t150.5 78.5q45 0 89.5 -19t73.5 -41.5t63.5 -41.5t63.5 -19q72 0 72 121h148q12 -142 -41 -215.5t-154 -73.5q-48 0 -94 19t-75 41.5t-61.5 41.5t-56.5 19q-69 0 -69 -121zM70 508q0 235 152 383.5t388 148.5t388.5 -148.5
t152.5 -383.5t-152.5 -384t-388.5 -149t-388 149t-152 384zM319 508q0 -138 81 -223.5t210 -85.5t210 85.5t81 223.5t-81 223.5t-210 85.5t-210 -85.5t-81 -223.5z" />
    <glyph glyph-name="odieresis" unicode="&#xf6;" horiz-adv-x="1220" 
d="M428 1157q-57 0 -96 40t-39 97q0 56 40 97t95 41t96 -41t41 -97q0 -57 -40.5 -97t-96.5 -40zM793 1157q-57 0 -96.5 40t-39.5 97q0 56 40.5 97t95.5 41t96 -41t41 -97q0 -57 -40.5 -97t-96.5 -40zM70 508q0 235 152 383.5t388 148.5t388.5 -148.5t152.5 -383.5
t-152.5 -384t-388.5 -149t-388 149t-152 384zM319 508q0 -138 81 -223.5t210 -85.5t210 85.5t81 223.5t-81 223.5t-210 85.5t-210 -85.5t-81 -223.5z" />
    <glyph glyph-name="divide" unicode="&#xf7;" 
d="M678 862q-63 0 -109.5 45t-46.5 105q0 63 46.5 107t109.5 44q61 0 106 -44.5t45 -106.5q0 -60 -45.5 -105t-105.5 -45zM164 729h1024v-211h-1024v211zM678 82q-63 0 -109.5 45t-46.5 106t46.5 105.5t109.5 44.5q60 0 105.5 -44.5t45.5 -105.5t-45.5 -106t-105.5 -45z" />
    <glyph glyph-name="oslash" unicode="&#xf8;" horiz-adv-x="1220" 
d="M70 508q0 235 152 383.5t388 148.5q114 0 207 -34l60 96h217l-117 -191q174 -150 174 -403q0 -235 -152.5 -384t-388.5 -149q-101 0 -192 31l-66 -108h-225l125 200q-87 71 -134.5 176.5t-47.5 233.5zM319 508q0 -120 62 -201l311 500q-42 10 -82 10q-129 0 -210 -85.5
t-81 -223.5zM901 508q0 112 -55 192l-303 -495q30 -6 67 -6q129 0 210 85.5t81 223.5z" />
    <glyph glyph-name="ugrave" unicode="&#xf9;" horiz-adv-x="1193" 
d="M680 1133h-186l-199 305h231zM815 1012h250v-1012h-231l-19 135q-46 -72 -136.5 -117t-191.5 -45q-173 0 -271.5 109.5t-98.5 296.5v633h250v-545q0 -141 54 -205.5t161 -64.5q119 0 176 69.5t57 214.5v531z" />
    <glyph glyph-name="uacute" unicode="&#xfa;" horiz-adv-x="1193" 
d="M883 1436l-199 -303h-186l153 303h232zM815 1012h250v-1012h-231l-19 135q-46 -72 -136.5 -117t-191.5 -45q-173 0 -271.5 109.5t-98.5 296.5v633h250v-545q0 -141 54 -205.5t161 -64.5q119 0 176 69.5t57 214.5v531z" />
    <glyph glyph-name="ucircumflex" unicode="&#xfb;" horiz-adv-x="1193" 
d="M473 1133h-197l185 319h256l184 -319h-194l-117 202zM815 1012h250v-1012h-231l-19 135q-46 -72 -136.5 -117t-191.5 -45q-173 0 -271.5 109.5t-98.5 296.5v633h250v-545q0 -141 54 -205.5t161 -64.5q119 0 176 69.5t57 214.5v531z" />
    <glyph glyph-name="udieresis" unicode="&#xfc;" horiz-adv-x="1193" 
d="M408 1157q-57 0 -97.5 40t-40.5 97q0 56 40.5 97t97.5 41q55 0 95 -41t40 -97q0 -57 -39.5 -97t-95.5 -40zM772 1157q-57 0 -97 40t-40 97q0 56 41 97t96 41t95 -41t40 -97q0 -57 -39.5 -97t-95.5 -40zM815 1012h250v-1012h-231l-19 135q-46 -72 -136.5 -117t-191.5 -45
q-173 0 -271.5 109.5t-98.5 296.5v633h250v-545q0 -141 54 -205.5t161 -64.5q119 0 176 69.5t57 214.5v531z" />
    <glyph glyph-name="yacute" unicode="&#xfd;" horiz-adv-x="1083" 
d="M846 1436l-201 -303h-184l153 303h232zM41 -469v209h149q80 0 126.5 28.5t76.5 112.5l29 76l-408 1055h265l260 -738l274 738h258l-496 -1237q-57 -140 -140 -203.5t-208 -63.5q-96 0 -186 23z" />
    <glyph glyph-name="thorn" unicode="&#xfe;" horiz-adv-x="1267" 
d="M1198 514q0 -240 -126 -390.5t-347 -150.5q-115 0 -207 43t-139 119v-604h-250v1993h250v-660q49 84 143.5 132t210.5 48q212 0 338.5 -146t126.5 -384zM946 510q0 138 -75 223.5t-205 85.5q-128 0 -206.5 -86t-78.5 -223q0 -138 78.5 -224.5t206.5 -86.5q130 0 205 86.5
t75 224.5z" />
    <glyph glyph-name="ydieresis" unicode="&#xff;" horiz-adv-x="1083" 
d="M371 1157q-57 0 -97.5 40t-40.5 97q0 56 40.5 97t97.5 41q55 0 95 -41t40 -97q0 -57 -39.5 -97t-95.5 -40zM735 1157q-57 0 -97 40t-40 97q0 56 41 97t96 41t95 -41t40 -97q0 -57 -39.5 -97t-95.5 -40zM41 -469v209h149q80 0 126.5 28.5t76.5 112.5l29 76l-408 1055h265
l260 -738l274 738h258l-496 -1237q-57 -140 -140 -203.5t-208 -63.5q-96 0 -186 23z" />
    <glyph glyph-name="Amacron" unicode="&#x100;" horiz-adv-x="1394" 
d="M426 1679v176h549v-176h-549zM295 0h-272l540 1497h268l541 -1497h-276l-121 346h-559zM664 1051l-170 -484h405l-172 484q-28 91 -31 114q-11 -51 -32 -114z" />
    <glyph glyph-name="amacron" unicode="&#x101;" horiz-adv-x="1122" 
d="M303 1208v176h547v-176h-547zM430 -27q-160 0 -253 86t-93 230q0 140 97.5 224t277.5 97l303 23v22q0 193 -209 193q-110 0 -169.5 -44t-59.5 -124h-213q0 164 124 263t330 99q207 0 324 -110t117 -318v-614h-220l-18 150q-32 -78 -126 -127.5t-212 -49.5zM512 162
q116 0 184 66t68 182v53l-211 -17q-114 -10 -164.5 -46.5t-50.5 -100.5q0 -137 174 -137z" />
    <glyph glyph-name="Abreve" unicode="&#x102;" horiz-adv-x="1394" 
d="M840 1911h180q0 -149 -86.5 -236.5t-233.5 -87.5q-148 0 -234.5 87.5t-86.5 236.5h182q0 -74 36 -114t103 -40t103.5 40.5t36.5 113.5zM295 0h-272l540 1497h268l541 -1497h-276l-121 346h-559zM664 1051l-170 -484h405l-172 484q-28 91 -31 114q-11 -51 -32 -114z" />
    <glyph glyph-name="abreve" unicode="&#x103;" horiz-adv-x="1122" 
d="M717 1440h180q0 -149 -86.5 -236.5t-232.5 -87.5q-149 0 -235.5 87.5t-86.5 236.5h182q0 -74 36.5 -114t103.5 -40q66 0 102.5 41t36.5 113zM430 -27q-160 0 -253 86t-93 230q0 140 97.5 224t277.5 97l303 23v22q0 193 -209 193q-110 0 -169.5 -44t-59.5 -124h-213
q0 164 124 263t330 99q207 0 324 -110t117 -318v-614h-220l-18 150q-32 -78 -126 -127.5t-212 -49.5zM512 162q116 0 184 66t68 182v53l-211 -17q-114 -10 -164.5 -46.5t-50.5 -100.5q0 -137 174 -137z" />
    <glyph glyph-name="Aogonek" unicode="&#x104;" horiz-adv-x="1394" 
d="M295 0h-272l540 1497h268l541 -1497q-72 -26 -109.5 -68.5t-37.5 -85.5q0 -34 22.5 -54.5t59.5 -20.5q25 0 55 12v-166q-42 -18 -105 -18q-90 0 -146 55t-56 135q0 66 42 123t122 88h-123l-121 346h-559zM664 1051l-170 -484h405l-172 484q-28 91 -31 114
q-11 -51 -32 -114z" />
    <glyph glyph-name="aogonek" unicode="&#x105;" horiz-adv-x="1122" 
d="M430 -27q-160 0 -253 86t-93 230q0 140 97.5 224t277.5 97l303 23v22q0 193 -209 193q-110 0 -169.5 -44t-59.5 -124h-213q0 164 124 263t330 99q207 0 324 -110t117 -318v-614h-2q-72 -26 -109 -68.5t-37 -85.5q0 -34 21.5 -54.5t58.5 -20.5q25 0 55 12v-166
q-40 -18 -102 -18q-91 0 -147 55t-56 135q0 66 41 123t121 88h-64l-18 150q-32 -78 -126 -127.5t-212 -49.5zM512 162q116 0 184 66t68 182v53l-211 -17q-114 -10 -164.5 -46.5t-50.5 -100.5q0 -137 174 -137z" />
    <glyph glyph-name="Cacute" unicode="&#x106;" horiz-adv-x="1554" 
d="M1102 1907l-201 -303h-184l153 303h232zM799 -25q-327 0 -523 210.5t-196 562.5q0 230 91 406t257 272t383 96q266 0 449 -144t221 -385h-277q-38 130 -144 203.5t-255 73.5q-207 0 -329 -140.5t-122 -379.5q0 -238 123 -380.5t328 -142.5q151 0 260.5 74t146.5 199h273
q-43 -236 -231.5 -380.5t-454.5 -144.5z" />
    <glyph glyph-name="cacute" unicode="&#x107;" horiz-adv-x="1126" 
d="M864 1436l-200 -303h-185l154 303h231zM70 508q0 235 140.5 384.5t364.5 149.5q207 0 339.5 -107t152.5 -290h-250q-22 85 -81.5 129.5t-149.5 44.5q-121 0 -194 -84.5t-73 -226.5q0 -143 69.5 -226t189.5 -83q94 0 156.5 44.5t82.5 127.5h252q-23 -178 -158.5 -288
t-332.5 -110q-230 0 -369 146.5t-139 388.5z" />
    <glyph glyph-name="Ccircumflex" unicode="&#x108;" horiz-adv-x="1554" 
d="M692 1604h-196l184 319h256l186 -319h-196l-117 202zM799 -25q-327 0 -523 210.5t-196 562.5q0 230 91 406t257 272t383 96q266 0 449 -144t221 -385h-277q-38 130 -144 203.5t-255 73.5q-207 0 -329 -140.5t-122 -379.5q0 -238 123 -380.5t328 -142.5q151 0 260.5 74
t146.5 199h273q-43 -236 -231.5 -380.5t-454.5 -144.5z" />
    <glyph glyph-name="ccircumflex" unicode="&#x109;" horiz-adv-x="1126" 
d="M453 1133h-195l184 319h256l185 -319h-195l-117 202zM70 508q0 235 140.5 384.5t364.5 149.5q207 0 339.5 -107t152.5 -290h-250q-22 85 -81.5 129.5t-149.5 44.5q-121 0 -194 -84.5t-73 -226.5q0 -143 69.5 -226t189.5 -83q94 0 156.5 44.5t82.5 127.5h252
q-23 -178 -158.5 -288t-332.5 -110q-230 0 -369 146.5t-139 388.5z" />
    <glyph glyph-name="Cdotaccent" unicode="&#x10a;" horiz-adv-x="1554" 
d="M807 1628q-60 0 -100.5 42t-40.5 102q0 59 41.5 101t99.5 42t100.5 -43t42.5 -100q0 -59 -42.5 -101.5t-100.5 -42.5zM799 -25q-327 0 -523 210.5t-196 562.5q0 230 91 406t257 272t383 96q266 0 449 -144t221 -385h-277q-38 130 -144 203.5t-255 73.5
q-207 0 -329 -140.5t-122 -379.5q0 -238 123 -380.5t328 -142.5q151 0 260.5 74t146.5 199h273q-43 -236 -231.5 -380.5t-454.5 -144.5z" />
    <glyph glyph-name="cdotaccent" unicode="&#x10b;" horiz-adv-x="1126" 
d="M569 1157q-59 0 -100 41.5t-41 101.5q0 59 41.5 101.5t99.5 42.5t101 -43.5t43 -100.5q0 -58 -42.5 -100.5t-101.5 -42.5zM70 508q0 235 140.5 384.5t364.5 149.5q207 0 339.5 -107t152.5 -290h-250q-22 85 -81.5 129.5t-149.5 44.5q-121 0 -194 -84.5t-73 -226.5
q0 -143 69.5 -226t189.5 -83q94 0 156.5 44.5t82.5 127.5h252q-23 -178 -158.5 -288t-332.5 -110q-230 0 -369 146.5t-139 388.5z" />
    <glyph glyph-name="Ccaron" unicode="&#x10c;" horiz-adv-x="1554" 
d="M680 1604l-184 319h194l119 -203l117 203h194l-184 -319h-256zM799 -25q-327 0 -523 210.5t-196 562.5q0 230 91 406t257 272t383 96q266 0 449 -144t221 -385h-277q-38 130 -144 203.5t-255 73.5q-207 0 -329 -140.5t-122 -379.5q0 -238 123 -380.5t328 -142.5
q151 0 260.5 74t146.5 199h273q-43 -236 -231.5 -380.5t-454.5 -144.5z" />
    <glyph glyph-name="ccaron" unicode="&#x10d;" horiz-adv-x="1126" 
d="M442 1133l-184 319h195l118 -203l117 203h195l-185 -319h-256zM70 508q0 235 140.5 384.5t364.5 149.5q207 0 339.5 -107t152.5 -290h-250q-22 85 -81.5 129.5t-149.5 44.5q-121 0 -194 -84.5t-73 -226.5q0 -143 69.5 -226t189.5 -83q94 0 156.5 44.5t82.5 127.5h252
q-23 -178 -158.5 -288t-332.5 -110q-230 0 -369 146.5t-139 388.5z" />
    <glyph glyph-name="Dcaron" unicode="&#x10e;" horiz-adv-x="1515" 
d="M530 1604l-186 317h197l116 -201l117 201h197l-187 -317h-254zM705 0h-539v1497h524q219 0 389 -94.5t264.5 -266t94.5 -391.5q0 -218 -92 -387.5t-259.5 -263.5t-381.5 -94zM666 1255h-238v-1013h252q224 0 352.5 134.5t128.5 368.5q0 238 -131.5 374t-363.5 136z" />
    <glyph glyph-name="dcaron" unicode="&#x10f;" horiz-adv-x="1267" 
d="M545 -27q-218 0 -346.5 146t-128.5 383q0 240 132 390t357 150q106 0 194.5 -42t135.5 -117v641h248v-1524h-230l-16 158q-45 -87 -137.5 -136t-208.5 -49zM1239 1155v369h207l-53 -369h-154zM600 203q130 0 208.5 85t78.5 222t-78.5 223t-208.5 86q-129 0 -205 -86
t-76 -223t76 -222t205 -85z" />
    <glyph glyph-name="Dcroat" unicode="&#x110;" horiz-adv-x="1515" 
d="M27 641v215h139v641h524q219 0 389 -94.5t264.5 -266t94.5 -391.5q0 -218 -92 -387.5t-259.5 -263.5t-381.5 -94h-539v641h-139zM731 641h-303v-399h252q224 0 352.5 134.5t128.5 368.5q0 238 -131.5 374t-363.5 136h-238v-399h303v-215z" />
    <glyph glyph-name="dcroat" unicode="&#x111;" horiz-adv-x="1267" 
d="M545 -27q-218 0 -346.5 146t-128.5 383q0 240 132 390t357 150q106 0 194.5 -42t135.5 -117v299h-322v151h322v191h248v-191h131v-151h-131v-1182h-230l-16 158q-45 -87 -137.5 -136t-208.5 -49zM600 203q130 0 208.5 85t78.5 222t-78.5 223t-208.5 86q-129 0 -205 -86
t-76 -223t76 -222t205 -85z" />
    <glyph glyph-name="Emacron" unicode="&#x112;" horiz-adv-x="1214" 
d="M352 1679v176h549v-176h-549zM1096 0h-930v1497h930v-242h-668v-385h598v-231h-598v-397h668v-242z" />
    <glyph glyph-name="emacron" unicode="&#x113;" horiz-adv-x="1140" 
d="M305 1208v176h547v-176h-547zM582 -27q-226 0 -369 149t-143 384q0 238 140 387t363 149q227 0 361.5 -140.5t134.5 -377.5v-75l-762 -3q27 -268 279 -268q102 0 168 39t88 111h231q-32 -166 -162.5 -260.5t-328.5 -94.5zM575 838q-110 0 -176.5 -59t-85.5 -173h508
q0 105 -67 168.5t-179 63.5z" />
    <glyph glyph-name="Ebreve" unicode="&#x114;" horiz-adv-x="1214" 
d="M766 1911h180q0 -149 -86 -236.5t-231 -87.5q-149 0 -235.5 87.5t-86.5 236.5h182q0 -74 36.5 -114t103.5 -40q66 0 101.5 40.5t35.5 113.5zM1096 0h-930v1497h930v-242h-668v-385h598v-231h-598v-397h668v-242z" />
    <glyph glyph-name="ebreve" unicode="&#x115;" horiz-adv-x="1140" 
d="M719 1440h180q0 -149 -86.5 -236.5t-232.5 -87.5q-149 0 -235.5 87.5t-86.5 236.5h182q0 -74 36.5 -114t103.5 -40t103 40.5t36 113.5zM582 -27q-226 0 -369 149t-143 384q0 238 140 387t363 149q227 0 361.5 -140.5t134.5 -377.5v-75l-762 -3q27 -268 279 -268
q102 0 168 39t88 111h231q-32 -166 -162.5 -260.5t-328.5 -94.5zM575 838q-110 0 -176.5 -59t-85.5 -173h508q0 105 -67 168.5t-179 63.5z" />
    <glyph glyph-name="Edotaccent" unicode="&#x116;" horiz-adv-x="1214" 
d="M625 1628q-59 0 -100.5 42t-41.5 102q0 58 42.5 100.5t99.5 42.5q58 0 100.5 -43t42.5 -100q0 -59 -42.5 -101.5t-100.5 -42.5zM1096 0h-930v1497h930v-242h-668v-385h598v-231h-598v-397h668v-242z" />
    <glyph glyph-name="edotaccent" unicode="&#x117;" horiz-adv-x="1140" 
d="M578 1157q-60 0 -101 41.5t-41 101.5q0 59 42 101.5t100 42.5t100.5 -43.5t42.5 -100.5q0 -58 -42.5 -100.5t-100.5 -42.5zM582 -27q-226 0 -369 149t-143 384q0 238 140 387t363 149q227 0 361.5 -140.5t134.5 -377.5v-75l-762 -3q27 -268 279 -268q102 0 168 39t88 111
h231q-32 -166 -162.5 -260.5t-328.5 -94.5zM575 838q-110 0 -176.5 -59t-85.5 -173h508q0 105 -67 168.5t-179 63.5z" />
    <glyph glyph-name="Eogonek" unicode="&#x118;" horiz-adv-x="1214" 
d="M942 0h-776v1497h930v-242h-668v-385h598v-231h-598v-397h668v-242q-72 -26 -110 -68.5t-38 -85.5q0 -34 22.5 -54.5t59.5 -20.5q25 0 55 12v-166q-42 -18 -104 -18q-90 0 -146.5 55t-56.5 135q0 66 42 123t122 88z" />
    <glyph glyph-name="eogonek" unicode="&#x119;" horiz-adv-x="1140" 
d="M758 -383q-40 -18 -103 -18q-91 0 -146.5 55t-55.5 135q0 118 108 184q-218 8 -354.5 155.5t-136.5 377.5q0 238 140 387t363 149q227 0 361.5 -140.5t134.5 -377.5v-75l-762 -3q27 -268 279 -268q102 0 168 39t88 111h231q-25 -126 -107 -212t-210 -120
q-66 -26 -99.5 -67t-33.5 -83q0 -34 21.5 -54.5t57.5 -20.5q26 0 56 12v-166zM575 838q-110 0 -176.5 -59t-85.5 -173h508q0 105 -67 168.5t-179 63.5z" />
    <glyph glyph-name="Ecaron" unicode="&#x11a;" horiz-adv-x="1214" 
d="M498 1604l-185 319h197l117 -203l116 203h197l-186 -319h-256zM1096 0h-930v1497h930v-242h-668v-385h598v-231h-598v-397h668v-242z" />
    <glyph glyph-name="ecaron" unicode="&#x11b;" horiz-adv-x="1140" 
d="M451 1133l-185 319h195l119 -203l116 203h195l-184 -319h-256zM582 -27q-226 0 -369 149t-143 384q0 238 140 387t363 149q227 0 361.5 -140.5t134.5 -377.5v-75l-762 -3q27 -268 279 -268q102 0 168 39t88 111h231q-32 -166 -162.5 -260.5t-328.5 -94.5zM575 838
q-110 0 -176.5 -59t-85.5 -173h508q0 105 -67 168.5t-179 63.5z" />
    <glyph glyph-name="Gcircumflex" unicode="&#x11c;" horiz-adv-x="1601" 
d="M709 1606h-195l184 317h256l185 -317h-197l-117 200zM821 1276q-220 0 -343.5 -146.5t-123.5 -392.5q0 -245 128.5 -380.5t340.5 -135.5q195 0 306.5 101.5t111.5 281.5v6h-453v232h697v-842h-221l-17 172q-63 -88 -184 -141.5t-270 -53.5q-208 0 -370 94.5t-252.5 269.5
t-90.5 402q0 226 92 403t262.5 276.5t392.5 99.5q258 0 438 -138.5t212 -365.5h-277q-34 127 -136 192.5t-243 65.5z" />
    <glyph glyph-name="gcircumflex" unicode="&#x11d;" horiz-adv-x="1257" 
d="M467 1141h-195l185 317h256l184 -317h-197l-116 202zM72 528q0 224 133.5 370t347.5 146q114 0 200 -45t130 -127l14 140h231v-961q0 -254 -142 -401.5t-388 -147.5q-218 0 -357.5 117t-162.5 320h250q12 -98 83.5 -153.5t186.5 -55.5q129 0 206 75t77 201v168
q-48 -71 -137 -112.5t-197 -41.5q-213 0 -344 143t-131 365zM324 535q0 -129 75 -213t197 -84q128 0 203 82t75 215q0 131 -74.5 210.5t-203.5 79.5q-123 0 -197.5 -82t-74.5 -208z" />
    <glyph glyph-name="Gbreve" unicode="&#x11e;" horiz-adv-x="1601" 
d="M967 1911h180q0 -148 -87 -235t-233 -87q-149 0 -235 86.5t-86 235.5h182q0 -74 36 -114t103 -40q66 0 103 41t37 113zM821 1276q-220 0 -343.5 -146.5t-123.5 -392.5q0 -245 128.5 -380.5t340.5 -135.5q195 0 306.5 101.5t111.5 281.5v6h-453v232h697v-842h-221l-17 172
q-63 -88 -184 -141.5t-270 -53.5q-208 0 -370 94.5t-252.5 269.5t-90.5 402q0 226 92 403t262.5 276.5t392.5 99.5q258 0 438 -138.5t212 -365.5h-277q-34 127 -136 192.5t-243 65.5z" />
    <glyph glyph-name="gbreve" unicode="&#x11f;" horiz-adv-x="1257" 
d="M725 1448h180q0 -149 -86.5 -236.5t-232.5 -87.5q-149 0 -235.5 86.5t-86.5 237.5h182q0 -74 36.5 -114t103.5 -40q66 0 102.5 40.5t36.5 113.5zM72 528q0 224 133.5 370t347.5 146q114 0 200 -45t130 -127l14 140h231v-961q0 -254 -142 -401.5t-388 -147.5
q-218 0 -357.5 117t-162.5 320h250q12 -98 83.5 -153.5t186.5 -55.5q129 0 206 75t77 201v168q-48 -71 -137 -112.5t-197 -41.5q-213 0 -344 143t-131 365zM324 535q0 -129 75 -213t197 -84q128 0 203 82t75 215q0 131 -74.5 210.5t-203.5 79.5q-123 0 -197.5 -82
t-74.5 -208z" />
    <glyph glyph-name="Gdotaccent" unicode="&#x120;" horiz-adv-x="1601" 
d="M825 1628q-60 0 -101.5 42t-41.5 102q0 58 42 100.5t101 42.5t101.5 -42.5t42.5 -100.5t-42.5 -101t-101.5 -43zM821 1276q-220 0 -343.5 -146.5t-123.5 -392.5q0 -245 128.5 -380.5t340.5 -135.5q195 0 306.5 101.5t111.5 281.5v6h-453v232h697v-842h-221l-17 172
q-63 -88 -184 -141.5t-270 -53.5q-208 0 -370 94.5t-252.5 269.5t-90.5 402q0 226 92 403t262.5 276.5t392.5 99.5q258 0 438 -138.5t212 -365.5h-277q-34 127 -136 192.5t-243 65.5z" />
    <glyph glyph-name="gdotaccent" unicode="&#x121;" horiz-adv-x="1257" 
d="M584 1165q-60 0 -102 41.5t-42 100.5q0 60 42.5 102.5t101.5 42.5q58 0 100.5 -43t42.5 -102q0 -58 -42 -100t-101 -42zM72 528q0 224 133.5 370t347.5 146q114 0 200 -45t130 -127l14 140h231v-961q0 -254 -142 -401.5t-388 -147.5q-218 0 -357.5 117t-162.5 320h250
q12 -98 83.5 -153.5t186.5 -55.5q129 0 206 75t77 201v168q-48 -71 -137 -112.5t-197 -41.5q-213 0 -344 143t-131 365zM324 535q0 -129 75 -213t197 -84q128 0 203 82t75 215q0 131 -74.5 210.5t-203.5 79.5q-123 0 -197.5 -82t-74.5 -208z" />
    <glyph glyph-name="Gcommaaccent" unicode="&#x122;" horiz-adv-x="1601" 
d="M821 1276q-220 0 -343.5 -146.5t-123.5 -392.5q0 -245 128.5 -380.5t340.5 -135.5q195 0 306.5 101.5t111.5 281.5v6h-453v232h697v-842h-221l-17 172q-63 -88 -184 -141.5t-270 -53.5q-208 0 -370 94.5t-252.5 269.5t-90.5 402q0 226 92 403t262.5 276.5t392.5 99.5
q258 0 438 -138.5t212 -365.5h-277q-34 127 -136 192.5t-243 65.5zM922 -231q0 -111 -67 -177t-179 -53v82q135 -12 141 80q-21 -12 -49 -12q-49 0 -81 33t-32 83q0 55 36 89t95 34q62 0 99 -43t37 -116z" />
    <glyph glyph-name="gcommaaccent" unicode="&#x123;" horiz-adv-x="1257" 
d="M705 1284q0 -55 -35.5 -89t-94.5 -34q-62 0 -98.5 43.5t-36.5 116.5q0 111 67 176.5t179 52.5v-82q-135 12 -141 -79q23 10 49 10q49 0 80 -32.5t31 -82.5zM72 528q0 224 133.5 370t347.5 146q114 0 200 -45t130 -127l14 140h231v-961q0 -254 -142 -401.5t-388 -147.5
q-218 0 -357.5 117t-162.5 320h250q12 -98 83.5 -153.5t186.5 -55.5q129 0 206 75t77 201v168q-48 -71 -137 -112.5t-197 -41.5q-213 0 -344 143t-131 365zM324 535q0 -129 75 -213t197 -84q128 0 203 82t75 215q0 131 -74.5 210.5t-203.5 79.5q-123 0 -197.5 -82
t-74.5 -208z" />
    <glyph glyph-name="Hbar" unicode="&#x126;" horiz-adv-x="1519" 
d="M428 0h-262v1094h-160v223h160v180h262v-180h664v180h262v-180h162v-223h-162v-1094h-262v635h-664v-635zM428 879h664v215h-664v-215z" />
    <glyph glyph-name="hbar" unicode="&#x127;" horiz-adv-x="1206" 
d="M379 0h-250v1182h-129v151h129v191h252v-191h319v-151h-319v-301q48 75 134.5 118t193.5 43q185 0 283 -110t98 -309v-623h-250v563q0 124 -56.5 188t-154.5 64q-116 0 -183 -73t-67 -189v-553z" />
    <glyph glyph-name="Itilde" unicode="&#x128;" horiz-adv-x="593" 
d="M94 1620h-147q-13 131 39 210t149 79q46 0 90.5 -19t73.5 -41.5t64 -41.5t63 -19q72 0 72 121h147q12 -142 -40.5 -215.5t-153.5 -73.5q-48 0 -93.5 19t-74.5 41.5t-61.5 41.5t-57.5 19q-70 0 -70 -121zM428 1497v-1497h-262v1497h262z" />
    <glyph glyph-name="itilde" unicode="&#x129;" horiz-adv-x="507" 
d="M53 1149h-147q-13 131 39 210t149 79q46 0 91 -19t74 -41.5t63.5 -41.5t62.5 -19q72 0 72 121h147q12 -142 -40.5 -215.5t-153.5 -73.5q-48 0 -93.5 19t-74.5 41.5t-61.5 41.5t-57.5 19q-70 0 -70 -121zM129 0v1012h250v-1012h-250z" />
    <glyph glyph-name="Imacron" unicode="&#x12a;" horiz-adv-x="593" 
d="M23 1679v176h548v-176h-548zM428 1497v-1497h-262v1497h262z" />
    <glyph glyph-name="imacron" unicode="&#x12b;" horiz-adv-x="507" 
d="M-18 1208v176h548v-176h-548zM129 0v1012h250v-1012h-250z" />
    <glyph glyph-name="Iogonek" unicode="&#x12e;" horiz-adv-x="593" 
d="M272 0h-106v1497h262v-1497h-2q-72 -26 -108.5 -68.5t-36.5 -85.5q0 -34 21.5 -54.5t57.5 -20.5q26 0 56 12v-166q-40 -18 -103 -18q-91 0 -146.5 55t-55.5 135q0 67 40.5 123.5t120.5 87.5z" />
    <glyph glyph-name="iogonek" unicode="&#x12f;" horiz-adv-x="507" 
d="M254 1214q-64 0 -109 44.5t-45 107.5t44.5 106.5t109.5 43.5q62 0 105.5 -43.5t43.5 -106.5t-43.5 -107.5t-105.5 -44.5zM129 0v1012h250v-1012h-2q-71 -26 -108.5 -68.5t-37.5 -85.5q0 -34 21.5 -54.5t58.5 -20.5q29 0 56 12v-166q-40 -18 -103 -18q-91 0 -147 55
t-56 135q0 66 42 123t122 88h-96z" />
    <glyph glyph-name="Idotaccent" unicode="&#x130;" horiz-adv-x="593" 
d="M295 1628q-59 0 -100 42t-41 102q0 59 41.5 101t99.5 42t100.5 -43t42.5 -100q0 -59 -42.5 -101.5t-100.5 -42.5zM428 1497v-1497h-262v1497h262z" />
    <glyph glyph-name="dotlessi" unicode="&#x131;" horiz-adv-x="507" 
d="M129 0v1012h250v-1012h-250z" />
    <glyph glyph-name="Jcircumflex" unicode="&#x134;" horiz-adv-x="1130" 
d="M725 1606h-195l185 317h256l184 -317h-194l-117 200zM41 422v88h252v-88q0 -92 53 -148.5t158 -56.5q107 0 158 56.5t51 158.5v1065h262v-1079q0 -199 -128 -322t-341 -123q-223 0 -344 124t-121 325z" />
    <glyph glyph-name="jcircumflex" unicode="&#x135;" horiz-adv-x="507" 
d="M139 1133h-194l184 319h256l184 -319h-194l-117 202zM-113 -475l41 221q42 -12 86 -12q63 0 89 36t26 115v1127h250v-1155q0 -164 -90 -259.5t-252 -95.5q-66 0 -150 23z" />
    <glyph glyph-name="Kcommaaccent" unicode="&#x136;" horiz-adv-x="1380" 
d="M428 1497v-786l606 786h309l-495 -639l502 -858h-303l-371 637l-248 -318v-319h-262v1497h262zM850 -231q0 -111 -67 -177t-181 -53v82q132 -12 141 78q-23 -10 -47 -10q-49 0 -80.5 33t-31.5 83q0 55 36 89t93 34q63 0 100 -43t37 -116z" />
    <glyph glyph-name="kcommaaccent" unicode="&#x137;" horiz-adv-x="1101" 
d="M381 0h-248v1524h248v-936l393 424h313l-385 -402l377 -610h-286l-265 426l-147 -154v-272zM690 -231q0 -111 -67 -177t-181 -53v82q136 -12 142 80q-21 -12 -47 -12q-50 0 -81.5 33t-31.5 83q0 55 36 89t93 34q62 0 99.5 -43t37.5 -116z" />
    <glyph glyph-name="Lacute" unicode="&#x139;" horiz-adv-x="1101" 
d="M592 1878l-201 -303h-184l153 303h232zM428 1497v-1255h627v-242h-889v1497h262z" />
    <glyph glyph-name="lacute" unicode="&#x13a;" horiz-adv-x="514" 
d="M551 1901l-201 -304h-184l153 304h232zM381 0h-248v1524h248v-1524z" />
    <glyph glyph-name="Lcommaaccent" unicode="&#x13b;" horiz-adv-x="1101" 
d="M428 1497v-1255h627v-242h-889v1497h262zM752 -231q0 -111 -67 -177t-181 -53v82q135 -12 141 80q-21 -12 -47 -12q-49 0 -81 33t-32 83q0 55 36 89t93 34q62 0 100 -43t38 -116z" />
    <glyph glyph-name="lcommaaccent" unicode="&#x13c;" horiz-adv-x="514" 
d="M381 0h-248v1524h248v-1524zM387 -231q0 -111 -67 -177t-181 -53v82q136 -12 142 80q-21 -12 -48 -12q-49 0 -80.5 33t-31.5 83q0 55 36 89t93 34q62 0 99.5 -43t37.5 -116z" />
    <glyph glyph-name="Lcaron" unicode="&#x13d;" horiz-adv-x="1101" 
d="M428 1497v-1255h627v-242h-889v1497h262zM530 1126v371h207l-55 -371h-152z" />
    <glyph glyph-name="lcaron" unicode="&#x13e;" horiz-adv-x="514" 
d="M381 0h-248v1524h248v-1524zM483 1155v369h207l-53 -369h-154z" />
    <glyph glyph-name="Ldot" unicode="&#x13f;" horiz-adv-x="1101" 
d="M428 1497v-1255h627v-242h-889v1497h262zM731 602q-57 0 -100 42t-43 99q0 58 42 100t101 42q58 0 99.5 -42.5t41.5 -99.5t-41.5 -99t-99.5 -42z" />
    <glyph glyph-name="ldot" unicode="&#x140;" horiz-adv-x="784" 
d="M381 0h-248v1524h248v-1524zM651 600q-61 0 -104 42t-43 101q0 60 43 103t104 43q57 0 100.5 -44t43.5 -102t-42.5 -100.5t-101.5 -42.5z" />
    <glyph glyph-name="Lslash" unicode="&#x141;" horiz-adv-x="1101" 
d="M33 508v203l133 63v723h262v-598l295 141v-202l-295 -142v-454h627v-242h-889v571z" />
    <glyph glyph-name="lslash" unicode="&#x142;" horiz-adv-x="514" 
d="M381 0h-248v641l-110 -53v178l110 53v705h248v-586l113 53v-178l-113 -53v-760z" />
    <glyph glyph-name="Nacute" unicode="&#x143;" horiz-adv-x="1552" 
d="M1077 1907l-200 -303h-185l154 303h231zM424 0h-258v1497h260l702 -1061v1061h258v-1497h-258l-704 1061v-1061z" />
    <glyph glyph-name="nacute" unicode="&#x144;" horiz-adv-x="1206" 
d="M915 1436l-200 -303h-185l154 303h231zM379 0h-250v1012h231l21 -131q47 76 133.5 118.5t190.5 42.5q188 0 286.5 -110t98.5 -309v-623h-250v563q0 124 -56.5 188t-156.5 64q-115 0 -181.5 -73t-66.5 -197v-545z" />
    <glyph glyph-name="Ncommaaccent" unicode="&#x145;" horiz-adv-x="1552" 
d="M424 0h-258v1497h260l702 -1061v1061h258v-1497h-258l-704 1061v-1061zM918 -231q0 -111 -67 -177t-181 -53v82q135 -12 141 80q-21 -12 -47 -12q-50 0 -81.5 33t-31.5 83q0 55 36 89t93 34q62 0 100 -43t38 -116z" />
    <glyph glyph-name="ncommaaccent" unicode="&#x146;" horiz-adv-x="1206" 
d="M379 0h-250v1012h231l21 -131q47 76 133.5 118.5t190.5 42.5q188 0 286.5 -110t98.5 -309v-623h-250v563q0 124 -56.5 188t-156.5 64q-115 0 -181.5 -73t-66.5 -197v-545zM739 -231q0 -111 -67.5 -177t-179.5 -53v82q135 -12 141 80q-21 -12 -49 -12q-49 0 -80 33t-31 83
q0 56 35.5 89.5t93.5 33.5q62 0 99.5 -43t37.5 -116z" />
    <glyph glyph-name="Ncaron" unicode="&#x147;" horiz-adv-x="1552" 
d="M655 1604l-184 319h195l118 -203l117 203h195l-185 -319h-256zM424 0h-258v1497h260l702 -1061v1061h258v-1497h-258l-704 1061v-1061z" />
    <glyph glyph-name="ncaron" unicode="&#x148;" horiz-adv-x="1206" 
d="M494 1133l-185 319h195l117 -203l116 203h197l-184 -319h-256zM379 0h-250v1012h231l21 -131q47 76 133.5 118.5t190.5 42.5q188 0 286.5 -110t98.5 -309v-623h-250v563q0 124 -56.5 188t-156.5 64q-115 0 -181.5 -73t-66.5 -197v-545z" />
    <glyph glyph-name="Eng" unicode="&#x14a;" horiz-adv-x="1552" 
d="M1044 -498q-95 0 -184 27l43 221q56 -16 105 -16q131 0 131 151v101l-715 1075v-1061h-258v1497h260l702 -1061v1061h258v-1640q0 -164 -90 -259.5t-252 -95.5z" />
    <glyph glyph-name="eng" unicode="&#x14b;" horiz-adv-x="1206" 
d="M379 0h-250v1012h231l21 -131q47 76 133.5 118.5t190.5 42.5q188 0 286.5 -110t98.5 -309v-766q0 -163 -90.5 -259t-251.5 -96q-70 0 -150 23l41 221q42 -12 86 -12q62 0 88.5 36.5t26.5 114.5v678q0 124 -56.5 188t-156.5 64q-115 0 -181.5 -73t-66.5 -197v-545z" />
    <glyph glyph-name="Omacron" unicode="&#x14c;" horiz-adv-x="1609" 
d="M530 1679v176h549v-176h-549zM1532 750q0 -225 -92 -401.5t-258.5 -275t-378.5 -98.5q-211 0 -376 98t-256 274.5t-91 402.5q0 225 91.5 401.5t257 274.5t376.5 98q159 0 294 -57t230.5 -158t149 -245.5t53.5 -313.5zM1255 750q0 239 -122 380.5t-328 141.5
t-328.5 -141.5t-122.5 -380.5t122.5 -381t328.5 -142q205 0 327.5 143t122.5 380z" />
    <glyph glyph-name="omacron" unicode="&#x14d;" horiz-adv-x="1220" 
d="M336 1208v176h549v-176h-549zM70 508q0 235 152 383.5t388 148.5t388.5 -148.5t152.5 -383.5t-152.5 -384t-388.5 -149t-388 149t-152 384zM319 508q0 -138 81 -223.5t210 -85.5t210 85.5t81 223.5t-81 223.5t-210 85.5t-210 -85.5t-81 -223.5z" />
    <glyph glyph-name="Ohungarumlaut" unicode="&#x150;" horiz-adv-x="1609" 
d="M948 1907l-200 -303h-177l168 303h209zM1264 1907l-211 -303h-176l176 303h211zM1532 750q0 -225 -92 -401.5t-258.5 -275t-378.5 -98.5q-211 0 -376 98t-256 274.5t-91 402.5q0 225 91.5 401.5t257 274.5t376.5 98q159 0 294 -57t230.5 -158t149 -245.5t53.5 -313.5z
M1255 750q0 239 -122 380.5t-328 141.5t-328.5 -141.5t-122.5 -380.5t122.5 -381t328.5 -142q205 0 327.5 143t122.5 380z" />
    <glyph glyph-name="ohungarumlaut" unicode="&#x151;" horiz-adv-x="1220" 
d="M754 1436l-201 -303h-176l168 303h209zM1069 1436l-211 -303h-176l176 303h211zM70 508q0 235 152 383.5t388 148.5t388.5 -148.5t152.5 -383.5t-152.5 -384t-388.5 -149t-388 149t-152 384zM319 508q0 -138 81 -223.5t210 -85.5t210 85.5t81 223.5t-81 223.5t-210 85.5
t-210 -85.5t-81 -223.5z" />
    <glyph glyph-name="OE" unicode="&#x152;" horiz-adv-x="2318" 
d="M80 750q0 223 90 399t257 275.5t382 99.5q137 0 261.5 -49t201.5 -136v158h930v-242h-668v-385h598v-231h-598v-397h668v-242h-930v178q-63 -90 -192 -146.5t-281 -56.5q-213 0 -377.5 100t-253 276t-88.5 399zM354 752q0 -239 129.5 -382t329.5 -143q199 0 327 142.5
t128 382.5q0 238 -128 379t-329 141q-199 0 -328 -141t-129 -379z" />
    <glyph glyph-name="oe" unicode="&#x153;" horiz-adv-x="1982" 
d="M70 508q0 235 152 383.5t388 148.5q129 0 235.5 -47.5t176.5 -134.5q69 88 170 136t225 48q226 0 360 -141t134 -377v-75l-762 -3q27 -268 281 -268q101 0 167 39t86 111h232q-32 -166 -163 -260.5t-329 -94.5q-125 0 -228 49t-173 138q-70 -89 -175.5 -137t-236.5 -48
q-236 0 -388 149t-152 384zM1417 838q-110 0 -176.5 -59t-85.5 -173h508q0 105 -67 168.5t-179 63.5zM319 508q0 -138 81 -223.5t210 -85.5t210 85.5t81 223.5t-81 223.5t-210 85.5t-210 -85.5t-81 -223.5z" />
    <glyph glyph-name="Racute" unicode="&#x154;" horiz-adv-x="1372" 
d="M934 1909l-199 -303h-186l153 303h232zM428 0h-262v1497h571q255 0 397 -123t142 -344q0 -150 -69 -256t-201 -160l284 -614h-286l-254 559h-322v-559zM428 1264v-473h309q125 0 194.5 62.5t69.5 176.5q0 112 -69.5 173t-194.5 61h-309z" />
    <glyph glyph-name="racute" unicode="&#x155;" horiz-adv-x="804" 
d="M723 1440l-201 -303h-184l154 303h231zM764 1016v-232h-92q-138 0 -215.5 -73.5t-77.5 -218.5v-492h-250v1010h236l14 -148q33 77 104 122.5t170 45.5q54 0 111 -14z" />
    <glyph glyph-name="Rcommaaccent" unicode="&#x156;" horiz-adv-x="1372" 
d="M428 0h-262v1497h571q255 0 397 -123t142 -344q0 -150 -69 -256t-201 -160l284 -614h-286l-254 559h-322v-559zM428 1264v-473h309q125 0 194.5 62.5t69.5 176.5q0 112 -69.5 173t-194.5 61h-309zM846 -231q0 -111 -67 -177t-181 -53v82q135 -12 141 80q-21 -12 -47 -12
q-50 0 -81 33t-31 83q0 55 36 89t93 34q62 0 99.5 -43t37.5 -116z" />
    <glyph glyph-name="rcommaaccent" unicode="&#x157;" horiz-adv-x="804" 
d="M764 1016v-232h-92q-138 0 -215.5 -73.5t-77.5 -218.5v-492h-250v1010h236l14 -148q33 77 104 122.5t170 45.5q54 0 111 -14zM385 -231q0 -111 -67 -177t-179 -53v82q136 -12 142 80q-21 -12 -50 -12q-49 0 -79.5 33t-30.5 83q0 56 35.5 89.5t93.5 33.5q62 0 98.5 -43
t36.5 -116z" />
    <glyph glyph-name="Rcaron" unicode="&#x158;" horiz-adv-x="1372" 
d="M512 1606l-184 317h196l117 -203l117 203h194l-184 -317h-256zM428 0h-262v1497h571q255 0 397 -123t142 -344q0 -150 -69 -256t-201 -160l284 -614h-286l-254 559h-322v-559zM428 1264v-473h309q125 0 194.5 62.5t69.5 176.5q0 112 -69.5 173t-194.5 61h-309z" />
    <glyph glyph-name="rcaron" unicode="&#x159;" horiz-adv-x="804" 
d="M301 1137l-186 319h196l117 -203l117 203h196l-184 -319h-256zM764 1016v-232h-92q-138 0 -215.5 -73.5t-77.5 -218.5v-492h-250v1010h236l14 -148q33 77 104 122.5t170 45.5q54 0 111 -14z" />
    <glyph glyph-name="Sacute" unicode="&#x15a;" horiz-adv-x="1212" 
d="M895 1907l-201 -303h-184l154 303h231zM80 1079q0 197 148 321t384 124q227 0 362.5 -118t141.5 -321h-262q-4 96 -69.5 150.5t-176.5 54.5q-122 0 -194 -54.5t-72 -148.5q0 -79 44 -125.5t138 -68.5l236 -51q193 -41 287 -142t94 -268q0 -209 -149.5 -334t-397.5 -125
q-240 0 -385.5 119t-149.5 320h263q1 -95 73.5 -149t198.5 -54q131 0 208 54t77 147q0 76 -41.5 121t-132.5 65l-238 53q-191 41 -289 150t-98 280z" />
    <glyph glyph-name="sacute" unicode="&#x15b;" horiz-adv-x="948" 
d="M778 1454l-200 -303h-185l154 303h231zM51 307h238q2 -67 49.5 -105t132.5 -38q87 0 133.5 32.5t46.5 88.5q0 41 -26 67.5t-90 40.5l-183 43q-138 31 -204 100t-66 189q0 147 111.5 232t289.5 85q171 0 276.5 -90t106.5 -237h-237q-2 65 -43.5 103t-112.5 38
q-73 0 -114.5 -32t-41.5 -89q0 -83 132 -114l182 -43q131 -30 193.5 -94.5t62.5 -178.5q0 -152 -117 -242t-307 -90q-188 0 -300 92t-112 242z" />
    <glyph glyph-name="Scircumflex" unicode="&#x15c;" horiz-adv-x="1212" 
d="M483 1604h-194l184 319h256l184 -319h-194l-117 202zM80 1079q0 197 148 321t384 124q227 0 362.5 -118t141.5 -321h-262q-4 96 -69.5 150.5t-176.5 54.5q-122 0 -194 -54.5t-72 -148.5q0 -79 44 -125.5t138 -68.5l236 -51q193 -41 287 -142t94 -268q0 -209 -149.5 -334
t-397.5 -125q-240 0 -385.5 119t-149.5 320h263q1 -95 73.5 -149t198.5 -54q131 0 208 54t77 147q0 76 -41.5 121t-132.5 65l-238 53q-191 41 -289 150t-98 280z" />
    <glyph glyph-name="scircumflex" unicode="&#x15d;" horiz-adv-x="948" 
d="M367 1151h-197l186 319h254l187 -319h-197l-117 203zM51 307h238q2 -67 49.5 -105t132.5 -38q87 0 133.5 32.5t46.5 88.5q0 41 -26 67.5t-90 40.5l-183 43q-138 31 -204 100t-66 189q0 147 111.5 232t289.5 85q171 0 276.5 -90t106.5 -237h-237q-2 65 -43.5 103
t-112.5 38q-73 0 -114.5 -32t-41.5 -89q0 -83 132 -114l182 -43q131 -30 193.5 -94.5t62.5 -178.5q0 -152 -117 -242t-307 -90q-188 0 -300 92t-112 242z" />
    <glyph glyph-name="Scedilla" unicode="&#x15e;" horiz-adv-x="1212" 
d="M451 -401v114q76 -37 137 -37q51 0 78.5 21t27.5 57q0 33 -23 51.5t-63 18.5q-48 0 -100 -19l-25 70l47 100q-213 15 -340 132.5t-131 304.5h263q1 -95 73.5 -149t198.5 -54q131 0 208 54t77 147q0 76 -41.5 121t-132.5 65l-238 53q-191 41 -289 150t-98 280
q0 197 148 321t384 124q227 0 362.5 -118t141.5 -321h-262q-4 96 -69.5 150.5t-176.5 54.5q-122 0 -194 -54.5t-72 -148.5q0 -79 44 -125.5t138 -68.5l236 -51q193 -41 287 -142t94 -268q0 -199 -137.5 -322.5t-366.5 -134.5l-35 -69q33 10 68 10q67 0 115.5 -40.5
t48.5 -119.5q0 -91 -66 -141.5t-166 -50.5q-89 0 -151 35z" />
    <glyph glyph-name="scedilla" unicode="&#x15f;" horiz-adv-x="948" 
d="M51 307h238q2 -67 49.5 -105t132.5 -38q87 0 133.5 32.5t46.5 88.5q0 41 -26 67.5t-90 40.5l-183 43q-138 31 -204 100t-66 189q0 147 111.5 232t289.5 85q171 0 276.5 -90t106.5 -237h-237q-2 65 -43.5 103t-112.5 38q-73 0 -114.5 -32t-41.5 -89q0 -83 132 -114
l182 -43q131 -30 193.5 -94.5t62.5 -178.5q0 -143 -104.5 -232t-276.5 -98l-35 -69q33 10 66 10q68 0 116.5 -40.5t48.5 -119.5q0 -92 -65.5 -142t-165.5 -50q-90 0 -152 35v114q76 -37 138 -37q51 0 78.5 21t27.5 57q0 33 -23 51.5t-63 18.5q-48 0 -100 -19l-25 70l47 100
q-161 17 -254.5 106t-93.5 226z" />
    <glyph glyph-name="Scaron" unicode="&#x160;" horiz-adv-x="1212" 
d="M473 1604l-184 319h194l119 -203l117 203h194l-184 -319h-256zM80 1079q0 197 148 321t384 124q227 0 362.5 -118t141.5 -321h-262q-4 96 -69.5 150.5t-176.5 54.5q-122 0 -194 -54.5t-72 -148.5q0 -79 44 -125.5t138 -68.5l236 -51q193 -41 287 -142t94 -268
q0 -209 -149.5 -334t-397.5 -125q-240 0 -385.5 119t-149.5 320h263q1 -95 73.5 -149t198.5 -54q131 0 208 54t77 147q0 76 -41.5 121t-132.5 65l-238 53q-191 41 -289 150t-98 280z" />
    <glyph glyph-name="scaron" unicode="&#x161;" horiz-adv-x="948" 
d="M356 1151l-186 319h197l116 -202l117 202h197l-187 -319h-254zM51 307h238q2 -67 49.5 -105t132.5 -38q87 0 133.5 32.5t46.5 88.5q0 41 -26 67.5t-90 40.5l-183 43q-138 31 -204 100t-66 189q0 147 111.5 232t289.5 85q171 0 276.5 -90t106.5 -237h-237q-2 65 -43.5 103
t-112.5 38q-73 0 -114.5 -32t-41.5 -89q0 -83 132 -114l182 -43q131 -30 193.5 -94.5t62.5 -178.5q0 -152 -117 -242t-307 -90q-188 0 -300 92t-112 242z" />
    <glyph glyph-name="Tcedilla" unicode="&#x162;" horiz-adv-x="1208" 
d="M457 -401v114q76 -37 137 -37q51 0 78.5 21t27.5 57q0 33 -23 51.5t-63 18.5q-48 0 -100 -19l-25 70l60 125h-76v1255h-438v242h1139v-242h-439v-1255h-80l-47 -94q33 10 68 10q67 0 115.5 -40.5t48.5 -119.5q0 -91 -66 -141.5t-166 -50.5q-86 0 -151 35z" />
    <glyph glyph-name="tcedilla" unicode="&#x163;" horiz-adv-x="696" 
d="M211 -401v114q76 -37 137 -37q52 0 79.5 21t27.5 57q0 33 -23 51.5t-63 18.5q-49 0 -101 -19l-26 70l61 125h-80v803h-194v209h194v315h250v-315h197v-209h-197v-803h-63l-50 -94q33 10 68 10q67 0 115.5 -40.5t48.5 -119.5q0 -91 -65.5 -141.5t-164.5 -50.5
q-89 0 -151 35z" />
    <glyph glyph-name="Tcaron" unicode="&#x164;" horiz-adv-x="1208" 
d="M475 1604l-184 319h196l117 -203l117 203h194l-184 -319h-256zM35 1255v242h1139v-242h-439v-1255h-262v1255h-438z" />
    <glyph glyph-name="tcaron" unicode="&#x165;" horiz-adv-x="696" 
d="M547 1128v371h207l-56 -371h-151zM473 0h-250v803h-194v209h194v315h250v-315h197v-209h-197v-803z" />
    <glyph glyph-name="Tbar" unicode="&#x166;" horiz-adv-x="1208" 
d="M252 664v213h221v378h-438v242h1139v-242h-439v-378h221v-213h-221v-664h-262v664h-221z" />
    <glyph glyph-name="tbar" unicode="&#x167;" horiz-adv-x="696" 
d="M473 0h-250v428h-145v193h145v182h-194v209h194v315h250v-315h197v-209h-197v-182h145v-193h-145v-428z" />
    <glyph glyph-name="Utilde" unicode="&#x168;" horiz-adv-x="1497" 
d="M547 1620h-148q-13 132 38.5 210.5t150.5 78.5q46 0 90.5 -19t73.5 -41.5t64 -41.5t63 -19q71 0 71 121h148q12 -142 -41 -215.5t-154 -73.5q-48 0 -94 19t-75 41.5t-61.5 41.5t-56.5 19q-69 0 -69 -121zM156 547v950h262v-934q0 -161 85 -247.5t245 -86.5q159 0 245 87
t86 247v934h262v-950q0 -263 -160 -417.5t-433 -154.5q-272 0 -432 154t-160 418z" />
    <glyph glyph-name="utilde" unicode="&#x169;" horiz-adv-x="1193" 
d="M387 1149h-147q-13 131 39 210t149 79q46 0 90.5 -19t73.5 -41.5t64 -41.5t63 -19q72 0 72 121h147q12 -142 -41 -215.5t-154 -73.5q-48 0 -93.5 19t-74 41.5t-61 41.5t-57.5 19q-70 0 -70 -121zM815 1012h250v-1012h-231l-19 135q-46 -72 -136.5 -117t-191.5 -45
q-173 0 -271.5 109.5t-98.5 296.5v633h250v-545q0 -141 54 -205.5t161 -64.5q119 0 176 69.5t57 214.5v531z" />
    <glyph glyph-name="Umacron" unicode="&#x16a;" horiz-adv-x="1497" 
d="M475 1679v176h549v-176h-549zM156 547v950h262v-934q0 -161 85 -247.5t245 -86.5q159 0 245 87t86 247v934h262v-950q0 -263 -160 -417.5t-433 -154.5q-272 0 -432 154t-160 418z" />
    <glyph glyph-name="umacron" unicode="&#x16b;" horiz-adv-x="1193" 
d="M315 1208v176h549v-176h-549zM815 1012h250v-1012h-231l-19 135q-46 -72 -136.5 -117t-191.5 -45q-173 0 -271.5 109.5t-98.5 296.5v633h250v-545q0 -141 54 -205.5t161 -64.5q119 0 176 69.5t57 214.5v531z" />
    <glyph glyph-name="Uring" unicode="&#x16e;" horiz-adv-x="1497" 
d="M750 1579q-116 0 -190.5 73t-74.5 187q0 112 76 187t189 75q110 0 186 -76t76 -186q0 -111 -75 -185.5t-187 -74.5zM750 1714q54 0 86 35t32 94q0 54 -33 88.5t-85 34.5q-54 0 -87.5 -34t-33.5 -89q0 -59 33 -94t88 -35zM156 547v950h262v-934q0 -161 85 -247.5
t245 -86.5q159 0 245 87t86 247v934h262v-950q0 -263 -160 -417.5t-433 -154.5q-272 0 -432 154t-160 418z" />
    <glyph glyph-name="uring" unicode="&#x16f;" horiz-adv-x="1193" 
d="M590 1108q-116 0 -190 73t-74 187q0 112 75.5 187t188.5 75q112 0 187 -75.5t75 -186.5t-75 -185.5t-187 -74.5zM590 1243q54 0 86.5 35t32.5 94q0 54 -33.5 88.5t-85.5 34.5q-54 0 -87.5 -34t-33.5 -89q0 -59 33 -94t88 -35zM815 1012h250v-1012h-231l-19 135
q-46 -72 -136.5 -117t-191.5 -45q-173 0 -271.5 109.5t-98.5 296.5v633h250v-545q0 -141 54 -205.5t161 -64.5q119 0 176 69.5t57 214.5v531z" />
    <glyph glyph-name="Uhungarumlaut" unicode="&#x170;" horiz-adv-x="1497" 
d="M891 1907l-199 -303h-176l166 303h209zM1206 1907l-209 -303h-178l176 303h211zM156 547v950h262v-934q0 -161 85 -247.5t245 -86.5q159 0 245 87t86 247v934h262v-950q0 -263 -160 -417.5t-433 -154.5q-272 0 -432 154t-160 418z" />
    <glyph glyph-name="uhungarumlaut" unicode="&#x171;" horiz-adv-x="1193" 
d="M731 1436l-199 -303h-176l166 303h209zM1047 1436l-209 -303h-179l177 303h211zM815 1012h250v-1012h-231l-19 135q-46 -72 -136.5 -117t-191.5 -45q-173 0 -271.5 109.5t-98.5 296.5v633h250v-545q0 -141 54 -205.5t161 -64.5q119 0 176 69.5t57 214.5v531z" />
    <glyph glyph-name="Uogonek" unicode="&#x172;" horiz-adv-x="1497" 
d="M156 547v950h262v-934q0 -161 85 -247.5t245 -86.5q159 0 245 87t86 247v934h262v-950q0 -213 -107 -357.5t-298 -191.5q-68 -26 -103.5 -68.5t-35.5 -83.5q0 -34 21.5 -54.5t58.5 -20.5q28 0 55 12v-166q-40 -18 -103 -18q-91 0 -146.5 55t-55.5 135q0 54 28.5 103
t83.5 83q-269 3 -426 156.5t-157 415.5z" />
    <glyph glyph-name="uogonek" unicode="&#x173;" horiz-adv-x="1193" 
d="M911 0h-77l-19 135q-46 -72 -136.5 -117t-191.5 -45q-173 0 -271.5 109.5t-98.5 296.5v633h250v-545q0 -141 54 -205.5t161 -64.5q119 0 176 69.5t57 214.5v531h250v-1012h-2q-71 -26 -108 -68.5t-37 -85.5q0 -34 21.5 -54.5t57.5 -20.5q29 0 56 12v-166
q-40 -18 -103 -18q-91 0 -146.5 55t-55.5 135q0 66 41.5 123t121.5 88z" />
    <glyph glyph-name="Wcircumflex" unicode="&#x174;" horiz-adv-x="2119" 
d="M942 1604h-194l184 319h256l184 -319h-194l-117 202zM477 0l-446 1497h272l238 -790q40 -142 67 -297q29 153 74 297l236 790h288l232 -790q37 -124 71 -297q38 184 72 295l242 792h266l-455 -1497h-254l-319 1090l-326 -1090h-258z" />
    <glyph glyph-name="wcircumflex" unicode="&#x175;" horiz-adv-x="1632" 
d="M700 1133h-194l184 319h256l184 -319h-194l-117 202zM352 0l-327 1012h260l133 -434q32 -111 61 -263q21 115 70 263l139 434h254l135 -434q50 -172 66 -261q21 101 67 261l136 434h264l-350 -1012h-234l-139 438q-57 184 -72 281q-17 -80 -80 -285l-139 -434h-244z" />
    <glyph glyph-name="Ycircumflex" unicode="&#x176;" horiz-adv-x="1312" 
d="M543 1604h-197l186 319h256l185 -319h-197l-117 202zM526 590l-506 907h293l295 -545q28 -50 54 -110q2 4 19.5 42.5t33.5 67.5l293 545h284l-504 -907v-590h-262v590z" />
    <glyph glyph-name="ycircumflex" unicode="&#x177;" horiz-adv-x="1083" 
d="M434 1133h-194l184 319h256l184 -319h-194l-117 202zM41 -469v209h149q80 0 126.5 28.5t76.5 112.5l29 76l-408 1055h265l260 -738l274 738h258l-496 -1237q-57 -140 -140 -203.5t-208 -63.5q-96 0 -186 23z" />
    <glyph glyph-name="Ydieresis" unicode="&#x178;" horiz-adv-x="1312" 
d="M477 1628q-57 0 -96 40t-39 97q0 56 40 97t95 41t96 -41t41 -97q0 -57 -40.5 -97t-96.5 -40zM842 1628q-57 0 -96 40t-39 97q0 56 40 97t95 41t96 -41t41 -97q0 -57 -40.5 -97t-96.5 -40zM526 590l-506 907h293l295 -545q28 -50 54 -110q2 4 19.5 42.5t33.5 67.5l293 545
h284l-504 -907v-590h-262v590z" />
    <glyph glyph-name="Zacute" unicode="&#x179;" horiz-adv-x="1204" 
d="M879 1907l-201 -303h-184l153 303h232zM1141 0h-1078v244l740 1011h-723v242h1048v-233l-745 -1022h758v-242z" />
    <glyph glyph-name="zacute" unicode="&#x17a;" horiz-adv-x="968" 
d="M778 1436l-200 -303h-185l154 303h231zM893 0h-817v205l504 598h-504v209h817v-207l-512 -596h512v-209z" />
    <glyph glyph-name="Zdotaccent" unicode="&#x17b;" horiz-adv-x="1204" 
d="M584 1628q-60 0 -101 42t-41 102q0 59 42 101t100 42t100.5 -43t42.5 -100q0 -59 -42.5 -101.5t-100.5 -42.5zM1141 0h-1078v244l740 1011h-723v242h1048v-233l-745 -1022h758v-242z" />
    <glyph glyph-name="zdotaccent" unicode="&#x17c;" horiz-adv-x="968" 
d="M483 1157q-59 0 -100 41.5t-41 101.5q0 59 41.5 101.5t99.5 42.5t101 -43.5t43 -100.5q0 -58 -42.5 -100.5t-101.5 -42.5zM893 0h-817v205l504 598h-504v209h817v-207l-512 -596h512v-209z" />
    <glyph glyph-name="Zcaron" unicode="&#x17d;" horiz-adv-x="1204" 
d="M457 1604l-185 319h195l119 -203l116 203h195l-184 -319h-256zM1141 0h-1078v244l740 1011h-723v242h1048v-233l-745 -1022h758v-242z" />
    <glyph glyph-name="zcaron" unicode="&#x17e;" horiz-adv-x="968" 
d="M356 1133l-184 319h195l118 -203l117 203h195l-185 -319h-256zM893 0h-817v205l504 598h-504v209h817v-207l-512 -596h512v-209z" />
    <glyph glyph-name="florin" unicode="&#x192;" horiz-adv-x="1280" 
d="M150 831h374l41 322q22 170 130 266.5t284 96.5h190v-240h-204q-119 0 -136 -137l-38 -308h366v-233h-397l-84 -645q-21 -159 -118 -241.5t-286 -82.5h-174v240h178q56 0 93.5 31t44.5 88l80 610h-344v233z" />
    <glyph glyph-name="Aringacute" unicode="&#x1fa;" horiz-adv-x="1394" 
d="M995 2232l-198 -303h-187l154 303h231zM295 0h-272l512 1419q-99 73 -99 207q0 112 75.5 187t186.5 75q112 0 188.5 -76t76.5 -186q0 -64 -27.5 -118.5t-75.5 -90.5l512 -1417h-276l-121 346h-559zM698 1501q55 0 88 35t33 94q0 54 -33.5 88.5t-87.5 34.5
q-53 0 -85.5 -34t-32.5 -89q0 -59 32 -94t86 -35zM664 1051l-170 -484h405l-172 484q-28 91 -31 114q-11 -51 -32 -114z" />
    <glyph glyph-name="aringacute" unicode="&#x1fb;" horiz-adv-x="1122" 
d="M846 1733l-187 -271h-172l144 271h215zM430 -27q-160 0 -253 86t-93 230q0 140 97.5 224t277.5 97l303 23v22q0 193 -209 193q-110 0 -169.5 -44t-59.5 -124h-213q0 117 64 202.5t181 127.5q-49 68 -49 157q0 110 76 186.5t186 76.5q112 0 188.5 -76t76.5 -187
q0 -91 -56 -163q109 -45 168.5 -144.5t59.5 -245.5v-614h-220l-18 150q-32 -78 -126 -127.5t-212 -49.5zM569 1042q55 0 88 35t33 92q0 54 -33.5 89.5t-87.5 35.5q-52 0 -85 -34.5t-33 -90.5q0 -57 32 -92t86 -35zM512 162q116 0 184 66t68 182v53l-211 -17
q-114 -10 -164.5 -46.5t-50.5 -100.5q0 -137 174 -137z" />
    <glyph glyph-name="AEacute" unicode="&#x1fc;" horiz-adv-x="1925" 
d="M1452 1907l-199 -303h-186l154 303h231zM12 0l602 1497h1194v-242h-667v-385h598v-231h-598v-397h667v-242h-927v373h-430l-144 -373h-295zM535 594h346v661h-90z" />
    <glyph glyph-name="aeacute" unicode="&#x1fd;" horiz-adv-x="1820" 
d="M1182 1436l-201 -303h-184l153 303h232zM84 291q0 146 100.5 225t272.5 82l305 8v49q0 95 -56 144t-159 49q-106 0 -164.5 -44.5t-58.5 -123.5h-213q0 162 121.5 262t318.5 100q246 0 346 -149q133 149 356 149q229 0 362.5 -142.5t133.5 -375.5v-75l-764 -3
q16 -127 86 -197.5t195 -70.5q104 0 169.5 40t84.5 110h231q-33 -164 -162 -259.5t-327 -95.5q-135 0 -242 56.5t-172 158.5q-54 -103 -159 -159t-243 -56q-172 0 -267 85.5t-95 232.5zM1255 838q-114 0 -181 -62.5t-87 -171.5h514q0 104 -65.5 169t-180.5 65zM338 303
q0 -68 46.5 -104.5t129.5 -36.5q116 0 183 62.5t67 166.5v58l-232 -9q-103 -3 -148.5 -34.5t-45.5 -102.5z" />
    <glyph glyph-name="Oslashacute" unicode="&#x1fe;" horiz-adv-x="1609" 
d="M1083 1886l-200 -303h-185l154 303h231zM1532 750q0 -225 -92 -401.5t-258.5 -275t-378.5 -98.5q-217 0 -379 101l-55 -74h-250l151 201q-92 102 -141 242.5t-49 304.5q0 225 91.5 401.5t257 274.5t376.5 98q219 0 387 -105l61 80h240l-154 -203q193 -215 193 -546z
M354 750q0 -197 84 -328l598 790q-102 60 -231 60q-206 0 -328.5 -141.5t-122.5 -380.5zM1255 750q0 194 -81 325l-594 -792q101 -56 225 -56q205 0 327.5 143t122.5 380z" />
    <glyph glyph-name="oslashacute" unicode="&#x1ff;" horiz-adv-x="1220" 
d="M905 1436l-200 -303h-185l154 303h231zM70 508q0 235 152 383.5t388 148.5q114 0 207 -34l60 96h217l-117 -191q174 -150 174 -403q0 -235 -152.5 -384t-388.5 -149q-101 0 -192 31l-66 -108h-225l125 200q-87 71 -134.5 176.5t-47.5 233.5zM319 508q0 -120 62 -201
l311 500q-42 10 -82 10q-129 0 -210 -85.5t-81 -223.5zM901 508q0 112 -55 192l-303 -495q30 -6 67 -6q129 0 210 85.5t81 223.5z" />
    <glyph glyph-name="Scommaaccent" unicode="&#x218;" horiz-adv-x="1212" 
d="M80 1079q0 197 148 321t384 124q227 0 362.5 -118t141.5 -321h-262q-4 96 -69.5 150.5t-176.5 54.5q-122 0 -194 -54.5t-72 -148.5q0 -79 44 -125.5t138 -68.5l236 -51q193 -41 287 -142t94 -268q0 -209 -149.5 -334t-397.5 -125q-240 0 -385.5 119t-149.5 320h263
q1 -95 73.5 -149t198.5 -54q131 0 208 54t77 147q0 76 -41.5 121t-132.5 65l-238 53q-191 41 -289 150t-98 280zM727 -231q0 -111 -67 -177t-179 -53v82q134 -12 140 80q-18 -12 -48 -12q-49 0 -80.5 33t-31.5 83q0 55 36 89t93 34q63 0 100 -43t37 -116z" />
    <glyph glyph-name="scommaaccent" unicode="&#x219;" horiz-adv-x="948" 
d="M51 307h238q2 -67 49.5 -105t132.5 -38q87 0 133.5 32.5t46.5 88.5q0 41 -26 67.5t-90 40.5l-183 43q-138 31 -204 100t-66 189q0 147 111.5 232t289.5 85q171 0 276.5 -90t106.5 -237h-237q-2 65 -43.5 103t-112.5 38q-73 0 -114.5 -32t-41.5 -89q0 -83 132 -114
l182 -43q131 -30 193.5 -94.5t62.5 -178.5q0 -152 -117 -242t-307 -90q-188 0 -300 92t-112 242zM596 -231q0 -111 -67 -177t-181 -53v82q132 -12 141 78q-23 -10 -47 -10q-49 0 -80.5 33t-31.5 83q0 55 36 89t93 34q63 0 100 -43t37 -116z" />
    <glyph glyph-name="Tcommaaccent" unicode="&#x21a;" horiz-adv-x="1208" 
d="M35 1255v242h1139v-242h-439v-1255h-262v1255h-438zM733 -231q0 -111 -67 -177t-179 -53v82q136 -12 142 80q-21 -12 -49 -12q-49 0 -81 33t-32 83q0 55 36 89t95 34q62 0 98.5 -43t36.5 -116z" />
    <glyph glyph-name="tcommaaccent" unicode="&#x21b;" horiz-adv-x="696" 
d="M473 0h-250v803h-194v209h194v315h250v-315h197v-209h-197v-803zM487 -231q0 -111 -66.5 -177t-180.5 -53v82q135 -12 141 80q-21 -12 -47 -12q-49 0 -81 33t-32 83q0 55 36 89t93 34q62 0 99.5 -43t37.5 -116z" />
    <glyph glyph-name="dotlessj" unicode="&#x237;" horiz-adv-x="507" 
d="M-113 -475l41 221q42 -12 86 -12q63 0 89 36t26 115v1127h250v-1155q0 -164 -90 -259.5t-252 -95.5q-66 0 -150 23z" />
    <glyph glyph-name="circumflex" unicode="&#x2c6;" horiz-adv-x="790" 
d="M279 1575h-197l184 319h256l187 -319h-197l-117 203z" />
    <glyph glyph-name="caron" unicode="&#x2c7;" horiz-adv-x="790" 
d="M266 1575l-184 319h197l116 -202l117 202h197l-187 -319h-256z" />
    <glyph glyph-name="breve" unicode="&#x2d8;" horiz-adv-x="862" 
d="M569 1882h183q0 -149 -86.5 -236t-233.5 -87q-149 0 -235 87t-86 236h182q0 -74 36 -113.5t103 -39.5q66 0 101.5 40.5t35.5 112.5z" />
    <glyph glyph-name="dotaccent" unicode="&#x2d9;" horiz-adv-x="462" 
d="M231 1599q-60 0 -101.5 42t-41.5 102q0 59 42 101t101 42q58 0 101 -43t43 -100q0 -59 -42.5 -101.5t-101.5 -42.5z" />
    <glyph glyph-name="ring" unicode="&#x2da;" horiz-adv-x="681" 
d="M340 1550q-114 0 -188 73t-74 187q0 112 75.5 187.5t186.5 75.5q112 0 188 -76t76 -187t-75 -185.5t-189 -74.5zM340 1686q55 0 88 35t33 94q0 54 -33.5 88t-87.5 34q-53 0 -86 -33.5t-33 -88.5q0 -59 32.5 -94t86.5 -35z" />
    <glyph glyph-name="ogonek" unicode="&#x2db;" horiz-adv-x="479" 
d="M252 0h154q-72 -26 -109 -68.5t-37 -85.5q0 -34 21.5 -54.5t58.5 -20.5q25 0 55 12v-166q-40 -18 -102 -18q-91 0 -147 55t-56 135q0 66 41 123t121 88z" />
    <glyph glyph-name="tilde" unicode="&#x2dc;" horiz-adv-x="880" 
d="M240 1591h-148q-13 131 39.5 210t149.5 79q46 0 90 -19t73.5 -41.5t64 -41.5t62.5 -19q72 0 72 121h148q12 -142 -41 -215.5t-154 -73.5q-48 0 -94 19t-75 41.5t-61.5 41.5t-56.5 19q-69 0 -69 -121z" />
    <glyph glyph-name="hungarumlaut" unicode="&#x2dd;" horiz-adv-x="899" 
d="M459 1878l-199 -303h-176l166 303h209zM774 1878l-209 -303h-178l176 303h211z" />
    <glyph glyph-name="gravecomb" unicode="&#x300;" horiz-adv-x="565" 
d="M481 1575h-186l-199 305h232z" />
    <glyph glyph-name="acutecomb" unicode="&#x301;" horiz-adv-x="567" 
d="M471 1878l-201 -303h-184l154 303h231z" />
    <glyph glyph-name="circumflexcomb" unicode="&#x302;" horiz-adv-x="790" 
d="M279 1575h-197l184 319h256l187 -319h-197l-117 203z" />
    <glyph glyph-name="tildecomb" unicode="&#x303;" horiz-adv-x="880" 
d="M240 1591h-148q-13 131 39.5 210t149.5 79q46 0 90 -19t73.5 -41.5t64 -41.5t62.5 -19q72 0 72 121h148q12 -142 -41 -215.5t-154 -73.5q-48 0 -94 19t-75 41.5t-61.5 41.5t-56.5 19q-69 0 -69 -121z" />
    <glyph glyph-name="macroncomb" unicode="&#x304;" horiz-adv-x="794" 
d="M123 1651v174h549v-174h-549z" />
    <glyph glyph-name="brevecomb" unicode="&#x306;" horiz-adv-x="862" 
d="M569 1882h183q0 -149 -86.5 -236t-233.5 -87q-149 0 -235 87t-86 236h182q0 -74 36 -113.5t103 -39.5q66 0 101.5 40.5t35.5 112.5z" />
    <glyph glyph-name="dotaccentcomb" unicode="&#x307;" horiz-adv-x="462" 
d="M231 1599q-60 0 -101.5 42t-41.5 102q0 59 42 101t101 42q58 0 101 -43t43 -100q0 -59 -42.5 -101.5t-101.5 -42.5z" />
    <glyph glyph-name="dieresiscomb" unicode="&#x308;" horiz-adv-x="864" 
d="M250 1599q-57 0 -96 40.5t-39 97.5q0 56 40 96.5t95 40.5q56 0 96.5 -41t40.5 -96q0 -57 -40.5 -97.5t-96.5 -40.5zM614 1599q-57 0 -96 40.5t-39 97.5q0 56 40 96.5t95 40.5q56 0 97 -41t41 -96q0 -57 -41 -97.5t-97 -40.5z" />
    <glyph glyph-name="ringcomb" unicode="&#x30a;" horiz-adv-x="681" 
d="M340 1550q-114 0 -188 73t-74 187q0 112 75.5 187.5t186.5 75.5q112 0 188 -76t76 -187t-75 -185.5t-189 -74.5zM340 1686q55 0 88 35t33 94q0 54 -33.5 88t-87.5 34q-53 0 -86 -33.5t-33 -88.5q0 -59 32.5 -94t86.5 -35z" />
    <glyph glyph-name="hungarumlautcomb" unicode="&#x30b;" horiz-adv-x="899" 
d="M459 1878l-199 -303h-176l166 303h209zM774 1878l-209 -303h-178l176 303h211z" />
    <glyph glyph-name="caroncomb" unicode="&#x30c;" horiz-adv-x="790" 
d="M266 1575l-184 319h197l116 -202l117 202h197l-187 -319h-256z" />
    <glyph glyph-name="commaturnedabovecomb" unicode="&#x312;" horiz-adv-x="434" 
d="M350 1720q0 -55 -36 -90t-93 -35q-62 0 -99.5 43.5t-37.5 116.5q0 112 67 178t181 54v-84q-133 12 -139 -78q15 10 45 10q50 0 81 -33.5t31 -81.5z" />
    <glyph glyph-name="commaaccentcomb" unicode="&#x326;" horiz-adv-x="434" 
d="M348 -213q0 -111 -67 -176.5t-181 -52.5v84q134 -15 140 77q-15 -10 -45 -10q-49 0 -81 32.5t-32 82.5q0 55 36 90t93 35q62 0 99.5 -44.5t37.5 -117.5z" />
    <glyph glyph-name="cedillacomb" unicode="&#x327;" horiz-adv-x="530" 
d="M68 -401v114q76 -37 137 -37q51 0 78.5 21t27.5 57q0 33 -23 51.5t-63 18.5q-48 0 -100 -19l-27 70l99 203l75 -2v-64l-55 -106q33 10 68 10q67 0 115.5 -40.5t48.5 -119.5q0 -92 -65 -142t-165 -50q-89 0 -151 35z" />
    <glyph glyph-name="strokeshortcomb" unicode="&#x335;" horiz-adv-x="1191" 
d="M57 1319h701v-152h-701v152z" />
    <glyph glyph-name="slashshortcomb" unicode="&#x337;" horiz-adv-x="546" 
d="M41 618v181l473 225v-180z" />
    <glyph glyph-name="slashlongcomb" unicode="&#x338;" horiz-adv-x="1130" 
d="M1049 1116l-742 -1204h-225l749 1204h218z" />
    <glyph glyph-name="Omega" unicode="&#x3a9;" horiz-adv-x="1345" 
d="M600 0h-471v188h180q-159 153 -159 371q0 133 65 242.5t186 175t275 65.5q117 0 216 -39t165.5 -105t103.5 -153t37 -184q0 -219 -164 -373h183v-188h-469v188q112 46 172.5 140t60.5 207q0 133 -87.5 214.5t-219.5 81.5t-219.5 -81.5t-87.5 -214.5q0 -119 63 -213
t170 -134v-188z" />
    <glyph glyph-name="pi" unicode="&#x3c0;" horiz-adv-x="1316" 
d="M217 0v807h-186v205h1220v-205h-200v-494q0 -51 25.5 -73.5t76.5 -22.5l98 -2v-205q-91 -16 -192 -16q-134 0 -196 65t-62 207v541h-334v-807h-250z" />
    <glyph glyph-name="Wgrave" unicode="&#x1e80;" horiz-adv-x="2119" 
d="M1151 1604h-186l-199 305h231zM477 0l-446 1497h272l238 -790q40 -142 67 -297q29 153 74 297l236 790h288l232 -790q37 -124 71 -297q38 184 72 295l242 792h266l-455 -1497h-254l-319 1090l-326 -1090h-258z" />
    <glyph glyph-name="wgrave" unicode="&#x1e81;" horiz-adv-x="1632" 
d="M909 1133h-186l-199 305h232zM352 0l-327 1012h260l133 -434q32 -111 61 -263q21 115 70 263l139 434h254l135 -434q50 -172 66 -261q21 101 67 261l136 434h264l-350 -1012h-234l-139 438q-57 184 -72 281q-17 -80 -80 -285l-139 -434h-244z" />
    <glyph glyph-name="Wacute" unicode="&#x1e82;" horiz-adv-x="2119" 
d="M1354 1907l-201 -303h-184l153 303h232zM477 0l-446 1497h272l238 -790q40 -142 67 -297q29 153 74 297l236 790h288l232 -790q37 -124 71 -297q38 184 72 295l242 792h266l-455 -1497h-254l-319 1090l-326 -1090h-258z" />
    <glyph glyph-name="wacute" unicode="&#x1e83;" horiz-adv-x="1632" 
d="M1112 1436l-201 -303h-184l154 303h231zM352 0l-327 1012h260l133 -434q32 -111 61 -263q21 115 70 263l139 434h254l135 -434q50 -172 66 -261q21 101 67 261l136 434h264l-350 -1012h-234l-139 438q-57 184 -72 281q-17 -80 -80 -285l-139 -434h-244z" />
    <glyph glyph-name="Wdieresis" unicode="&#x1e84;" horiz-adv-x="2119" 
d="M879 1628q-57 0 -97.5 40t-40.5 97q0 56 40.5 97t97.5 41q55 0 95 -41t40 -97q0 -57 -39.5 -97t-95.5 -40zM1243 1628q-57 0 -97 40t-40 97q0 56 40 97t97 41q55 0 95 -41t40 -97q0 -57 -39.5 -97t-95.5 -40zM477 0l-446 1497h272l238 -790q40 -142 67 -297
q29 153 74 297l236 790h288l232 -790q37 -124 71 -297q38 184 72 295l242 792h266l-455 -1497h-254l-319 1090l-326 -1090h-258z" />
    <glyph glyph-name="wdieresis" unicode="&#x1e85;" horiz-adv-x="1632" 
d="M637 1157q-57 0 -97 40t-40 97q0 56 40 97t97 41q55 0 95 -41t40 -97q0 -57 -39.5 -97t-95.5 -40zM1001 1157q-57 0 -97 40t-40 97q0 56 40 97t97 41q55 0 95.5 -41t40.5 -97q0 -57 -40 -97t-96 -40zM352 0l-327 1012h260l133 -434q32 -111 61 -263q21 115 70 263
l139 434h254l135 -434q50 -172 66 -261q21 101 67 261l136 434h264l-350 -1012h-234l-139 438q-57 184 -72 281q-17 -80 -80 -285l-139 -434h-244z" />
    <glyph glyph-name="Ygrave" unicode="&#x1ef2;" horiz-adv-x="1312" 
d="M750 1604h-185l-198 305h231zM526 590l-506 907h293l295 -545q28 -50 54 -110q2 4 19.5 42.5t33.5 67.5l293 545h284l-504 -907v-590h-262v590z" />
    <glyph glyph-name="ygrave" unicode="&#x1ef3;" horiz-adv-x="1083" 
d="M643 1133h-186l-199 305h231zM41 -469v209h149q80 0 126.5 28.5t76.5 112.5l29 76l-408 1055h265l260 -738l274 738h258l-496 -1237q-57 -140 -140 -203.5t-208 -63.5q-96 0 -186 23z" />
    <glyph glyph-name="endash" unicode="&#x2013;" horiz-adv-x="2000" 
d="M141 434v221h1721v-221h-1721z" />
    <glyph glyph-name="emdash" unicode="&#x2014;" horiz-adv-x="2480" 
d="M141 434v221h2200v-221h-2200z" />
    <glyph glyph-name="quoteleft" unicode="&#x2018;" horiz-adv-x="575" 
d="M446 1153q0 -68 -42 -111t-109 -43q-73 0 -119.5 55t-46.5 146q0 129 78 220t201 106v-99q-67 -12 -108.5 -51t-41.5 -92q27 10 57 10q57 0 94 -38t37 -103z" />
    <glyph glyph-name="quoteright" unicode="&#x2019;" horiz-adv-x="575" 
d="M446 1325q0 -129 -77.5 -220t-200.5 -106v99q67 12 109 51t42 92q-27 -10 -57 -10q-58 0 -95.5 37.5t-37.5 103.5q0 68 42.5 111t109.5 43q73 0 119 -55t46 -146z" />
    <glyph glyph-name="quotesinglbase" unicode="&#x201a;" horiz-adv-x="575" 
d="M446 76q0 -129 -77.5 -220t-200.5 -106v100q67 12 109 51t42 93q-24 -12 -57 -12q-57 0 -95 38.5t-38 102.5q0 68 42.5 110.5t109.5 42.5q73 0 119 -54.5t46 -145.5z" />
    <glyph glyph-name="quotedblleft" unicode="&#x201c;" horiz-adv-x="980" 
d="M446 1153q0 -68 -42 -111t-109 -43q-73 0 -119.5 55t-46.5 146q0 129 78 220t201 106v-99q-67 -12 -108.5 -51t-41.5 -92q27 10 57 10q57 0 94 -38t37 -103zM852 1153q0 -68 -42.5 -111t-109.5 -43q-73 0 -119 55t-46 146q0 129 77.5 220t200.5 106v-99q-67 -12 -109 -51
t-42 -94q24 12 57 12q57 0 95 -38.5t38 -102.5z" />
    <glyph glyph-name="quotedblright" unicode="&#x201d;" horiz-adv-x="980" 
d="M446 1325q0 -129 -77.5 -220t-200.5 -106v99q67 12 109 51t42 92q-27 -10 -57 -10q-58 0 -95.5 37.5t-37.5 103.5q0 68 42.5 111t109.5 43q73 0 119 -55t46 -146zM852 1325q0 -129 -78 -220t-201 -106v99q67 12 108.5 51t41.5 92q-27 -10 -57 -10q-57 0 -94 37.5
t-37 103.5q0 68 42 111t109 43q73 0 119.5 -55t46.5 -146z" />
    <glyph glyph-name="quotedblbase" unicode="&#x201e;" horiz-adv-x="980" 
d="M446 76q0 -129 -77.5 -220t-200.5 -106v100q67 12 109 51t42 93q-24 -12 -57 -12q-57 0 -95 38.5t-38 102.5q0 68 42.5 110.5t109.5 42.5q73 0 119 -54.5t46 -145.5zM852 76q0 -129 -78 -220t-201 -106v100q67 12 108.5 50.5t41.5 93.5q-24 -12 -57 -12q-57 0 -94 38
t-37 103q0 68 42 110.5t109 42.5q73 0 119.5 -54.5t46.5 -145.5z" />
    <glyph glyph-name="dagger" unicode="&#x2020;" horiz-adv-x="684" 
d="M264 584v561h-219v147h219v205h154v-205h221v-147h-221v-561h-154z" />
    <glyph glyph-name="daggerdbl" unicode="&#x2021;" horiz-adv-x="688" 
d="M264 584v223h-215v147h215v172h-219v148h219v223h154v-223h221v-148h-221v-172h225v-147h-225v-223h-154z" />
    <glyph glyph-name="bullet" unicode="&#x2022;" horiz-adv-x="888" 
d="M446 231q-132 0 -228.5 95t-96.5 225q0 132 96.5 227.5t228.5 95.5t227 -96t95 -227q0 -130 -96 -225t-226 -95z" />
    <glyph glyph-name="ellipsis" unicode="&#x2026;" horiz-adv-x="1615" 
d="M297 -25q-68 0 -117 48t-49 114q0 67 49 115.5t117 48.5t117 -48.5t49 -115.5q0 -66 -49 -114t-117 -48zM807 -25q-68 0 -117 48t-49 114q0 67 49 115.5t117 48.5t117 -48.5t49 -115.5q0 -66 -49 -114t-117 -48zM1317 -25q-68 0 -117 48t-49 114q0 67 49 115.5t117 48.5
t117 -48.5t49 -115.5q0 -66 -49 -114t-117 -48z" />
    <glyph glyph-name="perthousand" unicode="&#x2030;" horiz-adv-x="2822" 
d="M852 1133q0 -173 -110 -283.5t-281 -110.5t-281 110.5t-110 283.5q0 172 110.5 282.5t280.5 110.5t280.5 -110.5t110.5 -282.5zM1673 1495l-1136 -1495h-250l1136 1495h250zM653 1133q0 89 -53 144.5t-139 55.5t-138.5 -55t-52.5 -145q0 -89 53 -145t138 -56q86 0 139 56
t53 145zM1892 367q0 -172 -109.5 -283t-279.5 -111q-171 0 -281 111t-110 283t109.5 282.5t281.5 110.5q170 0 279.5 -110.5t109.5 -282.5zM2750 367q0 -172 -109.5 -283t-279.5 -111q-171 0 -281 111t-110 283t109.5 282.5t281.5 110.5q170 0 279.5 -110.5t109.5 -282.5z
M1694 367q0 89 -53 144.5t-138 55.5q-86 0 -139 -55.5t-53 -144.5t53 -145t139 -56q85 0 138 56t53 145zM2552 367q0 89 -53 144.5t-138 55.5q-86 0 -139 -55.5t-53 -144.5t53 -145t139 -56q85 0 138 56t53 145z" />
    <glyph glyph-name="minute" unicode="&#x2032;" horiz-adv-x="387" 
d="M295 1397l-43 -389h-119l-45 389q-7 62 25.5 95.5t79.5 33.5q46 0 77.5 -33.5t24.5 -95.5z" />
    <glyph glyph-name="guilsinglleft" unicode="&#x2039;" horiz-adv-x="925" 
d="M524 0l-442 506l442 506h320l-445 -506l445 -506h-320z" />
    <glyph glyph-name="guilsinglright" unicode="&#x203a;" horiz-adv-x="925" 
d="M399 0h-317l442 506l-442 506h317l445 -506z" />
    <glyph glyph-name="asterism" unicode="&#x2042;" horiz-adv-x="1914" 
d="M713 1161l-138 49l50 125l133 -43q80 -32 149 -75q-18 88 -18 167v146h135v-146q0 -86 -18 -167q69 47 151 75l133 45l49 -127l-139 -49q-63 -24 -166 -37q46 -38 113 -123l82 -122l-111 -76l-84 117q-52 74 -80 147q-21 -69 -75 -147l-88 -117l-111 76l84 122
q58 75 115 123q-103 13 -166 37zM186 362l-137 50l49 127l131 -45q80 -31 152 -76q-19 93 -19 168v145h136v-145q0 -79 -19 -168q57 39 152 76l133 45l49 -127l-141 -50q-70 -26 -164 -34q53 -48 113 -125l79 -123l-110 -74l-82 115q-46 63 -82 149q-18 -69 -76 -149
l-86 -117l-110 76l84 123q48 64 112 125q-96 9 -164 34zM1241 362l-139 50l51 127l131 -45q87 -35 150 -76q-19 116 -19 168v145h135v-145q0 -93 -16 -168q60 42 149 76l136 45l47 -127l-140 -50q-72 -26 -163 -34q49 -44 112 -125l80 -123l-110 -74l-82 115q-54 74 -82 149
q-22 -70 -76 -149l-88 -117l-109 76l84 123q52 70 113 125q-97 9 -164 34z" />
    <glyph glyph-name="fraction" unicode="&#x2044;" horiz-adv-x="333" 
d="M752 1454l-969 -1454h-201l969 1454h201z" />
    <glyph glyph-name="zero.superior" unicode="&#x2070;" horiz-adv-x="872" 
d="M51 1118q0 211 106.5 341t280.5 130q180 0 282.5 -128.5t102.5 -342.5q0 -211 -105 -338t-282 -127q-180 0 -282.5 126t-102.5 339zM221 1118q0 -151 57 -232t160 -81t159 80.5t56 232.5q0 154 -56 236t-159 82q-104 0 -160.5 -82t-56.5 -236z" />
    <glyph glyph-name="four.superior" unicode="&#x2074;" horiz-adv-x="776" 
d="M766 842h-109v-166h-163v166h-455v153l405 584h213v-586h109v-151zM229 993h265v387z" />
    <glyph glyph-name="five.superior" unicode="&#x2075;" horiz-adv-x="741" 
d="M37 971h168q0 -71 45.5 -114.5t118.5 -43.5q76 0 121 46t45 124q0 79 -45.5 126.5t-120.5 47.5q-100 0 -152 -78l-158 23l115 477h477v-154h-346l-43 -161q51 32 137 32q134 0 221 -88t87 -223q0 -144 -93 -233.5t-241 -89.5q-146 0 -241 87t-95 222z" />
    <glyph glyph-name="six.superior" unicode="&#x2076;" horiz-adv-x="790" 
d="M186 1327l197 266h192l-223 -299q37 13 70 13q143 0 231 -86.5t88 -225.5q0 -147 -97.5 -241.5t-246.5 -94.5t-248.5 97t-99.5 239q0 84 30 155t107 177zM223 989q0 -77 49 -126.5t125 -49.5q75 0 123.5 49.5t48.5 126.5q0 76 -49 127t-123 51q-76 0 -125 -51t-49 -127z
" />
    <glyph glyph-name="seven.superior" unicode="&#x2077;" horiz-adv-x="696" 
d="M659 1425l-303 -749h-168l310 749h-463v154h624v-154z" />
    <glyph glyph-name="eight.superior" unicode="&#x2078;" horiz-adv-x="786" 
d="M49 924q0 82 45 145t121 88q-57 25 -89 75.5t-32 117.5q0 110 82 177.5t219 67.5q136 0 218.5 -67t82.5 -180q0 -68 -34.5 -118.5t-92.5 -72.5q77 -23 122.5 -86t45.5 -147q0 -121 -93.5 -191.5t-250.5 -70.5q-159 0 -251.5 70.5t-92.5 191.5zM238 1335q0 -52 40 -83
t115 -31q72 0 112 30t40 82q0 53 -40.5 85t-111.5 32q-72 0 -113.5 -31.5t-41.5 -83.5zM219 946q0 -63 47 -98t127 -35q81 0 127.5 34.5t46.5 98.5q0 62 -48 96.5t-126 34.5q-79 0 -126.5 -34t-47.5 -97z" />
    <glyph glyph-name="nine.superior" unicode="&#x2079;" horiz-adv-x="790" 
d="M604 942l-196 -266h-193l225 301q-38 -12 -71 -12q-142 0 -231 85t-89 224q0 148 97.5 242t246.5 94t248.5 -97t99.5 -239q0 -83 -30 -155t-107 -177zM567 1280q0 77 -48.5 127.5t-125.5 50.5q-75 0 -123.5 -50.5t-48.5 -127.5q0 -75 48.5 -125.5t123.5 -50.5
q77 0 125.5 50t48.5 126z" />
    <glyph glyph-name="zero.inferior" unicode="&#x2080;" horiz-adv-x="874" 
d="M51 244q0 211 106.5 341t280.5 130q180 0 282.5 -128.5t102.5 -342.5q0 -211 -105 -338t-282 -127q-180 0 -282.5 126t-102.5 339zM221 244q0 -151 57 -232.5t160 -81.5t159 81t56 233q0 154 -56 235.5t-159 81.5q-104 0 -160.5 -81.5t-56.5 -235.5z" />
    <glyph glyph-name="one.inferior" unicode="&#x2081;" horiz-adv-x="520" 
d="M260 543h-219v155h389v-903h-170v748z" />
    <glyph glyph-name="two.inferior" unicode="&#x2082;" horiz-adv-x="735" 
d="M686 -205h-627v129l330 275q63 52 91 99.5t28 104.5q0 77 -36 117.5t-105 40.5q-71 0 -110.5 -46t-39.5 -130h-168q5 152 90.5 241t227.5 89q145 0 228 -80.5t83 -220.5q0 -169 -172 -312l-184 -153h364v-154z" />
    <glyph glyph-name="three.inferior" unicode="&#x2083;" horiz-adv-x="729" 
d="M291 233h-68v111l232 201h-373v153h577v-143l-223 -195q108 -18 177 -90t69 -190q0 -136 -93.5 -218.5t-232.5 -82.5q-138 0 -226.5 82t-88.5 225h166q0 -73 41.5 -113.5t111.5 -40.5q68 0 110 41.5t42 108.5q0 65 -38.5 105t-117.5 44q-20 2 -65 2z" />
    <glyph glyph-name="four.inferior" unicode="&#x2084;" horiz-adv-x="790" 
d="M766 -39h-109v-166h-163v166h-455v154l405 583h213v-585h109v-152zM229 113h265v387z" />
    <glyph glyph-name="five.inferior" unicode="&#x2085;" horiz-adv-x="741" 
d="M37 90h168q0 -71 45.5 -114.5t118.5 -43.5q76 0 121 46t45 124q0 79 -45.5 126.5t-120.5 47.5q-101 0 -152 -77l-158 22l115 477h477v-153h-346l-43 -162q53 33 137 33q133 0 220.5 -88.5t87.5 -223.5q0 -144 -93 -233.5t-241 -89.5q-146 0 -241 87t-95 222z" />
    <glyph glyph-name="six.inferior" unicode="&#x2086;" horiz-adv-x="790" 
d="M186 446l197 267h192l-223 -299q34 12 70 12q143 0 231 -86t88 -225q0 -147 -97.5 -241.5t-246.5 -94.5t-248.5 97t-99.5 239q0 84 29.5 154.5t107.5 176.5zM223 109q0 -77 49 -127t125 -50q75 0 123.5 50t48.5 127q0 76 -49 127t-123 51q-76 0 -125 -51t-49 -127z" />
    <glyph glyph-name="seven.inferior" unicode="&#x2087;" horiz-adv-x="696" 
d="M659 545l-303 -750h-168l310 750h-463v153h624v-153z" />
    <glyph glyph-name="eight.inferior" unicode="&#x2088;" horiz-adv-x="786" 
d="M49 43q0 82 45 145t121 88q-57 25 -89 75.5t-32 117.5q0 110 82 178t219 68q136 0 218.5 -67.5t82.5 -180.5q0 -68 -34.5 -118.5t-92.5 -72.5q77 -23 122.5 -86t45.5 -147q0 -121 -93.5 -191.5t-250.5 -70.5q-159 0 -251.5 70.5t-92.5 191.5zM238 455q0 -52 40 -83.5
t115 -31.5q72 0 112 30.5t40 82.5q0 53 -40.5 84.5t-111.5 31.5q-73 0 -114 -31t-41 -83zM219 66q0 -63 47.5 -98.5t126.5 -35.5q81 0 127.5 35t46.5 99q0 62 -48 96.5t-126 34.5q-79 0 -126.5 -34t-47.5 -97z" />
    <glyph glyph-name="nine.inferior" unicode="&#x2089;" horiz-adv-x="790" 
d="M604 61l-196 -266h-193l225 301q-38 -12 -71 -12q-142 0 -231 85t-89 224q0 148 97.5 242t246.5 94t248.5 -97t99.5 -239q0 -83 -30 -155t-107 -177zM567 399q0 77 -48.5 128t-125.5 51q-75 0 -123.5 -51t-48.5 -128q0 -75 48.5 -125.5t123.5 -50.5q77 0 125.5 50
t48.5 126z" />
    <glyph glyph-name="Euro" unicode="&#x20ac;" horiz-adv-x="1265" 
d="M913 -25q-271 0 -462.5 135t-260.5 377h-153v187h123q-2 23 -2 71q0 49 2 72h-123v187h156q69 246 265 383t478 137q122 0 227 -31v-246q-114 31 -215 31q-373 0 -487 -274h514v-187h-557q-2 -23 -2 -67q0 -26 4 -76h555v-187h-512q57 -133 175.5 -200.5t289.5 -67.5
q122 0 250 39v-252q-146 -31 -265 -31z" />
    <glyph glyph-name="numero" unicode="&#x2116;" horiz-adv-x="2629" 
d="M2535 1042q0 -207 -141.5 -344t-353.5 -137q-210 0 -355 140t-145 341q0 206 143.5 345t356.5 139q212 0 353.5 -138.5t141.5 -345.5zM424 0h-258v1497h260l702 -1061v1061h258v-1497h-258l-704 1061v-1061zM2302 1040q0 117 -72.5 190t-189.5 73q-118 0 -192 -73
t-74 -190q0 -109 77 -184.5t189 -75.5q113 0 187.5 74t74.5 186zM2488 238h-901v215h901v-215z" />
    <glyph glyph-name="soundcopyright" unicode="&#x2117;" horiz-adv-x="1036" 
d="M520 655q-187 0 -312.5 125t-125.5 310q0 184 126 309t312 125t310 -124t124 -310t-124 -310.5t-310 -124.5zM520 733q152 0 252 101.5t100 255.5t-100 255t-252 101q-154 0 -254 -101t-100 -255t100.5 -255.5t253.5 -101.5zM451 842h-84v487h192q83 0 134.5 -45.5
t51.5 -120.5q0 -82 -50 -130t-136 -48h-108v-143zM451 1249v-184h108q46 0 71 24t25 70q0 90 -96 90h-108z" />
    <glyph glyph-name="trademark" unicode="&#x2122;" horiz-adv-x="1331" 
d="M246 1401h-193v96h488v-96h-193v-483h-102v483zM707 918h-97v579h97l202 -477l203 477h96v-579h-96v374l-160 -374h-86l-159 368v-368z" />
    <glyph glyph-name="estimated" unicode="&#x212e;" horiz-adv-x="1595" 
d="M123 723q0 160 50.5 296.5t139.5 231.5t214.5 149t271.5 54q148 0 272 -46.5t213 -132t139 -212.5t50 -283q0 -62 -3 -108h-1142v-369q80 -115 207 -177.5t288 -62.5q157 0 290 75t198 198l78 -29q-75 -151 -227 -238t-343 -87q-206 0 -364.5 93t-245 261.5t-86.5 386.5z
M328 1118v-373h940v410q-76 104 -199 160.5t-270 56.5q-150 0 -272 -68t-199 -186z" />
    <glyph glyph-name="oneeighth" unicode="&#x215b;" horiz-adv-x="1546" 
d="M217 1362h-184v135h329v-733h-145v598zM1298 1454l-968 -1454h-201l967 1454h202zM936 203q0 66 36 117t97 71q-45 20 -70.5 62t-25.5 96q0 88 65.5 142t175.5 54q108 0 173 -53t65 -143q0 -56 -26 -97.5t-70 -60.5q60 -19 96.5 -70t36.5 -118q0 -98 -75.5 -156.5
t-201.5 -58.5t-201 58.5t-75 156.5zM1100 530q0 -39 29 -62.5t83 -23.5q52 0 82.5 24.5t30.5 63.5q0 38 -30.5 62t-82.5 24q-53 0 -82.5 -24.5t-29.5 -63.5zM1085 221q0 -48 34.5 -74t92.5 -26t92.5 26t34.5 74t-35 74.5t-92 26.5t-92 -26.5t-35 -74.5z" />
    <glyph glyph-name="threeeighths" unicode="&#x215c;" horiz-adv-x="1609" 
d="M39 1004h149q0 -57 31.5 -88t85.5 -31q51 0 81 29.5t30 80.5q0 55 -35.5 87t-106.5 32h-88v96l170 154h-282v133h473v-123l-170 -153q84 -18 136 -75t52 -149q0 -113 -74.5 -180t-189.5 -67q-112 0 -187 67.5t-75 186.5zM1362 1454l-969 -1454h-203l969 1454h203z
M999 203q0 66 37 117t97 71q-45 20 -71 62.5t-26 95.5q0 88 66 142t176 54q108 0 173 -53t65 -143q0 -56 -27 -98t-72 -60q62 -19 98.5 -70t36.5 -118q0 -98 -75 -156.5t-201 -58.5t-201.5 58.5t-75.5 156.5zM1163 530q0 -39 29.5 -62.5t83.5 -23.5q51 0 80.5 24.5
t29.5 63.5q0 38 -29.5 62t-80.5 24q-53 0 -83 -24.5t-30 -63.5zM1149 221q0 -48 34.5 -74t92.5 -26t92.5 26t34.5 74t-35 74.5t-92 26.5t-92 -26.5t-35 -74.5z" />
    <glyph glyph-name="fiveeighths" unicode="&#x215d;" horiz-adv-x="1644" 
d="M317 752q-114 0 -190 67.5t-76 186.5h150q0 -58 31.5 -89.5t84.5 -31.5q60 0 93.5 36t33.5 97q0 60 -35 96.5t-92 36.5q-38 0 -70.5 -17.5t-47.5 -46.5l-140 21l97 389h403v-133h-299l-35 -123q47 31 113 31q119 0 187.5 -72t68.5 -182q0 -118 -77 -192t-200 -74z
M1397 1454l-969 -1454h-201l969 1454h201zM1036 203q0 66 35.5 117t95.5 71q-45 20 -70.5 62t-25.5 96q0 88 66.5 142t175.5 54q108 0 173.5 -53t65.5 -143q0 -56 -26.5 -97.5t-71.5 -60.5q60 -19 96.5 -70t36.5 -118q0 -98 -75 -156.5t-201 -58.5t-200.5 58.5t-74.5 156.5z
M1198 530q0 -39 29.5 -62.5t83.5 -23.5q53 0 82.5 24.5t29.5 63.5q0 38 -30.5 62t-81.5 24q-53 0 -83 -24.5t-30 -63.5zM1184 221q0 -48 34.5 -74t92.5 -26t92.5 26t34.5 74t-35 74.5t-92 26.5t-92 -26.5t-35 -74.5z" />
    <glyph glyph-name="seveneighths" unicode="&#x215e;" horiz-adv-x="1492" 
d="M401 1362h-374v135h522v-135l-260 -598h-150zM1245 1454l-969 -1454h-202l968 1454h203zM883 203q0 66 35.5 117t95.5 71q-44 21 -70 63t-26 95q0 88 66 142t175 54t174.5 -53t65.5 -143q0 -56 -27 -97.5t-72 -60.5q62 -19 99 -70t37 -118q0 -98 -76 -156.5t-201 -58.5
q-126 0 -201 58.5t-75 156.5zM1047 530q0 -39 29 -62.5t83 -23.5q52 0 81.5 24.5t29.5 63.5q0 38 -30 62t-81 24q-53 0 -82.5 -24.5t-29.5 -63.5zM1032 221q0 -48 34.5 -74t92.5 -26t92.5 26t34.5 74t-35 74.5t-92 26.5t-92 -26.5t-35 -74.5z" />
    <glyph glyph-name="arrowleft" unicode="&#x2190;" horiz-adv-x="1994" 
d="M981 -2l-135 -137l-723 719l723 723l135 -134l-489 -491h1380v-191h-1380z" />
    <glyph glyph-name="arrowup" unicode="&#x2191;" horiz-adv-x="1693" 
d="M258 829l-135 136l723 718l725 -718l-135 -136l-494 488v-1317h-190v1317z" />
    <glyph glyph-name="arrowright" unicode="&#x2192;" horiz-adv-x="1994" 
d="M1014 1208l135 135l723 -720l-723 -721l-135 135l489 491h-1380v189l1380 2z" />
    <glyph glyph-name="arrowdown" unicode="&#x2193;" horiz-adv-x="1685" 
d="M1432 618l131 -135l-721 -721l-719 721l137 135l488 -489v1407h190v-1407z" />
    <glyph glyph-name="arrowboth" unicode="&#x2194;" horiz-adv-x="2310" 
d="M123 561l563 559v-274l-201 -193l473 2v2h410v-2l461 -2l-203 195v272l561 -559l-561 -565v272l201 195h-1346l205 -197v-272z" />
    <glyph glyph-name="arrowupdn" unicode="&#x2195;" horiz-adv-x="1372" 
d="M682 -373l-559 563h272l195 -202l-2 477h-2v405h2l2 461l-195 -201h-272l559 562l567 -562h-274l-195 203v-1347l195 204h274z" />
    <glyph glyph-name="arrowNW" unicode="&#x2196;" horiz-adv-x="1708" 
d="M123 1497l1018 -2v-190l-692 -2l1136 -1170l-135 -133l-1137 1169v-694l-190 2v1020z" />
    <glyph glyph-name="arrowNE" unicode="&#x2197;" horiz-adv-x="1744" 
d="M602 1307v190h1020v-1018h-192v692l-1172 -1171l-135 133l1171 1174h-692z" />
    <glyph glyph-name="arrowSE" unicode="&#x2198;" horiz-adv-x="1740" 
d="M1427 1022h191v-1020h-1020v193h692l-1167 1169l133 133l1169 -1167z" />
    <glyph glyph-name="arrowSW" unicode="&#x2199;" horiz-adv-x="1746" 
d="M1145 190l-2 -190h-1020l2 1018h192v-692l1172 1173l135 -133l-1173 -1176h694z" />
    <glyph glyph-name="partialdiff" unicode="&#x2202;" horiz-adv-x="1320" 
d="M102 522q0 123 42.5 227t114.5 173.5t167.5 108t202.5 38.5q77 0 152.5 -25t129.5 -75q-114 281 -417 536h319q207 -203 306.5 -430t99.5 -463q0 -157 -46.5 -281.5t-126.5 -201t-181.5 -116.5t-217.5 -40q-111 0 -209.5 37.5t-173.5 106.5t-118.5 174t-43.5 231z
M354 520q0 -141 86 -232t219 -91t219.5 91.5t86.5 235.5q0 140 -85.5 231t-217.5 91q-135 0 -221.5 -92.5t-86.5 -233.5z" />
    <glyph glyph-name="emptyset" unicode="&#x2205;" horiz-adv-x="1728" 
d="M858 -25q-145 0 -273.5 53t-226.5 150l-170 -155l-116 127l178 161q-121 196 -121 439q0 164 56 308t152.5 246t231.5 161t289 59q147 0 276.5 -53t227.5 -150l180 164l115 -127l-187 -170q119 -193 119 -438q0 -162 -56.5 -306t-154 -247t-233 -162.5t-287.5 -59.5z
M375 750q0 -153 57 -273l754 684q-129 129 -328 129q-213 0 -348 -150.5t-135 -389.5zM858 209q213 0 349 152t136 389q0 152 -57 272l-754 -686q133 -127 326 -127z" />
    <glyph glyph-name="increment" unicode="&#x2206;" horiz-adv-x="1433" 
d="M1337 0h-1241v221l496 1276h248l497 -1278v-219zM688 1085l-330 -866h719l-336 866q-19 52 -26 78q-13 -56 -27 -78z" />
    <glyph glyph-name="product" unicode="&#x220f;" horiz-adv-x="1443" 
d="M428 0h-262v1497h1112v-1497h-262v1255h-588v-1255z" />
    <glyph glyph-name="summation" unicode="&#x2211;" horiz-adv-x="1173" 
d="M1077 0h-993v264l434 490l-434 481v262h993v-242h-692l444 -501l-448 -512h696v-242z" />
    <glyph glyph-name="minus" unicode="&#x2212;" 
d="M164 795h1024v-209h-1024v209z" />
    <glyph glyph-name="radical" unicode="&#x221a;" horiz-adv-x="1499" 
d="M403 0l-403 1010h260l264 -688l445 1177h477v-227h-307l-494 -1272h-242z" />
    <glyph glyph-name="infinity" unicode="&#x221e;" horiz-adv-x="1841" 
d="M94 588q0 182 117.5 300t298.5 118q128 0 223.5 -58t188.5 -188q92 130 186.5 188t220.5 58q183 0 300.5 -118t117.5 -300q0 -180 -117.5 -297t-300.5 -117q-127 0 -221 57.5t-186 186.5q-94 -130 -188.5 -187t-223.5 -57q-180 0 -298 117t-118 297zM322 588
q0 -88 52.5 -142.5t139.5 -54.5q171 0 258 197q-85 198 -258 198q-88 0 -140 -53.5t-52 -144.5zM1067 588q43 -96 109.5 -146.5t150.5 -50.5q86 0 139.5 54.5t53.5 142.5q0 89 -52.5 143.5t-140.5 54.5q-175 0 -260 -198z" />
    <glyph glyph-name="integral" unicode="&#x222b;" horiz-adv-x="909" 
d="M233 -27h-172v228h154q113 0 113 135v825q0 163 96.5 263t251.5 100h172v-226h-154q-114 0 -114 -135v-825q0 -163 -97 -264t-250 -101z" />
    <glyph glyph-name="approxequal" unicode="&#x2248;" 
d="M995 1001h193q0 -154 -78 -253t-207 -99q-66 0 -133 25t-112.5 55t-98 55t-92.5 25q-108 0 -111 -141h-192q0 149 78.5 246.5t206.5 97.5q63 0 128 -25t110.5 -55t100 -55t97.5 -25q59 0 83.5 37.5t26.5 111.5zM995 594h193q0 -155 -78 -254.5t-207 -99.5
q-54 0 -107.5 16.5t-96 40t-81.5 47.5t-78.5 40.5t-72.5 16.5q-108 0 -111 -143h-192q0 150 78 247t207 97q63 0 128 -25t110.5 -55t100 -55t97.5 -25q59 0 83.5 38.5t26.5 113.5z" />
    <glyph glyph-name="notequal" unicode="&#x2260;" 
d="M244 37l137 254h-217v211h332l125 229h-457v211h571l137 254h238l-137 -254h215v-211h-332l-123 -229h455v-211h-572l-137 -254h-235z" />
    <glyph glyph-name="lessequal" unicode="&#x2264;" 
d="M1188 496v-244l-1024 344v264l1024 346v-243l-778 -234zM164 0v211h1024v-211h-1024z" />
    <glyph glyph-name="greaterequal" unicode="&#x2265;" 
d="M1188 596l-1024 -344v244l778 233l-778 234v243l1024 -346v-264zM164 211h1024v-211h-1024v211z" />
    <glyph glyph-name="filledbox" unicode="&#x25a0;" horiz-adv-x="1699" 
d="M123 0v1454h1454v-1454h-1454z" />
    <glyph glyph-name="squarewhite" unicode="&#x25a1;" horiz-adv-x="1699" 
d="M123 0v1454h1454v-1454h-1454zM1389 1266h-1078v-1078h1078v1078z" />
    <glyph glyph-name="triagup" unicode="&#x25b2;" horiz-adv-x="1978" 
d="M123 0l866 1454l866 -1454h-1732z" />
    <glyph glyph-name="triangleupwhite" unicode="&#x25b3;" horiz-adv-x="1980" 
d="M991 1460l867 -1454h-1735zM424 172h1130l-565 946z" />
    <glyph glyph-name="lozenge" unicode="&#x25ca;" horiz-adv-x="1312" 
d="M1190 727l-414 -727h-239l-414 727l414 727h239zM936 727l-279 510l-280 -510l280 -508z" />
    <glyph glyph-name="circle" unicode="&#x25cb;" horiz-adv-x="1835" 
d="M918 -113q-161 0 -308.5 63t-254 169.5t-169.5 254t-63 308.5t63.5 308.5t170 254t253.5 169.5t308 63t307.5 -63t253.5 -169.5t170 -254t63 -308.5t-63 -308.5t-169.5 -254t-253.5 -169.5t-308 -63zM918 63q168 0 310.5 83.5t225 226t82.5 309.5q0 166 -83 308.5
t-225.5 226t-309.5 83.5q-125 0 -239.5 -49t-197.5 -132t-132.5 -197.5t-49.5 -239.5t49.5 -239.5t132.5 -197.5t197.5 -132.5t239.5 -49.5z" />
    <glyph glyph-name="circleblack" unicode="&#x25cf;" horiz-adv-x="1835" 
d="M918 -113q-161 0 -308.5 63t-254 169.5t-169.5 254t-63 308.5t63.5 308.5t170 254t253.5 169.5t308 63t307.5 -63t253.5 -169.5t170 -254t63 -308.5t-63 -308.5t-169.5 -254t-253.5 -169.5t-308 -63z" />
    <glyph glyph-name="peace" unicode="&#x262e;" horiz-adv-x="1835" 
d="M918 -113q-161 0 -308.5 63t-254 169.5t-169.5 254t-63 308.5t63.5 308.5t170 254t253.5 169.5t308 63t307.5 -63t253.5 -169.5t170 -254t63 -308.5t-63 -308.5t-169.5 -254t-253.5 -169.5t-308 -63zM299 682q0 -130 51 -244l490 334v524q-150 -19 -274 -105.5
t-195.5 -220.5t-71.5 -288zM1536 682q0 115 -42 221t-113.5 186.5t-171 135t-210.5 69.5v-522l488 -334q49 120 49 244zM432 301q74 -94 180 -155t228 -78v510zM999 578v-508q121 15 226 75.5t180 155.5z" />
    <glyph glyph-name="check" unicode="&#x2713;" horiz-adv-x="1445" 
d="M518 14l-442 478l143 153l291 -311l637 766l162 -137z" />
    <glyph glyph-name="ITF" unicode="&#xf8ff;" horiz-adv-x="3561" 
d="M154 0v1434h442v-1434h-442zM688 1016v418h442v-418h-442zM1221 0v1434h444v-1434h-444zM1755 1016v418h443v-418h-443zM2288 0v1434h444v-1434h-444zM2822 1016v418h443v-418h-443zM2822 506v420h443v-420h-443z" />
    <glyph glyph-name="G.ss01" horiz-adv-x="1589" 
d="M80 745q0 226 91 403t259.5 276.5t388.5 99.5q265 0 443.5 -132t228.5 -378h-277q-44 131 -146.5 198.5t-250.5 67.5q-210 0 -335.5 -145t-125.5 -390q0 -250 124 -387t331 -137q177 0 290.5 95t123.5 266h-443v229h717v-168q0 -134 -48 -254.5t-134.5 -213t-218 -146.5
t-289.5 -54q-327 0 -528 210t-201 560z" />
    <glyph glyph-name="idotaccent" horiz-adv-x="507" 
d="M254 1157q-59 0 -100 41.5t-41 101.5q0 58 42 101t99 43q58 0 100.5 -43.5t42.5 -100.5q0 -58 -42.5 -100.5t-100.5 -42.5zM129 0v1012h250v-1012h-250z" />
    <glyph glyph-name="a.ss01" horiz-adv-x="1269" 
d="M913 1012h228v-1012h-234l-16 158q-50 -83 -140 -134t-208 -51q-221 0 -347 151.5t-126 393.5q0 237 130.5 380.5t344.5 143.5q117 0 213 -48.5t141 -137.5zM887 506q0 138 -78 223.5t-207 85.5t-206 -86t-77 -223t76 -222t205 -85q130 0 208.5 85t78.5 222z" />
    <glyph glyph-name="g.ss02" horiz-adv-x="1132" 
d="M100 633q0 180 126 294.5t323 114.5q137 0 250 -55q32 71 99.5 111.5t152.5 40.5q29 0 41 -2v-203q-16 2 -41 2q-94 0 -138 -59q46 -45 73.5 -112t27.5 -140q0 -173 -124.5 -280t-328.5 -107q-109 0 -194 30q-43 -3 -67 -22.5t-24 -52.5q0 -78 127 -78h316
q377 0 377 -279q0 -163 -146.5 -249.5t-421.5 -86.5q-256 0 -371.5 59.5t-115.5 190.5q0 67 42.5 119.5t115.5 75.5q-127 51 -127 182q0 75 44.5 128.5t127.5 76.5q-144 112 -144 301zM342 639q0 -92 59.5 -147.5t157.5 -55.5q95 0 154 55t59 146q0 92 -60 149.5t-155 57.5
t-155 -57t-60 -148zM246 -180q0 -63 65.5 -90t225.5 -27q315 0 315 127q0 47 -33 67.5t-108 20.5h-340q-125 0 -125 -98z" />
    <glyph glyph-name="t.ss03" horiz-adv-x="727" 
d="M662 217l28 -203q-81 -37 -192 -37q-314 0 -314 340v486h-155v209h155v315h248v-315h232v-209h-232v-443q0 -161 129 -161q45 0 101 18z" />
    <glyph glyph-name="f_y" horiz-adv-x="1701" 
d="M657 -469v209h150q80 0 126.5 28.5t78.5 112.5l28 76l-327 846h-291v-803h-248v803h-145v209h145v123q0 198 96 293.5t267 95.5q70 0 129 -11v-213h-88q-89 0 -122.5 -41.5t-33.5 -123.5v-123h475l260 -738l273 738h258l-494 -1237q-56 -136 -138.5 -201.5t-211.5 -65.5
q-97 0 -187 23z" />
    <glyph glyph-name="t_i" horiz-adv-x="1255" 
d="M1001 1219q-63 0 -106 43t-43 106q0 62 43 105t106 43q61 0 104.5 -43t43.5 -105q0 -63 -43 -106t-105 -43zM473 0h-250v803h-194v209h194v315h250v-315h651v-1012h-252v803h-399v-803z" />
    <glyph glyph-name="t_t" horiz-adv-x="1374" 
d="M473 0h-250v805h-194v207h194v315h250v-315h430v315h250v-315h195v-207h-195v-805h-250v805h-430v-805z" />
    <glyph glyph-name="t_y" horiz-adv-x="1738" 
d="M471 0h-248v805h-194v207h194v315h248v-315h463l260 -738l272 738h260l-495 -1237q-56 -136 -138 -201.5t-212 -65.5q-95 0 -185 23v209h150q79 0 125 28.5t78 112.5l28 76l-329 848h-277v-805z" />
    <glyph glyph-name="zero.tf" 
d="M76 745q0 232 71 407.5t207.5 273.5t321.5 98t321.5 -98t207.5 -273.5t71 -407.5q0 -358 -158 -565t-442 -207t-442 207t-158 565zM334 745q0 -261 85 -400.5t257 -139.5t257 139.5t85 400.5q0 266 -85 407.5t-257 141.5t-257 -141.5t-85 -407.5z" />
    <glyph glyph-name="one.tf" 
d="M573 231v1031h-374v235h626v-1266h385v-231h-1028v231h391z" />
    <glyph glyph-name="two.tf" 
d="M1206 2l-1038 -2v197l489 413q154 130 212.5 219t58.5 195q0 127 -65.5 196.5t-184.5 69.5q-123 0 -195 -81.5t-73 -225.5h-260q1 246 145.5 393.5t382.5 147.5q240 0 379 -129.5t139 -356.5q0 -151 -81.5 -279.5t-260.5 -281.5l-270 -231h622v-244z" />
    <glyph glyph-name="three.tf" 
d="M614 741h-180v170l385 355h-622v231h950v-209l-365 -336q179 -35 293.5 -161t114.5 -316q0 -113 -42.5 -207.5t-116 -159t-173.5 -100t-213 -35.5q-148 0 -264.5 57.5t-186 173t-69.5 273.5h260q0 -128 71.5 -199t194.5 -71t197 74t74 198q0 119 -77.5 190.5t-230.5 71.5
z" />
    <glyph glyph-name="four.tf" 
d="M1247 285h-182v-285h-248v285h-760v229l678 983h330v-983h182v-229zM336 514h481v700z" />
    <glyph glyph-name="five.tf" 
d="M655 -25q-236 0 -378 138t-142 366h258q0 -127 70.5 -198.5t195.5 -71.5q133 0 211 80t78 217q0 133 -75.5 213t-208.5 80q-84 0 -158 -37.5t-115 -97.5l-231 49l184 784h780v-242h-589l-82 -313q112 76 266 76q224 0 361 -138t137 -360q0 -243 -156.5 -394t-405.5 -151z
" />
    <glyph glyph-name="six.tf" 
d="M342 1057l324 440h299l-359 -477q59 16 113 16q230 0 374 -145.5t144 -374.5q0 -157 -72.5 -281.5t-199.5 -193t-285 -68.5q-159 0 -289 72t-203 196.5t-73 276.5q0 133 49.5 250t177.5 289zM383 516q0 -137 82.5 -223t214.5 -86q129 0 211 86.5t82 222.5q0 135 -82 220
t-211 85q-133 0 -215 -85t-82 -220z" />
    <glyph glyph-name="seven.tf" 
d="M137 1497h1075v-242l-542 -1255h-271l551 1255h-813v242z" />
    <glyph glyph-name="eight.tf" 
d="M104 424q0 133 69.5 235.5t188.5 145.5q-98 44 -151 126t-53 191q0 179 144 290.5t376 111.5q231 0 372.5 -111.5t141.5 -294.5q0 -109 -53.5 -190.5t-153.5 -122.5q120 -41 191 -143.5t71 -237.5q0 -203 -156 -326t-415 -123q-261 0 -416.5 122.5t-155.5 326.5z
M397 1100q0 -94 75.5 -149.5t201.5 -55.5t201 55t75 148t-74.5 147.5t-201.5 54.5q-126 0 -201.5 -54t-75.5 -146zM360 442q0 -108 85.5 -171.5t230.5 -63.5t229 63t84 172t-85 172.5t-230 63.5q-143 0 -228.5 -64t-85.5 -172z" />
    <glyph glyph-name="nine.tf" 
d="M1010 440l-324 -440h-299l358 477q-59 -16 -112 -16q-230 0 -374 145.5t-144 374.5q0 157 72.5 281.5t199.5 193t285 68.5q159 0 289 -72t203 -196.5t73 -276.5q0 -133 -49.5 -250t-177.5 -289zM969 981q0 137 -82.5 223t-214.5 86q-128 0 -210.5 -86.5t-82.5 -222.5
q0 -135 82 -220t211 -85q133 0 215 85t82 220z" />
    <glyph glyph-name="zero.dnom" horiz-adv-x="751" 
d="M63 365q0 172 84 276t228 104q148 0 230.5 -104t82.5 -276q0 -171 -84.5 -275t-228.5 -104q-148 0 -230 103.5t-82 275.5zM211 365q0 -120 42 -182t122 -62q164 0 164 244q0 122 -42 184.5t-122 62.5t-122 -62.5t-42 -184.5z" />
    <glyph glyph-name="one.dnom" horiz-adv-x="464" 
d="M217 598h-184v135h329v-733h-145v598z" />
    <glyph glyph-name="two.dnom" horiz-adv-x="638" 
d="M594 0h-528v109l241 190q117 97 117 190q0 58 -30 90.5t-83 32.5q-54 0 -85 -32.5t-31 -90.5h-150q0 114 74 185t194 71t189 -66.5t69 -180.5q0 -157 -165 -289l-95 -76h283v-133z" />
    <glyph glyph-name="three.dnom" horiz-adv-x="610" 
d="M39 238h149q0 -56 31.5 -86.5t85.5 -30.5q51 0 81 29.5t30 80.5q0 55 -35.5 87t-106.5 32h-88v96l170 154h-282v133h473v-123l-170 -153q83 -18 135.5 -75.5t52.5 -148.5q0 -113 -74.5 -180t-189.5 -67q-112 0 -187 67.5t-75 184.5z" />
    <glyph glyph-name="four.dnom" horiz-adv-x="669" 
d="M389 139h-362v119l323 475h178v-463h95v-131h-95v-139h-139v139zM188 270h201v295z" />
    <glyph glyph-name="five.dnom" horiz-adv-x="645" 
d="M317 -12q-114 0 -190 67.5t-76 186.5h150q0 -58 31.5 -89.5t84.5 -31.5q60 0 93.5 35.5t33.5 95.5q0 61 -35 98t-92 37q-39 0 -71 -17t-47 -46l-140 18l97 391h403v-133h-299l-35 -123q47 31 113 31q119 0 187.5 -72.5t68.5 -183.5q0 -117 -77 -190.5t-200 -73.5z" />
    <glyph glyph-name="six.dnom" horiz-adv-x="679" 
d="M166 532l149 201h172l-172 -227q21 6 47 6q117 0 189 -69t72 -183q0 -120 -79 -196t-202 -76t-205 77.5t-82 194.5q0 70 23 127t88 145zM203 256q0 -61 38.5 -98t100.5 -37q60 0 96.5 37t36.5 98q0 59 -37.5 97t-95.5 38q-60 0 -99.5 -38.5t-39.5 -96.5z" />
    <glyph glyph-name="seven.dnom" horiz-adv-x="575" 
d="M401 598h-374v135h522v-135l-260 -598h-150z" />
    <glyph glyph-name="eight.dnom" horiz-adv-x="665" 
d="M57 203q0 66 35.5 117t95.5 71q-45 20 -70.5 62t-25.5 96q0 88 66.5 142t175.5 54t174 -53t65 -143q0 -56 -26.5 -97.5t-71.5 -60.5q61 -19 98 -70t37 -118q0 -98 -76 -156.5t-202 -58.5q-125 0 -200 58.5t-75 156.5zM219 530q0 -39 30 -62.5t83 -23.5t82.5 24.5
t29.5 63.5q0 38 -29.5 62t-82.5 24t-83 -24.5t-30 -63.5zM205 221q0 -48 35 -74t92 -26q58 0 92.5 26t34.5 74t-35 74.5t-92 26.5t-92 -26.5t-35 -74.5z" />
    <glyph glyph-name="nine.dnom" horiz-adv-x="679" 
d="M514 201l-149 -201h-172l169 227q-21 -6 -45 -6q-117 0 -189.5 69t-72.5 183q0 120 80 196t203 76q122 0 203.5 -77.5t81.5 -194.5q0 -71 -22.5 -128t-86.5 -144zM475 477q0 61 -37.5 98t-99.5 37q-60 0 -97.5 -37t-37.5 -98q0 -59 38.5 -97t96.5 -38q60 0 98.5 38
t38.5 97z" />
    <glyph glyph-name="zero.numr" horiz-adv-x="751" 
d="M63 1130q0 170 84.5 274.5t227.5 104.5q148 0 230.5 -104.5t82.5 -276.5q0 -171 -84.5 -274.5t-228.5 -103.5q-148 0 -230 103t-82 277zM211 1128q0 -119 42 -181t122 -62q164 0 164 243q0 122 -42 185t-122 63t-122 -63t-42 -185z" />
    <glyph glyph-name="one.numr" horiz-adv-x="464" 
d="M217 1362h-184v135h329v-733h-145v598z" />
    <glyph glyph-name="two.numr" horiz-adv-x="638" 
d="M594 764h-528v108l241 191q117 97 117 190q0 58 -30 90.5t-83 32.5q-54 0 -85 -32t-31 -89h-150q0 113 74 183.5t194 70.5t189 -66t69 -181q0 -157 -165 -289l-95 -76h283v-133z" />
    <glyph glyph-name="three.numr" horiz-adv-x="610" 
d="M39 1004h149q0 -57 31.5 -88t85.5 -31q51 0 81 29.5t30 80.5q0 55 -35.5 87t-106.5 32h-88v96l170 154h-282v133h473v-123l-170 -153q84 -18 136 -75t52 -149q0 -113 -74.5 -180t-189.5 -67q-112 0 -187 67.5t-75 186.5z" />
    <glyph glyph-name="four.numr" horiz-adv-x="669" 
d="M389 903h-362v119l323 475h178v-463h95v-131h-95v-139h-139v139zM188 1034h201v295z" />
    <glyph glyph-name="five.numr" horiz-adv-x="645" 
d="M317 752q-114 0 -190 67.5t-76 186.5h150q0 -58 31.5 -89.5t84.5 -31.5q60 0 93.5 36t33.5 97q0 60 -35 96.5t-92 36.5q-38 0 -70.5 -17.5t-47.5 -46.5l-140 21l97 389h403v-133h-299l-35 -123q47 31 113 31q119 0 187.5 -72t68.5 -182q0 -118 -77 -192t-200 -74z" />
    <glyph glyph-name="six.numr" horiz-adv-x="679" 
d="M166 1296l149 201h172l-170 -225q21 6 45 6q117 0 189 -70t72 -184q0 -120 -79 -196t-202 -76t-205 77.5t-82 194.5q0 71 23.5 128.5t87.5 143.5zM203 1020q0 -61 38.5 -98t100.5 -37q60 0 96.5 37t36.5 98q0 59 -37.5 97t-95.5 38q-60 0 -99.5 -38.5t-39.5 -96.5z" />
    <glyph glyph-name="seven.numr" horiz-adv-x="575" 
d="M401 1362h-374v135h522v-135l-260 -598h-150z" />
    <glyph glyph-name="eight.numr" horiz-adv-x="665" 
d="M57 967q0 66 35.5 117t95.5 71q-45 20 -70.5 62.5t-25.5 97.5q0 86 67 140t175 54q109 0 174 -53t65 -143q0 -56 -26.5 -97.5t-71.5 -60.5q61 -19 98 -70t37 -118q0 -98 -76 -156.5t-202 -58.5q-125 0 -200 58.5t-75 156.5zM219 1294q0 -38 30 -62t83 -24t82.5 24.5
t29.5 63.5t-29.5 62.5t-82.5 23.5t-83 -24t-30 -64zM205 985q0 -48 35 -74t92 -26q58 0 92.5 26.5t34.5 73.5q0 48 -35 74t-92 26t-92 -26t-35 -74z" />
    <glyph glyph-name="nine.numr" horiz-adv-x="679" 
d="M514 965l-149 -201h-172l169 227q-21 -6 -45 -6q-117 0 -189.5 69t-72.5 183q0 120 80 196t203 76q122 0 203.5 -77.5t81.5 -194.5q0 -71 -22.5 -128t-86.5 -144zM475 1243q0 60 -37.5 96.5t-99.5 36.5q-60 0 -97.5 -36.5t-37.5 -96.5t38 -98.5t97 -38.5q60 0 98.5 38.5
t38.5 98.5z" />
    <glyph glyph-name="registered.ss01" horiz-adv-x="1249" 
d="M627 444q-113 0 -214 42t-173.5 114t-115 172t-42.5 213q0 227 157.5 383t387.5 156q151 0 275 -70.5t194.5 -194.5t70.5 -274q0 -231 -154.5 -386t-385.5 -155zM627 545q187 0 310.5 125.5t123.5 314.5t-123.5 313.5t-310.5 124.5q-189 0 -314 -124.5t-125 -313.5
q0 -190 125 -315t314 -125zM532 713h-102v555h223q95 0 151 -47t56 -127q0 -110 -104 -162l116 -219h-114l-99 192h-127v-192zM750 1087q0 41 -27 64t-78 23h-113v-175h113q47 0 76 24t29 64z" />
    <glyph glyph-name="bracketleftsuperior" horiz-adv-x="454" 
d="M244 580h200v-131h-356v1349h356v-131h-200v-1087z" />
    <glyph glyph-name="bracketrightsuperior" horiz-adv-x="454" 
d="M211 1667h-201v131h357v-1349h-357v131h201v1087z" />
    <glyph glyph-name="Gbreve.ss01" horiz-adv-x="1589" 
d="M918 1911h180q0 -147 -86.5 -234.5t-231.5 -87.5q-149 0 -235 86.5t-86 235.5h180q0 -74 37 -114t104 -40q66 0 102 41t36 113zM80 745q0 226 91 403t259.5 276.5t388.5 99.5q265 0 443.5 -132t228.5 -378h-277q-44 131 -146.5 198.5t-250.5 67.5q-210 0 -335.5 -145
t-125.5 -390q0 -250 124 -387t331 -137q177 0 290.5 95t123.5 266h-443v229h717v-168q0 -134 -48 -254.5t-134.5 -213t-218 -146.5t-289.5 -54q-327 0 -528 210t-201 560z" />
    <glyph glyph-name="Gcircumflex.ss01" horiz-adv-x="1589" 
d="M662 1606h-197l184 317h256l185 -317h-195l-117 200zM80 745q0 226 91 403t259.5 276.5t388.5 99.5q265 0 443.5 -132t228.5 -378h-277q-44 131 -146.5 198.5t-250.5 67.5q-210 0 -335.5 -145t-125.5 -390q0 -250 124 -387t331 -137q177 0 290.5 95t123.5 266h-443v229
h717v-168q0 -134 -48 -254.5t-134.5 -213t-218 -146.5t-289.5 -54q-327 0 -528 210t-201 560z" />
    <glyph glyph-name="Gcommaaccent.ss01" horiz-adv-x="1589" 
d="M80 745q0 226 91 403t259.5 276.5t388.5 99.5q265 0 443.5 -132t228.5 -378h-277q-44 131 -146.5 198.5t-250.5 67.5q-210 0 -335.5 -145t-125.5 -390q0 -250 124 -387t331 -137q177 0 290.5 95t123.5 266h-443v229h717v-168q0 -134 -48 -254.5t-134.5 -213t-218 -146.5
t-289.5 -54q-327 0 -528 210t-201 560zM956 -231q0 -111 -66.5 -177t-178.5 -53v82q133 -12 139 80q-18 -12 -47 -12q-49 0 -81 33t-32 83q0 55 36 89t93 34q63 0 100 -43t37 -116z" />
    <glyph glyph-name="Gdotaccent.ss01" horiz-adv-x="1589" 
d="M776 1628q-59 0 -100 42t-41 102q0 59 41.5 101t99.5 42q59 0 101.5 -42.5t42.5 -100.5t-43 -101t-101 -43zM80 745q0 226 91 403t259.5 276.5t388.5 99.5q265 0 443.5 -132t228.5 -378h-277q-44 131 -146.5 198.5t-250.5 67.5q-210 0 -335.5 -145t-125.5 -390
q0 -250 124 -387t331 -137q177 0 290.5 95t123.5 266h-443v229h717v-168q0 -134 -48 -254.5t-134.5 -213t-218 -146.5t-289.5 -54q-327 0 -528 210t-201 560z" />
    <glyph glyph-name="Q.ss04" horiz-adv-x="1609" 
d="M1346 -270l-519 245h-24q-211 0 -376 98t-256 274.5t-91 402.5q0 225 91.5 401.5t257 274.5t376.5 98q159 0 294 -57t230.5 -158t149 -245.5t53.5 -313.5q0 -229 -97 -408.5t-268 -275.5l271 -127zM1255 750q0 239 -122 380.5t-328 141.5t-328.5 -141.5t-122.5 -380.5
t122.5 -381t328.5 -142q205 0 327.5 143t122.5 380z" />
    <glyph glyph-name="aacute.ss01" horiz-adv-x="1269" 
d="M903 1444l-201 -303h-184l154 303h231zM913 1012h228v-1012h-234l-16 158q-50 -83 -140 -134t-208 -51q-221 0 -347 151.5t-126 393.5q0 237 130.5 380.5t344.5 143.5q117 0 213 -48.5t141 -137.5zM887 506q0 138 -78 223.5t-207 85.5t-206 -86t-77 -223t76 -222t205 -85
q130 0 208.5 85t78.5 222z" />
    <glyph glyph-name="abreve.ss01" horiz-adv-x="1269" 
d="M750 1448h180q0 -149 -86.5 -236.5t-233.5 -87.5q-149 0 -235 86.5t-86 237.5h182q0 -74 36 -114t103 -40q66 0 103 40.5t37 113.5zM913 1012h228v-1012h-234l-16 158q-50 -83 -140 -134t-208 -51q-221 0 -347 151.5t-126 393.5q0 237 130.5 380.5t344.5 143.5
q117 0 213 -48.5t141 -137.5zM887 506q0 138 -78 223.5t-207 85.5t-206 -86t-77 -223t76 -222t205 -85q130 0 208.5 85t78.5 222z" />
    <glyph glyph-name="acircumflex.ss01" horiz-adv-x="1269" 
d="M492 1141h-195l184 317h256l185 -317h-197l-117 202zM913 1012h228v-1012h-234l-16 158q-50 -83 -140 -134t-208 -51q-221 0 -347 151.5t-126 393.5q0 237 130.5 380.5t344.5 143.5q117 0 213 -48.5t141 -137.5zM887 506q0 138 -78 223.5t-207 85.5t-206 -86t-77 -223
t76 -222t205 -85q130 0 208.5 85t78.5 222z" />
    <glyph glyph-name="adieresis.ss01" horiz-adv-x="1269" 
d="M426 1165q-57 0 -96 40t-39 98q0 55 39.5 95t95.5 40q55 0 96 -40.5t41 -94.5q0 -57 -40.5 -97.5t-96.5 -40.5zM793 1165q-57 0 -97.5 40t-40.5 98q0 56 40.5 95.5t97.5 39.5q55 0 95 -40.5t40 -94.5q0 -57 -39.5 -97.5t-95.5 -40.5zM913 1012h228v-1012h-234l-16 158
q-50 -83 -140 -134t-208 -51q-221 0 -347 151.5t-126 393.5q0 237 130.5 380.5t344.5 143.5q117 0 213 -48.5t141 -137.5zM887 506q0 138 -78 223.5t-207 85.5t-206 -86t-77 -223t76 -222t205 -85q130 0 208.5 85t78.5 222z" />
    <glyph glyph-name="agrave.ss01" horiz-adv-x="1269" 
d="M698 1141h-184l-199 303h232zM913 1012h228v-1012h-234l-16 158q-50 -83 -140 -134t-208 -51q-221 0 -347 151.5t-126 393.5q0 237 130.5 380.5t344.5 143.5q117 0 213 -48.5t141 -137.5zM887 506q0 138 -78 223.5t-207 85.5t-206 -86t-77 -223t76 -222t205 -85
q130 0 208.5 85t78.5 222z" />
    <glyph glyph-name="amacron.ss01" horiz-adv-x="1269" 
d="M336 1217v174h547v-174h-547zM913 1012h228v-1012h-234l-16 158q-50 -83 -140 -134t-208 -51q-221 0 -347 151.5t-126 393.5q0 237 130.5 380.5t344.5 143.5q117 0 213 -48.5t141 -137.5zM887 506q0 138 -78 223.5t-207 85.5t-206 -86t-77 -223t76 -222t205 -85
q130 0 208.5 85t78.5 222z" />
    <glyph glyph-name="aogonek.ss01" horiz-adv-x="1269" 
d="M985 0h-78l-16 158q-50 -83 -140 -134t-208 -51q-221 0 -347 151.5t-126 393.5q0 237 130.5 380.5t344.5 143.5q117 0 213 -48.5t141 -137.5l14 156h228v-1012h-2q-72 -26 -109 -68.5t-37 -85.5q0 -34 21.5 -54.5t58.5 -20.5q25 0 55 12v-166q-40 -18 -102 -18
q-91 0 -147 55t-56 135q0 66 41 123t121 88zM887 506q0 138 -78 223.5t-207 85.5t-206 -86t-77 -223t76 -222t205 -85q130 0 208.5 85t78.5 222z" />
    <glyph glyph-name="aring.ss01" horiz-adv-x="1269" 
d="M608 1116q-114 0 -188 73t-74 187q0 110 76 186t186 76q112 0 188 -75.5t76 -186.5t-75 -185.5t-189 -74.5zM608 1251q55 0 88 35t33 92q0 54 -33.5 89.5t-87.5 35.5q-53 0 -86 -35t-33 -90q0 -57 32.5 -92t86.5 -35zM913 1012h228v-1012h-234l-16 158q-50 -83 -140 -134
t-208 -51q-221 0 -347 151.5t-126 393.5q0 237 130.5 380.5t344.5 143.5q117 0 213 -48.5t141 -137.5zM887 506q0 138 -78 223.5t-207 85.5t-206 -86t-77 -223t76 -222t205 -85q130 0 208.5 85t78.5 222z" />
    <glyph glyph-name="aringacute.ss01" horiz-adv-x="1269" 
d="M831 1733l-188 -271h-172l143 271h217zM913 1012h228v-1012h-234l-16 158q-50 -83 -140 -134t-208 -51q-221 0 -347 151.5t-126 393.5q0 175 73 301.5t203 184.5q-55 68 -55 163q0 111 76 187t188 76t187 -76t75 -187q0 -103 -63 -172q99 -49 145 -139zM555 1042
q54 0 86.5 35t32.5 92q0 54 -33.5 89.5t-85.5 35.5q-54 0 -87.5 -34.5t-33.5 -90.5q0 -57 33 -92t88 -35zM887 506q0 138 -78 223.5t-207 85.5t-206 -86t-77 -223t76 -222t205 -85q130 0 208.5 85t78.5 222z" />
    <glyph glyph-name="atilde.ss01" horiz-adv-x="1269" 
d="M408 1157l-148 -2q-13 132 38.5 210.5t150.5 78.5q46 0 90 -19t73.5 -41.5t64 -41.5t62.5 -19q72 0 72 121h147q12 -141 -40.5 -215t-153.5 -74q-48 0 -94 19t-75 41.5t-61.5 41.5t-56.5 19q-69 0 -69 -119zM913 1012h228v-1012h-234l-16 158q-50 -83 -140 -134t-208 -51
q-221 0 -347 151.5t-126 393.5q0 237 130.5 380.5t344.5 143.5q117 0 213 -48.5t141 -137.5zM887 506q0 138 -78 223.5t-207 85.5t-206 -86t-77 -223t76 -222t205 -85q130 0 208.5 85t78.5 222z" />
    <glyph glyph-name="gbreve.ss02" horiz-adv-x="1132" 
d="M719 1440h180q0 -149 -86.5 -236.5t-232.5 -87.5q-149 0 -235.5 87.5t-86.5 236.5h182q0 -74 36.5 -114t103.5 -40t103 40.5t36 113.5zM100 633q0 180 126 294.5t323 114.5q137 0 250 -55q32 71 99.5 111.5t152.5 40.5q29 0 41 -2v-203q-16 2 -41 2q-94 0 -138 -59
q46 -45 73.5 -112t27.5 -140q0 -173 -124.5 -280t-328.5 -107q-109 0 -194 30q-43 -3 -67 -22.5t-24 -52.5q0 -78 127 -78h316q377 0 377 -279q0 -163 -146.5 -249.5t-421.5 -86.5q-256 0 -371.5 59.5t-115.5 190.5q0 67 42.5 119.5t115.5 75.5q-127 51 -127 182
q0 75 44.5 128.5t127.5 76.5q-144 112 -144 301zM342 639q0 -92 59.5 -147.5t157.5 -55.5q95 0 154 55t59 146q0 92 -60 149.5t-155 57.5t-155 -57t-60 -148zM246 -180q0 -63 65.5 -90t225.5 -27q315 0 315 127q0 47 -33 67.5t-108 20.5h-340q-125 0 -125 -98z" />
    <glyph glyph-name="gcircumflex.ss02" horiz-adv-x="1132" 
d="M461 1133h-195l185 319h256l184 -319h-195l-116 202zM100 633q0 180 126 294.5t323 114.5q137 0 250 -55q32 71 99.5 111.5t152.5 40.5q29 0 41 -2v-203q-16 2 -41 2q-94 0 -138 -59q46 -45 73.5 -112t27.5 -140q0 -173 -124.5 -280t-328.5 -107q-109 0 -194 30
q-43 -3 -67 -22.5t-24 -52.5q0 -78 127 -78h316q377 0 377 -279q0 -163 -146.5 -249.5t-421.5 -86.5q-256 0 -371.5 59.5t-115.5 190.5q0 67 42.5 119.5t115.5 75.5q-127 51 -127 182q0 75 44.5 128.5t127.5 76.5q-144 112 -144 301zM342 639q0 -92 59.5 -147.5t157.5 -55.5
q95 0 154 55t59 146q0 92 -60 149.5t-155 57.5t-155 -57t-60 -148zM246 -180q0 -63 65.5 -90t225.5 -27q315 0 315 127q0 47 -33 67.5t-108 20.5h-340q-125 0 -125 -98z" />
    <glyph glyph-name="gcommaaccent.ss02" horiz-adv-x="1132" 
d="M698 1278q0 -56 -35.5 -90.5t-93.5 -34.5q-62 0 -98.5 43.5t-36.5 116.5q0 112 66.5 177.5t179.5 53.5v-84q-133 12 -139 -78q22 11 47 11q49 0 79.5 -33.5t30.5 -81.5zM100 633q0 180 126 294.5t323 114.5q137 0 250 -55q32 71 99.5 111.5t152.5 40.5q29 0 41 -2v-203
q-16 2 -41 2q-94 0 -138 -59q46 -45 73.5 -112t27.5 -140q0 -173 -124.5 -280t-328.5 -107q-109 0 -194 30q-43 -3 -67 -22.5t-24 -52.5q0 -78 127 -78h316q377 0 377 -279q0 -163 -146.5 -249.5t-421.5 -86.5q-256 0 -371.5 59.5t-115.5 190.5q0 67 42.5 119.5t115.5 75.5
q-127 51 -127 182q0 75 44.5 128.5t127.5 76.5q-144 112 -144 301zM342 639q0 -92 59.5 -147.5t157.5 -55.5q95 0 154 55t59 146q0 92 -60 149.5t-155 57.5t-155 -57t-60 -148zM246 -180q0 -63 65.5 -90t225.5 -27q315 0 315 127q0 47 -33 67.5t-108 20.5h-340
q-125 0 -125 -98z" />
    <glyph glyph-name="gdotaccent.ss02" horiz-adv-x="1132" 
d="M578 1157q-60 0 -101 41.5t-41 101.5q0 59 42 101.5t100 42.5t100.5 -43.5t42.5 -100.5q0 -58 -42.5 -100.5t-100.5 -42.5zM100 633q0 180 126 294.5t323 114.5q137 0 250 -55q32 71 99.5 111.5t152.5 40.5q29 0 41 -2v-203q-16 2 -41 2q-94 0 -138 -59q46 -45 73.5 -112
t27.5 -140q0 -173 -124.5 -280t-328.5 -107q-109 0 -194 30q-43 -3 -67 -22.5t-24 -52.5q0 -78 127 -78h316q377 0 377 -279q0 -163 -146.5 -249.5t-421.5 -86.5q-256 0 -371.5 59.5t-115.5 190.5q0 67 42.5 119.5t115.5 75.5q-127 51 -127 182q0 75 44.5 128.5t127.5 76.5
q-144 112 -144 301zM342 639q0 -92 59.5 -147.5t157.5 -55.5q95 0 154 55t59 146q0 92 -60 149.5t-155 57.5t-155 -57t-60 -148zM246 -180q0 -63 65.5 -90t225.5 -27q315 0 315 127q0 47 -33 67.5t-108 20.5h-340q-125 0 -125 -98z" />
    <glyph glyph-name="tbar.ss03" horiz-adv-x="718" 
d="M57 621h127v182h-155v209h155v315h248v-315h232v-209h-232v-182h166v-193h-166v-68q0 -161 129 -161q45 0 101 18l28 -203q-81 -37 -192 -37q-314 0 -314 340v111h-127v193z" />
    <glyph glyph-name="tcaron.ss03" horiz-adv-x="727" 
d="M528 1126v371h207l-55 -371h-152zM662 217l28 -203q-81 -37 -192 -37q-314 0 -314 340v486h-155v209h155v315h248v-315h232v-209h-232v-443q0 -161 129 -161q45 0 101 18z" />
    <glyph glyph-name="tcedilla.ss03" horiz-adv-x="727" 
d="M319 -401v114q72 -37 138 -37q51 0 78.5 21t27.5 57q0 34 -23 52t-65 18q-45 0 -100 -19l-25 70l53 111q-219 50 -219 331v486h-155v209h155v315h248v-315h232v-209h-232v-443q0 -161 129 -161q45 0 101 18l28 -203q-81 -37 -184 -37l-37 -71q33 10 68 10q67 0 115 -40.5
t48 -119.5q0 -91 -65 -141.5t-164 -50.5q-90 0 -152 35z" />
    <glyph glyph-name="tcommaaccent.ss03" horiz-adv-x="727" 
d="M662 217l28 -203q-81 -37 -192 -37q-314 0 -314 340v486h-155v209h155v315h248v-315h232v-209h-232v-443q0 -161 129 -161q45 0 101 18zM596 -231q0 -111 -67 -177t-181 -53v82q135 -12 141 80q-21 -12 -47 -12q-50 0 -81 33t-31 83q0 55 36 89t93 34q62 0 99.5 -43
t37.5 -116z" />
    <glyph glyph-name="caroncomb.alt" horiz-adv-x="1165" 
d="M629 1126v371h207l-54 -371h-153z" />
    <glyph glyph-name="strokeshortcomb.case" horiz-adv-x="786" 
d="M41 641v215h704v-215h-704z" />
    <glyph glyph-name="strokelongcomb.case" horiz-adv-x="1570" 
d="M31 1094v221h1511v-221h-1511z" />
    <glyph glyph-name="slashshortcomb.case" horiz-adv-x="772" 
d="M41 590v203l690 329v-202z" />
    <glyph glyph-name="slashlongcomb.case" horiz-adv-x="1130" 
d="M1253 1497l-1126 -1497h-250l1135 1497h241z" />
    <glyph glyph-name="dotaccentcomb.i" horiz-adv-x="462" 
d="M229 1657q-63 0 -107 44t-44 107t44 106.5t107 43.5q62 0 106 -43.5t44 -106.5t-44 -107t-106 -44z" />
    </font>
</defs>
</svg>
