<?xml version="1.0" standalone="no"?>
<!DOCTYPE svg PUBLIC "-//W3C//DTD SVG 1.1//EN" "http://www.w3.org/Graphics/SVG/1.1/DTD/svg11.dtd" >
<svg xmlns="http://www.w3.org/2000/svg" xmlns:xlink="http://www.w3.org/1999/xlink" version="1.1">
<metadata>
Created by FontForge 20170731 at Wed Sep  6 15:04:20 2023
 By Aleksey,,,
Copyright (c) 2019 by Mathieu Desjardins. All rights reserved.
</metadata>
<defs>
<font id="NeueMachina-Ultrabold" horiz-adv-x="2244" >
  <font-face 
    font-family="Neue Machina Ultrabold"
    font-weight="800"
    font-stretch="normal"
    units-per-em="2048"
    panose-1="0 0 9 0 0 0 0 0 0 0"
    ascent="1638"
    descent="-410"
    x-height="1034"
    cap-height="1444"
    bbox="-1237 -750 3443 2052"
    underline-thickness="102"
    underline-position="-255"
    unicode-range="U+0020-277E"
  />
<missing-glyph horiz-adv-x="989" 
d="M811 1505v-1976h-627v1976h627zM657 1372h-325v-63h129v-74h-131v-66h327v66h-129v74h129v63zM528 1118h-198v-205h327v66h-129v139zM461 1051v-72h-66v72h66zM657 858h-327v-63h131v-74h-131v-66h198v140h129v63zM657 741h-63v-131h-264v-67h327v198zM657 500h-196v-111
h67v45h66v-92h-199v158h-65v-224h327v224zM657 158h-327v-224h327v224zM594 92v-92h-199v92h199zM657 -111h-327v-65h139l-139 -94v-64h327v64h-200l137 94h63v65z" />
    <glyph glyph-name="f_f" unicode="ff" horiz-adv-x="1710" 
d="M1473 1219q-73 0 -106.5 -36.5t-33.5 -121.5v-27h299v-286h-299v-461h299v-287h-1571v287h250v461h-250v286h252q20 201 152.5 305.5t349.5 104.5h391q116 61 307 61h177v-286h-217zM1006 1034v37q0 45 6 86h-197q-80 0 -119.5 -29.5t-50.5 -93.5h361zM1006 287v461h-367
v-461h367z" />
    <glyph glyph-name="f_f_i" unicode="ffi" horiz-adv-x="2492" 
d="M2165 287h286v-287h-2390v287h248l2 461h-250v286h252q20 201 152.5 305.5t349.5 104.5h395q133 93 344 82l361 -21v-286l-402 20q-70 3 -104.5 -43t-34.5 -135v-17l613 11q87 2 132.5 -42t45.5 -130v-596zM815 1157q-80 0 -119.5 -29.5t-50.5 -93.5h205l197 4v33
q0 45 6 86h-238zM1837 287v473l-463 -6v-467h463zM1047 287v463l-154 -2h-254v-461h408z" />
    <glyph glyph-name="f_i" unicode="fi" horiz-adv-x="1703" 
d="M1376 287h287v-287h-1602v287h197v463l-197 -2v286l197 4v33q0 219 129.5 344t378.5 111l360 -21v-286l-401 20q-70 3 -104.5 -43t-34.5 -135v-17l612 11q87 2 132.5 -42t45.5 -130v-596zM1049 287v473l-463 -6v-467h463z" />
    <glyph glyph-name=".notdef" horiz-adv-x="989" 
d="M811 1505v-1976h-627v1976h627zM657 1372h-325v-63h129v-74h-131v-66h327v66h-129v74h129v63zM528 1118h-198v-205h327v66h-129v139zM461 1051v-72h-66v72h66zM657 858h-327v-63h131v-74h-131v-66h198v140h129v63zM657 741h-63v-131h-264v-67h327v198zM657 500h-196v-111
h67v45h66v-92h-199v158h-65v-224h327v224zM657 158h-327v-224h327v224zM594 92v-92h-199v92h199zM657 -111h-327v-65h139l-139 -94v-64h327v64h-200l137 94h63v65z" />
    <glyph glyph-name=".null" horiz-adv-x="0" 
 />
    <glyph glyph-name="nonmarkingreturn" horiz-adv-x="682" 
 />
    <glyph glyph-name="space" unicode=" " horiz-adv-x="573" 
 />
    <glyph glyph-name="exclam" unicode="!" horiz-adv-x="737" 
d="M205 1444h327l-61 -914h-205zM367 -20q-102 0 -163 64t-61 163q0 96 61 159.5t163 63.5q100 0 163.5 -64t63.5 -159q0 -98 -63.5 -162.5t-163.5 -64.5z" />
    <glyph glyph-name="quotedbl" unicode="&#x22;" horiz-adv-x="921" 
d="M143 1587h246v-655h-246v655zM532 1587h246v-655h-246v655z" />
    <glyph glyph-name="numbersign" unicode="#" horiz-adv-x="2283" 
d="M2140 829h-448l-158 -409h387v-205h-465l-201 -520l-231 90l166 430h-410l-200 -520l-232 90l166 430h-371v205h449l158 409h-388v205h467l211 551l232 -90l-178 -461h411l211 551l232 -90l-179 -461h371v-205zM1268 420l157 409h-409l-158 -409h410z" />
    <glyph glyph-name="dollar" unicode="$" horiz-adv-x="1619" 
d="M1477 397q0 -188 -136.5 -297.5t-429.5 -119.5v-283h-204v289q-297 28 -430.5 172t-133.5 399h328q0 -130 55 -195.5t181 -85.5v359q-70 24 -116 41t-103.5 42.5t-94.5 49t-75 57t-59.5 70t-35.5 84.5t-14 104q0 173 126.5 270t371.5 109v285h204v-291
q251 -30 378.5 -166.5t127.5 -337.5h-327q0 171 -179 213v-299q65 -22 113 -39.5t110.5 -45t107.5 -54t92 -63t76.5 -75t48 -88t18.5 -104.5zM537 1071q0 -43 32.5 -69.5t137.5 -65.5v240q-170 -16 -170 -105zM911 266q238 8 238 127q0 54 -60 93t-178 79v-299z" />
    <glyph glyph-name="percent" unicode="%" horiz-adv-x="2535" 
d="M1501 1647l232 -91l-693 -1800l-231 90zM618 575q-139 0 -248.5 65t-168 173t-58.5 238q0 199 133 337t342 138q104 0 194 -38t151.5 -102t96 -151t34.5 -184q0 -199 -133.5 -337.5t-342.5 -138.5zM618 821q100 0 165 67t65 163q0 95 -65 162t-165 67t-164.5 -66.5
t-64.5 -162.5t65 -163t164 -67zM1917 -143q-209 0 -342 138t-133 337t133 337t342 138t342 -138t133 -337t-133 -337t-342 -138zM1917 102q99 0 164 67t65 163t-64.5 162.5t-164.5 66.5t-164.5 -66.5t-64.5 -162.5t65 -163t164 -67z" />
    <glyph glyph-name="ampersand" unicode="&#x26;" horiz-adv-x="2070" 
d="M1927 -29l-258 -176l-250 320q-222 -135 -532 -135q-227 0 -392.5 61t-258.5 186.5t-93 304.5q0 100 34.5 178.5t92 124.5t124.5 69.5t138 23.5q167 0 283 -127v82l-328 420v141h1119v-287h-668l498 -598q94 174 94 414h328q0 -400 -213 -664zM887 266q204 0 348 84
l-123 158q-94 120 -182.5 171.5t-200.5 51.5t-185 -55.5t-73 -155.5q0 -254 416 -254z" />
    <glyph glyph-name="quotesingle" unicode="'" horiz-adv-x="532" 
d="M143 1587h246v-655h-246v655z" />
    <glyph glyph-name="parenleft" unicode="(" horiz-adv-x="923" 
d="M780 -102v-205q-162 30 -285 107.5t-199.5 193t-114.5 259.5t-38 316t38 316t114.5 259t199 192.5t285.5 107.5v-205q-96 -30 -166.5 -78t-113 -106.5t-68 -138t-34.5 -160.5t-9 -187t9 -187t34.5 -161t68 -138t113 -106.5t166.5 -78.5z" />
    <glyph glyph-name="parenright" unicode=")" horiz-adv-x="923" 
d="M143 -102q96 30 166.5 78.5t113.5 106.5t68.5 138t34.5 161t9 187t-9 187t-34.5 160.5t-68.5 138t-113.5 106.5t-166.5 78v205q163 -30 285.5 -107.5t199 -192.5t114.5 -259t38 -316t-38 -316t-114.5 -259.5t-199.5 -193t-285 -107.5v205z" />
    <glyph glyph-name="asterisk" unicode="*" horiz-adv-x="1060" 
d="M102 1122l64 195l199 -64l104 -79l-39 122v209h205v-209l-41 -125l102 76l199 64l63 -195l-198 -65h-131l102 -74l123 -168l-166 -121l-121 168l-41 125l-39 -121l-122 -168l-166 121l123 168l106 76l-127 2z" />
    <glyph glyph-name="plus" unicode="+" horiz-adv-x="1392" 
d="M1249 676v-246h-430v-430h-246v430h-430v246h430v430h246v-430h430z" />
    <glyph glyph-name="comma" unicode="," horiz-adv-x="643" 
d="M262 373l238 -64l-201 -725l-238 64z" />
    <glyph glyph-name="hyphen" unicode="-" horiz-adv-x="1392" 
d="M143 676h1106v-246h-1106v246z" />
    <glyph glyph-name="period" unicode="." horiz-adv-x="737" 
d="M367 -20q-102 0 -163 64t-61 163q0 96 61 159.5t163 63.5q100 0 163.5 -64t63.5 -159q0 -98 -63.5 -162.5t-163.5 -64.5z" />
    <glyph glyph-name="slash" unicode="/" horiz-adv-x="1128" 
d="M795 1667l231 -90l-692 -1800l-232 90z" />
    <glyph glyph-name="zero" unicode="0" horiz-adv-x="1554" 
d="M778 1464q214 0 372.5 -93.5t240.5 -260.5t82 -387q0 -221 -82 -388.5t-240 -261t-373 -93.5q-324 0 -510 203.5t-186 539.5q0 220 82 387t240.5 260.5t373.5 93.5zM778 1178q-175 0 -271.5 -117t-96.5 -338q0 -102 22 -188l551 587q-83 56 -205 56zM778 266
q175 0 271 117.5t96 339.5q0 98 -23 188l-551 -587q85 -58 207 -58z" />
    <glyph glyph-name="one" unicode="1" horiz-adv-x="1187" 
d="M61 870q203 79 285 204.5t82 369.5h637v-1444h-328v1178l62 184h-82q-6 -88 -14.5 -155t-26 -140t-43 -129.5t-66 -113.5t-94.5 -100.5t-128.5 -82.5t-168.5 -68z" />
    <glyph glyph-name="two" unicode="2" horiz-adv-x="1425" 
d="M82 782q0 142 34.5 256.5t96 193t148 131.5t187 77t216.5 24q263 0 421 -127t158 -358q0 -252 -185 -390q-145 -108 -465 -183q-107 -25 -509 -99v-82l205 62h954v-287h-1241v573q232 32 343 55q515 110 566 320q5 22 5 45q0 78 -59.5 131.5t-188.5 53.5
q-186 0 -272 -94.5t-86 -301.5h-328z" />
    <glyph glyph-name="three" unicode="3" horiz-adv-x="1458" 
d="M61 551h328q0 -167 75 -226t271 -59q157 0 225 39t68 127q0 84 -52 126t-147 42h-200v287h200q179 0 179 145q0 75 -60.5 110.5t-212.5 35.5q-189 0 -257 -48.5t-68 -175.5h-328q0 109 32.5 196t90 145t140.5 96.5t179.5 55.5t210.5 17q131 0 240 -24.5t189.5 -72
t125.5 -122.5t45 -172q0 -63 -19 -110.5t-47 -76t-77 -50t-91.5 -31.5t-107.5 -21v-82q43 -6 69 -10.5t64.5 -12.5t62.5 -19t53.5 -27t47.5 -38t34.5 -51t24 -67.5t7.5 -85.5q0 -104 -48 -184t-133.5 -129t-196 -73.5t-243.5 -24.5q-116 0 -213 17.5t-184 59t-147 105.5
t-95 163t-35 226z" />
    <glyph glyph-name="four" unicode="4" horiz-adv-x="1423" 
d="M1341 530v-286h-157v-244h-328v244h-754v596q260 40 410.5 195t169.5 409h328q-17 -357 -229 -585t-597 -308v-82l205 61h467v320h328v-320h157z" />
    <glyph glyph-name="five" unicode="5" horiz-adv-x="1499" 
d="M82 530h328q0 -134 82 -199t270 -65q168 0 237.5 65.5t69.5 205.5q0 231 -229 231q-178 0 -299 -154l-369 213v617h1110v-287h-782v-207l-62 -184l68 -39q114 328 432 328q199 0 329 -135t130 -375q0 -287 -168.5 -426t-466.5 -139q-147 0 -267.5 31.5t-214.5 95.5
t-146 172t-52 251z" />
    <glyph glyph-name="six" unicode="6" horiz-adv-x="1480" 
d="M102 711q0 139 24.5 256t79 216t136.5 165t203 97.5t272 18.5l486 -41v-286l-486 41q-205 18 -322 -55t-161 -269l-82 -184h82q12 118 83.5 206.5t183 133.5t247.5 45q268 0 419.5 -140.5t151.5 -388.5q0 -245 -176.5 -395.5t-480.5 -150.5q-308 0 -484 183.5t-176 547.5
zM430 506q0 -101 85 -170.5t247 -69.5q173 0 251.5 59t78.5 201q0 126 -78 184t-244 58q-176 0 -258 -66t-82 -196z" />
    <glyph glyph-name="seven" unicode="7" horiz-adv-x="1247" 
d="M233 0q0 230 61 418t176.5 326.5t273 235.5t360.5 157v82l-184 -62h-859v287h1125v-473q-219 -89 -349.5 -213t-192.5 -307t-62 -451h-349z" />
    <glyph glyph-name="eight" unicode="8" horiz-adv-x="1411" 
d="M41 406q0 73 23.5 130.5t62 94t95.5 62.5t114 39.5t129 21.5v82q-342 30 -342 294q0 76 34 135t89 96t132.5 60.5t157.5 33t171 9.5q90 0 169.5 -9.5t156.5 -33t132.5 -60.5t89 -96t33.5 -135q0 -264 -342 -294v-82q69 -8 128.5 -23.5t115 -43.5t94.5 -66t62.5 -93
t23.5 -122q0 -112 -47.5 -195t-136.5 -133t-208 -74t-271 -24t-272 24t-209.5 74t-137 133t-47.5 195zM451 1057q0 -65 61 -93t195 -28q133 0 193.5 28t60.5 93q0 64 -61 92.5t-193 28.5q-133 0 -194.5 -28.5t-61.5 -92.5zM369 457q0 -98 80.5 -144.5t257.5 -46.5
q175 0 255 46.5t80 144.5q0 97 -80.5 144.5t-254.5 47.5q-176 0 -257 -47.5t-81 -144.5z" />
    <glyph glyph-name="nine" unicode="9" horiz-adv-x="1480" 
d="M1378 733q0 -139 -24.5 -256t-79 -216t-136 -165t-202.5 -97.5t-272 -18.5l-486 40v287l486 -41q205 -18 322 55t161 269l82 184h-82q-12 -118 -83.5 -206.5t-183 -133.5t-247.5 -45q-268 0 -420 140.5t-152 388.5q0 245 177 395.5t481 150.5q308 0 483.5 -183.5
t175.5 -547.5zM1051 938q0 101 -85 170.5t-247 69.5q-173 0 -251.5 -59t-78.5 -201q0 -126 78 -184t244 -58q176 0 258 66t82 196z" />
    <glyph glyph-name="colon" unicode=":" horiz-adv-x="737" 
d="M367 604q-102 0 -163 64t-61 163q0 96 61 160t163 64q100 0 163.5 -64.5t63.5 -159.5q0 -98 -63.5 -162.5t-163.5 -64.5zM367 -20q-102 0 -163 64t-61 163q0 96 61 159.5t163 63.5q100 0 163.5 -64t63.5 -159q0 -98 -63.5 -162.5t-163.5 -64.5z" />
    <glyph glyph-name="semicolon" unicode=";" horiz-adv-x="798" 
d="M428 604q-102 0 -162.5 64t-60.5 163q0 96 60.5 160t162.5 64q100 0 163.5 -64.5t63.5 -159.5q0 -98 -63.5 -162.5t-163.5 -64.5zM262 373l238 -64l-201 -725l-238 64z" />
    <glyph glyph-name="less" unicode="&#x3c;" horiz-adv-x="1406" 
d="M143 383v246l1043 405l78 -233l-834 -295l834 -273l-78 -233z" />
    <glyph glyph-name="equal" unicode="=" horiz-adv-x="1392" 
d="M143 901h1106v-246h-1106v246zM143 451h1106v-246h-1106v246z" />
    <glyph glyph-name="greater" unicode="&#x3e;" horiz-adv-x="1406" 
d="M1264 383l-1043 -383l-78 233l834 273l-834 295l78 233l1043 -405v-246z" />
    <glyph glyph-name="question" unicode="?" horiz-adv-x="1116" 
d="M102 1106q0 88 28 162.5t84.5 133t152 91.5t221.5 33q114 0 200 -29.5t133.5 -78.5t70 -105t22.5 -117q0 -68 -23.5 -126t-61.5 -100t-96 -76.5t-117.5 -57t-136 -40t-141.5 -28t-143 -18.5v-70l156 55h467v-205h-705v406q115 2 210.5 17t175 43.5t124.5 77.5t45 114
q0 67 -50 100t-134 33q-124 0 -180 -54.5t-56 -160.5h-246zM563 -20q-102 0 -162.5 64t-60.5 163q0 96 60.5 159.5t162.5 63.5q100 0 164 -64t64 -159q0 -98 -64 -162.5t-164 -64.5z" />
    <glyph glyph-name="at" unicode="@" horiz-adv-x="2265" 
d="M369 575q0 -171 57.5 -318t160 -249.5t252 -153t324.5 -32.5l791 82v-205l-791 -82q-204 -21 -391.5 40.5t-325.5 186t-220.5 315.5t-82.5 416q0 186 53 345t147 274.5t222 197t279.5 122t318.5 40.5q278 0 493.5 -102.5t340.5 -302.5t125 -471q0 -136 -31.5 -251
t-91.5 -201.5t-155 -135.5t-216 -49h-110q-113 0 -113 133v21l61 163h-82q-31 -141 -134.5 -225t-256.5 -84q-206 0 -329 142.5t-123 386.5q0 242 123 384t329 142q153 0 256.5 -84t134.5 -225h82l-61 184v104h246v-837h47q198 0 198 432q0 329 -187 500.5t-546 171.5
q-176 0 -325.5 -59.5t-251.5 -163.5t-159.5 -246.5t-57.5 -305.5zM1040 254q254 0 254 324q0 321 -254 321t-254 -321q0 -324 254 -324z" />
    <glyph glyph-name="A" unicode="A" horiz-adv-x="1591" 
d="M1219 0l-132 463h-585l-129 -463h-332l416 1444h676l417 -1444h-331zM582 750h426l-172 612h-82z" />
    <glyph glyph-name="B" unicode="B" horiz-adv-x="1435" 
d="M123 0v1444h508q126 0 216.5 -9.5t165.5 -33t120.5 -63.5t69.5 -101.5t24 -146.5q0 -43 -7 -78.5t-17 -62t-29 -48t-35.5 -35.5t-44 -25.5t-46.5 -17t-51.5 -10.5t-50.5 -6.5t-52 -4.5q-9 -1 -13 -1v-82q43 -2 73.5 -3.5t71.5 -6.5t70 -12.5t63.5 -20t57.5 -29.5t47 -42
t38 -56.5t22.5 -73.5t8.5 -92q0 -80 -23.5 -142t-69.5 -103.5t-104 -69t-138.5 -42t-160.5 -20.5t-182 -6h-532zM451 895h221q33 0 48.5 0.5t42.5 1.5t40 4.5t32 9.5t28 16t19 23.5t13.5 32.5t3.5 43t-3.5 43t-13.5 32.5t-19 23.5t-28 16t-32 9.5t-40 4.5t-42.5 1.5
t-48.5 0.5h-221v-262zM451 287h245q157 0 209 13q79 21 96 94q5 23 5 52q0 24 -3 44t-11 35t-15.5 27t-24 21t-28 15t-35.5 9.5t-39.5 6t-47 3.5t-50 1h-56.5h-245v-321z" />
    <glyph glyph-name="C" unicode="C" horiz-adv-x="1658" 
d="M102 723q0 210 88.5 377.5t259 265.5t394.5 98q301 0 490.5 -154.5t221.5 -422.5h-327q-24 140 -127 215.5t-254 75.5q-193 0 -305.5 -118t-112.5 -337q0 -220 112.5 -338.5t305.5 -118.5q151 0 254 76.5t127 216.5h327q-32 -269 -221.5 -424t-490.5 -155q-169 0 -309 57
t-234.5 156.5t-146.5 235.5t-52 294z" />
    <glyph glyph-name="D" unicode="D" horiz-adv-x="1544" 
d="M655 1444q89 0 165 -7t158.5 -27.5t148 -53.5t126.5 -88.5t101 -129.5t64 -179.5t24 -235.5t-24 -236t-64 -180t-101 -130t-126.5 -89t-148 -53.5t-158.5 -27.5t-165 -7h-532v1444h532zM655 287q50 0 84 1t77 6t72 13.5t63 24.5t56 38t44 55t35 75t20.5 98.5t7.5 124.5
q0 61 -5.5 112.5t-18 91.5t-27 72t-37.5 55.5t-45 40.5t-54 28.5t-59.5 18t-67 10t-70.5 4.5t-75 1h-204v-870h204z" />
    <glyph glyph-name="E" unicode="E" horiz-adv-x="1234" 
d="M123 0v1444h1030v-287h-702v-291h600v-286h-600v-293h702v-287h-1030z" />
    <glyph glyph-name="F" unicode="F" horiz-adv-x="1234" 
d="M123 0v1444h1030v-287h-702v-416l655 41v-290l-655 -41v-451h-328z" />
    <glyph glyph-name="G" unicode="G" horiz-adv-x="1820" 
d="M102 723q0 216 94.5 386t260 262.5t372.5 92.5q271 0 463 -150t224 -386h-328q-25 128 -111 189t-248 61q-399 0 -399 -455q0 -237 87 -347t267 -110q151 0 235.5 74.5t84.5 218.5h-334v246h754q85 0 129.5 -44.5t44.5 -129.5v-631h-328v498l62 225h-82
q-2 -351 -145.5 -547t-432.5 -196q-212 0 -364.5 94t-229 260.5t-76.5 388.5z" />
    <glyph glyph-name="H" unicode="H" horiz-adv-x="1626" 
d="M1176 1444h327v-1444h-327v559h-725v-559h-328v1444h328v-598h725v598z" />
    <glyph glyph-name="I" unicode="I" horiz-adv-x="1187" 
d="M1085 1157h-327v-870h327v-287h-983v287h328v870h-328v287h983v-287z" />
    <glyph glyph-name="J" unicode="J" horiz-adv-x="1095" 
d="M408 -20l-367 20v287l367 -21q59 -3 102.5 6.5t71.5 36t45 57.5t25.5 82.5t11 98t2.5 117.5v514l-435 -21v287l588 20q84 3 129 -43t45 -131v-737q0 -106 -11 -186.5t-37.5 -149t-70.5 -114.5t-108.5 -77t-153.5 -42t-204 -4z" />
    <glyph glyph-name="K" unicode="K" horiz-adv-x="1574" 
d="M1534 1444l-870 -723l870 -721h-479l-604 510v-510h-328v1444h328v-512l604 512h479z" />
    <glyph glyph-name="L" unicode="L" horiz-adv-x="1193" 
d="M299 -20q-85 -2 -130.5 42.5t-45.5 129.5v1292h328v-1178l702 21v-287z" />
    <glyph glyph-name="M" unicode="M" horiz-adv-x="2039" 
d="M123 0v1444h645l211 -1362h82l211 1362h645v-1444h-328v1157l62 205h-82l-232 -1362h-635l-231 1362h-82l62 -205v-1157h-328z" />
    <glyph glyph-name="N" unicode="N" horiz-adv-x="1675" 
d="M123 0v1444h645l436 -1362h82l-61 205v1157h327v-1444h-645l-436 1362h-82l62 -205v-1157h-328z" />
    <glyph glyph-name="O" unicode="O" horiz-adv-x="1677" 
d="M102 723q0 157 51.5 293t145 235t233 156t308.5 57q168 0 307 -57t232.5 -156t144.5 -235t51 -293q0 -158 -51 -294t-144.5 -235.5t-232.5 -156.5t-307 -57q-169 0 -308.5 57t-233 156.5t-145 235.5t-51.5 294zM430 723q0 -214 105 -335.5t305 -121.5t303.5 121.5
t103.5 335.5q0 212 -104 333.5t-303 121.5q-200 0 -305 -121.5t-105 -333.5z" />
    <glyph glyph-name="P" unicode="P" horiz-adv-x="1366" 
d="M641 1444q84 0 151 -5t135.5 -19t120 -37.5t98 -62t75.5 -91t46 -126t17 -165.5t-17 -166t-46 -126.5t-75.5 -91t-98 -62.5t-120 -38t-135.5 -19t-151 -5h-190v-430h-328v1444h518zM662 717q54 0 90 2.5t72.5 10t58.5 22.5t40 39.5t25.5 60.5t7.5 86q0 49 -7.5 85
t-25.5 60t-40 39t-58.5 22.5t-72.5 10t-90 2.5h-211v-440h211z" />
    <glyph glyph-name="Q" unicode="Q" horiz-adv-x="1710" 
d="M1139 -61q163 11 323 1.5t412 -42.5v-287q-280 39 -511 48.5t-436.5 -5t-475.5 -53.5l-27 266q5 0 70.5 6.5t81 8t77.5 8.5t88 12.5t81 15t88.5 20t79.5 24.5t84.5 31.5t74.5 37.5l-45 73q-62 -51 -144.5 -77.5t-218.5 -26.5q-127 0 -243 51.5t-204 143.5t-140 229.5
t-52 298.5q0 156 54.5 292.5t152 235.5t240 156t311.5 57q341 0 548.5 -205t207.5 -536q0 -119 -26.5 -226t-70.5 -189t-106.5 -153.5t-129 -122.5t-144.5 -93zM860 266q202 0 315 123t113 334q0 209 -113 332t-315 123t-316 -123t-114 -332q0 -211 114 -334t316 -123z" />
    <glyph glyph-name="R" unicode="R" horiz-adv-x="1466" 
d="M123 0v1444h559q110 0 200 -10.5t174.5 -38.5t142 -72.5t92 -116.5t34.5 -166q0 -281 -367 -323v-82h211q85 0 129.5 -44.5t44.5 -129.5v-461h-327v508h-565v-508h-328zM451 795h231q75 0 109.5 1.5t83.5 10t69.5 27t36.5 53.5t16 88t-16 88.5t-36.5 54t-69.5 27.5
t-83.5 10.5t-109.5 1.5h-231v-362z" />
    <glyph glyph-name="S" unicode="S" horiz-adv-x="1456" 
d="M1395 397q0 -196 -149.5 -306.5t-469.5 -110.5q-192 0 -330.5 38.5t-222.5 114t-123 180t-39 244.5h328q0 -164 89.5 -227.5t307.5 -63.5q151 0 216 32.5t65 94.5q0 68 -112 122q-54 26 -246 91q-16 6 -29 10q-228 76 -317 122q-165 85 -213 211q-23 60 -23 134
q0 185 144.5 283t422.5 98q161 0 285.5 -39.5t201.5 -109.5t115.5 -161.5t38.5 -201.5h-327q0 64 -23.5 109t-67.5 70t-98 36t-125 11q-239 0 -239 -107q0 -35 19.5 -57t73 -46.5t173.5 -64.5q222 -75 285 -101q280 -115 357 -268q32 -64 32 -137z" />
    <glyph glyph-name="T" unicode="T" horiz-adv-x="1394" 
d="M1333 1444v-287h-471v-1157h-327v1157h-474v287h1272z" />
    <glyph glyph-name="U" unicode="U" horiz-adv-x="1468" 
d="M82 537v907h328v-762q0 -55 1.5 -92.5t6.5 -81t15 -72t25.5 -58.5t40 -48.5t57 -34t77 -22.5t100.5 -7t100.5 7t77.5 22t57.5 34t40.5 48.5t26 59t15.5 72t7 81t1.5 92.5v762h327v-907q0 -271 -166.5 -414t-486.5 -143t-485.5 143t-165.5 414z" />
    <glyph glyph-name="V" unicode="V" horiz-adv-x="1591" 
d="M41 1444h332l381 -1362h82l383 1362h331l-417 -1444h-676z" />
    <glyph glyph-name="W" unicode="W" horiz-adv-x="2392" 
d="M41 1444h317l230 -1362h82l178 1362h696l178 -1362h82l230 1362h317l-248 -1444h-680l-186 1362h-82l-186 -1362h-680z" />
    <glyph glyph-name="X" unicode="X" horiz-adv-x="1615" 
d="M41 0l487 682v82l-487 680h377l389 -553l391 553h377l-490 -680v-82l490 -682h-377l-391 555l-389 -555h-377z" />
    <glyph glyph-name="Y" unicode="Y" horiz-adv-x="1480" 
d="M1090 1444h350l-537 -979v-465h-328v465l-534 979h350l307 -602v-185h82v185z" />
    <glyph glyph-name="Z" unicode="Z" horiz-adv-x="1366" 
d="M82 0v604l1120 533v82l-184 -62h-936v287h1202v-604l-1120 -533v-82l184 62h936v-287h-1202z" />
    <glyph glyph-name="bracketleft" unicode="[" horiz-adv-x="944" 
d="M143 1444h658v-205h-410v-1341h410v-205h-658v1751z" />
    <glyph glyph-name="backslash" unicode="\" horiz-adv-x="1128" 
d="M334 1667l692 -1800l-231 -90l-693 1800z" />
    <glyph glyph-name="bracketright" unicode="]" horiz-adv-x="944" 
d="M801 1444v-1751h-658v205h410v1341h-410v205h658z" />
    <glyph glyph-name="asciicircum" unicode="^" horiz-adv-x="1169" 
d="M764 750l-137 612h-82l-139 -612h-263l197 694h491l195 -694h-262z" />
    <glyph glyph-name="underscore" unicode="_" horiz-adv-x="1310" 
d="M102 -41h1106v-246h-1106v246z" />
    <glyph glyph-name="grave" unicode="`" horiz-adv-x="1140" 
d="M997 1370l-55 -233l-799 176l56 233z" />
    <glyph glyph-name="a" unicode="a" horiz-adv-x="1318" 
d="M82 283q0 137 95 215.5t319 109.5l325 45q0 65 -51.5 100t-155.5 35q-98 0 -151 -39t-53 -110h-308q0 128 68 223.5t183.5 144t260.5 48.5q110 0 204 -27.5t169.5 -83t118.5 -149.5t43 -217v-291h149v-287h-227q-73 0 -113 40t-40 114v20l51 123h-82q-16 -70 -43.5 -123
t-76 -99t-126 -70.5t-182.5 -24.5q-92 0 -162.5 22t-110 54t-64 75t-32.5 79t-8 73zM410 344q0 -41 32.5 -59.5t79.5 -18.5q136 0 217.5 54.5t81.5 148.5l-264 -37q-81 -12 -114 -29t-33 -59z" />
    <glyph glyph-name="b" unicode="b" horiz-adv-x="1409" 
d="M123 0v1505h328v-534l-62 -185h82q22 57 51 101t75.5 84t118 62t163.5 22q144 0 247.5 -74t152 -193.5t48.5 -269.5q0 -111 -28.5 -207.5t-83 -171t-141 -117t-195.5 -42.5q-74 0 -135.5 15t-103.5 39.5t-76 60.5t-55 72t-38 81h-82l62 -185v-63h-328zM451 518
q0 -252 274 -252t274 252q0 250 -274 250t-274 -250z" />
    <glyph glyph-name="c" unicode="c" horiz-adv-x="1284" 
d="M82 518q0 253 156 395t409 142q107 0 204 -29t174 -84t124.5 -142t52.5 -194h-328q-9 71 -70 116.5t-157 45.5q-116 0 -176.5 -65t-60.5 -185q0 -121 60.5 -186.5t176.5 -65.5q96 0 157 45.5t70 116.5h328q-5 -107 -52.5 -193.5t-124.5 -141.5t-173.5 -84t-204.5 -29
q-166 0 -292.5 61.5t-199.5 184.5t-73 292z" />
    <glyph glyph-name="d" unicode="d" horiz-adv-x="1409" 
d="M1286 0h-328v63l62 185h-82q-17 -45 -38 -81t-55 -72t-76 -60.5t-103.5 -39.5t-135.5 -15q-109 0 -195.5 42.5t-141 117t-83 171t-28.5 207.5q0 150 48.5 269.5t152 193.5t247.5 74q92 0 163.5 -22t118 -62t75.5 -84t51 -101h82l-62 185v534h328v-1505zM958 518
q0 250 -274 250t-274 -250q0 -252 274 -252t274 252z" />
    <glyph glyph-name="e" unicode="e" horiz-adv-x="1292" 
d="M82 530q0 243 150 384t395 141t396 -136t151 -368v-102h-785q0 -93 69 -148t204 -55q88 0 147 31t74 88h327q-6 -47 -29.5 -97.5t-69.5 -102.5t-107 -92.5t-150 -66.5t-192 -26q-144 0 -257 44.5t-182.5 121t-105 174.5t-35.5 210zM389 633h477q0 67 -56.5 111t-182.5 44
t-182 -44t-56 -111z" />
    <glyph glyph-name="f" unicode="f" horiz-adv-x="962" 
d="M725 1219q-73 0 -106 -36.5t-33 -121.5v-27h299v-286h-299v-461h299v-287h-824v287h197v461h-197v286h197v37q0 212 126 323t382 111h176v-286h-217z" />
    <glyph glyph-name="g" unicode="g" horiz-adv-x="1445" 
d="M1335 1034h90v-286h-69q-65 0 -96 -19q10 -14 19 -47.5t9 -71.5q0 -139 -119.5 -237.5t-347.5 -175.5q93 6 171.5 -5t144 -40.5t102.5 -86t37 -135.5q0 -46 -10.5 -84t-33.5 -68.5t-53.5 -55t-78 -43.5t-99 -33t-124 -24t-145 -16t-171 -9.5t-193 -5t-218.5 -1.5v287
q517 0 656.5 20t139.5 103q0 35 -25.5 57t-77 29t-106.5 7t-139.5 -10.5t-147.5 -20t-157 -25.5q-24 -4 -35 -6l-35 184q438 46 637 94v82q-114 -41 -226 -58t-211.5 -6.5t-175.5 47t-120.5 107.5t-44.5 170t45 177.5t125 127t185 74t229 25.5q258 0 409 -111q41 54 107 72
t153 18zM686 494q144 0 209.5 34.5t65.5 102.5q0 137 -275 137q-276 0 -276 -137t276 -137z" />
    <glyph glyph-name="h" unicode="h" horiz-adv-x="1388" 
d="M862 1055q200 0 312 -129.5t112 -366.5v-559h-328v508q0 142 -47.5 201t-165.5 59q-142 0 -218 -88.5t-76 -296.5v-383h-328v1505h328v-596l-62 -184h82q33 147 133 238.5t258 91.5z" />
    <glyph glyph-name="i" unicode="i" horiz-adv-x="1024" 
d="M506 1137q-92 0 -142.5 42t-50.5 121q0 78 51 121t142 43t143.5 -43t52.5 -121q0 -79 -52 -121t-144 -42zM82 0v287h293v473l-252 -12v286l389 21q86 4 132 -40.5t46 -131.5v-596h293v-287h-901z" />
    <glyph glyph-name="j" unicode="j" horiz-adv-x="710" 
d="M422 1137q-92 0 -142.5 42t-50.5 121q0 78 51 121t142 43t143.5 -43t52.5 -121q0 -79 -52 -121t-144 -42zM20 -410l218 357q34 54 34 139v674l-252 -12v286l416 15q85 3 130.5 -41t45.5 -129v-818q0 -77 -34 -139l-189 -332h-369z" />
    <glyph glyph-name="k" unicode="k" horiz-adv-x="1370" 
d="M936 0l-258 399l-227 -106v-293h-328v1505h328v-874l473 217l-4 186h327v-225q0 -74 -31 -123.5t-98 -81.5l-160 -74l351 -530h-373z" />
    <glyph glyph-name="l" unicode="l" horiz-adv-x="1003" 
d="M61 0v287h287v944l-246 -12v286l396 15q86 3 132 -41.5t46 -130.5v-1061h287v-287h-902z" />
    <glyph glyph-name="m" unicode="m" horiz-adv-x="1953" 
d="M1507 1055q96 0 164.5 -40.5t107 -114t55.5 -162.5t17 -199v-539h-327v516q0 148 -31.5 200t-122.5 52q-65 0 -109 -27.5t-67.5 -83t-33 -125.5t-9.5 -170v-362h-328v516q0 148 -31.5 200t-121.5 52q-65 0 -109 -27.5t-67.5 -83t-33 -125.5t-9.5 -170v-362h-328v1034h328
v-104l-62 -185h82q33 148 113 229t223 81q138 0 210 -81.5t97 -228.5h60q33 149 111.5 229.5t221.5 80.5z" />
    <glyph glyph-name="n" unicode="n" horiz-adv-x="1388" 
d="M745 768q-142 0 -218 -88.5t-76 -296.5v-383h-328v1034h328v-125l-62 -184h82q33 147 133 238.5t258 91.5q200 0 312 -129.5t112 -366.5v-559h-328v508q0 142 -47.5 201t-165.5 59z" />
    <glyph glyph-name="o" unicode="o" horiz-adv-x="1329" 
d="M82 518q0 132 45 235.5t125 168.5t185 99t229 34q123 0 227.5 -34t184 -99t124.5 -168.5t45 -235.5t-45 -236t-124.5 -169.5t-184 -99t-227.5 -33.5q-124 0 -229 33.5t-185 99t-125 169.5t-45 236zM410 518q0 -127 67.5 -189.5t188.5 -62.5q120 0 187 62.5t67 189.5
q0 125 -67.5 187.5t-186.5 62.5q-121 0 -188.5 -62.5t-67.5 -187.5z" />
    <glyph glyph-name="p" unicode="p" horiz-adv-x="1409" 
d="M123 1034h328v-63l-62 -185h82q22 57 51 101t75.5 84t118 62t163.5 22q144 0 247.5 -74.5t152 -194.5t48.5 -270q0 -111 -28.5 -207.5t-83 -170t-141 -116t-195.5 -42.5q-74 0 -135.5 15t-103.5 39.5t-76 60.5t-55 72t-38 81h-82l62 -185v-452h-328v1423zM451 516
q0 -250 274 -250t274 250q0 252 -274 252t-274 -252z" />
    <glyph glyph-name="q" unicode="q" horiz-adv-x="1409" 
d="M1286 1034v-1423h-328v452l62 185h-82q-17 -45 -38 -81t-55 -72t-76 -60.5t-103.5 -39.5t-135.5 -15q-109 0 -195.5 42.5t-141 116t-83 170t-28.5 207.5q0 150 48.5 270t152 194.5t247.5 74.5q92 0 163.5 -22t118 -62t75.5 -84t51 -101h82l-62 185v63h328zM958 516
q0 252 -274 252t-274 -252q0 -250 274 -250t274 250z" />
    <glyph glyph-name="r" unicode="r" horiz-adv-x="997" 
d="M123 0v879q0 85 45.5 129.5t130.5 42.5l678 -17v-286l-526 12v-760h-328z" />
    <glyph glyph-name="s" unicode="s" horiz-adv-x="1128" 
d="M1087 285q0 -141 -114 -223t-367 -82q-277 0 -411 103.5t-134 291.5h328q0 -67 53.5 -108.5t173.5 -41.5q144 0 144 70q0 35 -45 59q-29 15 -178 64q-16 5 -58 18.5t-61 19.5t-57.5 20.5t-58 24.5t-51 27t-48 32.5t-37.5 38.5t-31.5 46.5t-18 54t-7.5 64.5
q0 138 118 214.5t332 76.5q127 0 224 -30t155 -82.5t86.5 -118.5t28.5 -144h-328q0 58 -43 93.5t-125 35.5q-121 0 -121 -59q0 -36 88 -73q43 -17 178 -61q162 -53 216 -80q128 -63 158 -168q11 -38 11 -83z" />
    <glyph glyph-name="t" unicode="t" horiz-adv-x="1036" 
d="M594 266l381 21v-287l-535 -20q-84 -3 -129 43t-45 131v594h-246v286h246v195l328 102v-297h340v-286h-340v-482z" />
    <glyph glyph-name="u" unicode="u" horiz-adv-x="1368" 
d="M643 266q143 0 219 88.5t76 296.5v383h328v-1034h-328v125l61 184h-81q-33 -146 -133.5 -237.5t-258.5 -91.5q-200 0 -312 129t-112 366v559h328v-508q0 -142 47.5 -201t165.5 -59z" />
    <glyph glyph-name="v" unicode="v" horiz-adv-x="1243" 
d="M899 1034h324l-262 -1034h-676l-265 1034h324l238 -952h82z" />
    <glyph glyph-name="w" unicode="w" horiz-adv-x="1941" 
d="M20 1034h314l133 -952h82l80 952h684l80 -952h82l135 952h311l-145 -1034h-684l-80 952h-82l-80 -952h-684z" />
    <glyph glyph-name="x" unicode="x" horiz-adv-x="1380" 
d="M61 0l394 477v82l-394 475h390l239 -332l240 332h389l-393 -475v-82l393 -477h-389l-240 334l-239 -334h-390z" />
    <glyph glyph-name="y" unicode="y" horiz-adv-x="1376" 
d="M965 1034h370l-473 -973v-319q0 -86 -45.5 -130.5t-130.5 -41.5l-506 14v287l355 -6v196l-474 973h369l227 -569v-164h82v164z" />
    <glyph glyph-name="z" unicode="z" horiz-adv-x="1181" 
d="M82 0v553l936 174v82l-184 -61h-752v286h1018v-553l-936 -174v-82l184 62h752v-287h-1018z" />
    <glyph glyph-name="braceleft" unicode="{" horiz-adv-x="1359" 
d="M741 1239l-184 61v-81q105 -25 173.5 -47.5t129 -55t94 -73t52 -97.5t18.5 -133q0 -107 -70 -240q70 -133 70 -239q0 -76 -18.5 -133t-52 -97.5t-94 -73t-129 -55t-173.5 -47.5v-82l184 62h455v-205h-721v350q87 27 144.5 53.5t106 65t71 92.5t22.5 127
q-149 -149 -309 -149q-155 0 -250.5 88t-95.5 243q0 159 89.5 245.5t256.5 86.5q160 0 309 -149q0 73 -22.5 127t-71 92.5t-106 65t-144.5 53.5v350h721v-205h-455zM549 426q49 0 104 42t99 105q-44 64 -99 106t-104 42q-60 0 -99.5 -38.5t-39.5 -109.5q0 -70 39.5 -108.5
t99.5 -38.5z" />
    <glyph glyph-name="bar" unicode="|" horiz-adv-x="532" 
d="M143 1747h246v-2050h-246v2050z" />
    <glyph glyph-name="braceright" unicode="}" horiz-adv-x="1318" 
d="M1176 573q0 -155 -95.5 -243t-251.5 -88q-160 0 -309 149q0 -73 22.5 -127t71 -92.5t106 -65t144.5 -53.5v-350h-721v205h455l184 -62v82q-105 25 -173.5 47.5t-129 55t-94 73t-52 97.5t-18.5 133q0 106 70 239q-70 133 -70 240q0 76 18.5 133t52 97.5t94 73t129 55
t173.5 47.5v81l-184 -61h-455v205h721v-350q-87 -27 -144.5 -53.5t-106 -65t-71 -92.5t-22.5 -127q149 149 309 149q167 0 257 -86.5t90 -245.5zM588 573q44 -63 99 -105t104 -42q60 0 99.5 38.5t39.5 108.5q0 71 -39.5 109.5t-99.5 38.5q-49 0 -104 -42t-99 -106z" />
    <glyph glyph-name="asciitilde" unicode="~" horiz-adv-x="1368" 
d="M143 348q0 192 78.5 301t212.5 109q67 0 138 -25.5t119.5 -56.5t102 -56.5t89.5 -25.5q51 0 73.5 37t22.5 127h246q0 -192 -78.5 -301t-212.5 -109q-67 0 -138 25.5t-119.5 56.5t-102 56.5t-89.5 25.5q-51 0 -73.5 -37t-22.5 -127h-246z" />
    <glyph glyph-name="exclamdown" unicode="&#xa1;" horiz-adv-x="739" 
d="M369 1055q100 0 163.5 -65t63.5 -163q0 -95 -63.5 -159t-163.5 -64q-102 0 -163 63.5t-61 159.5q0 99 61 163.5t163 64.5zM207 -410l61 914h205l62 -914h-328z" />
    <glyph glyph-name="cent" unicode="&#xa2;" horiz-adv-x="1406" 
d="M805 496q57 19 91 57.5t40 89.5h328q-9 -188 -138 -302.5t-321 -139.5v-504l-201 2v502q-211 30 -336 168.5t-125 363.5q0 224 124.5 362.5t332.5 166.5v485l203 -2v-481q194 -25 323 -140t138 -303h-328q-6 52 -40.5 90.5t-92.5 57.5zM471 733q0 -180 131 -233v465
q-131 -53 -131 -232z" />
    <glyph glyph-name="sterling" unicode="&#xa3;" horiz-adv-x="1388" 
d="M754 1157q-113 5 -171.5 -15.5t-58.5 -84.5q0 -33 16 -67t34 -56.5t51 -58.5l4.5 -4.5t3.5 -4t4 -4.5h526v-205h-413q4 -32 4 -55q0 -54 -20 -96.5t-55.5 -70.5t-84.5 -49t-107 -34.5t-121.5 -24t-129.5 -19.5q-7 -1 -11 -1v-82l185 62h835v-287h-1102v428
q48 12 78.5 20.5t64 20t52.5 23t38 27.5t28.5 35.5t15.5 45t6 57.5h-283v205h170q-36 39 -57 67.5t-40 82t-19 116.5q0 73 36.5 130.5t94.5 93t135 58t154.5 30t156.5 4.5l471 -21v-286z" />
    <glyph glyph-name="currency" unicode="&#xa4;" horiz-adv-x="1589" 
d="M1276 721q0 -144 -74 -264l244 -244l-143 -143l-246 245q-110 -69 -256 -69q-149 0 -264 73l-250 -249l-144 143l252 252q-69 113 -69 256t69 256l-252 252l144 143l250 -250q117 74 264 74q144 0 256 -70l246 246l143 -143l-244 -244q74 -120 74 -264zM801 492
q100 0 164.5 66.5t64.5 162.5t-64.5 162.5t-164.5 66.5t-165 -67t-65 -162t65 -162t165 -67z" />
    <glyph glyph-name="yen" unicode="&#xa5;" horiz-adv-x="1685" 
d="M1542 1444l-430 -787h283v-204h-389v-82h389v-205h-389v-166h-328v166h-389v205h389v82h-389v204h284l-430 787h351l307 -602v-185h82v185l309 602h350z" />
    <glyph glyph-name="brokenbar" unicode="&#xa6;" horiz-adv-x="532" 
d="M143 989v758h246v-758h-246zM389 455v-758h-246v758h246z" />
    <glyph glyph-name="section" unicode="&#xa7;" horiz-adv-x="1265" 
d="M143 729q0 70 47.5 128.5t151.5 82.5q-115 49 -157 102.5t-42 131.5q0 138 118.5 214t332.5 76q127 0 224 -30t154.5 -82t86 -118t28.5 -144h-327q0 58 -43 93.5t-125 35.5q-58 0 -89.5 -15.5t-31.5 -42.5q0 -12 5.5 -22.5t19.5 -20t27.5 -17t40.5 -16.5t48 -15.5
t59.5 -18.5t65.5 -21q170 -56 230 -87q131 -68 151 -180q4 -23 4 -48q0 -70 -47 -128.5t-151 -82.5q114 -49 156 -102.5t42 -131.5q0 -138 -118 -214t-332 -76q-127 0 -224 30t-155 82t-86.5 118t-28.5 144h328q0 -58 43 -93.5t125 -35.5q58 0 89.5 15.5t31.5 42.5
q0 12 -5.5 22.5t-19.5 20t-28 17t-41 16.5l-48 16t-59.5 18.5t-65.5 20.5q-170 56 -230 87q-131 68 -151 180q-4 23 -4 48zM451 764q0 -47 44.5 -79.5t129.5 -59.5q86 -29 138 -16.5t52 69.5q0 47 -42.5 76t-133.5 61q-85 32 -136.5 20t-51.5 -71z" />
    <glyph glyph-name="dieresis" unicode="&#xa8;" horiz-adv-x="1228" 
d="M346 1137q-98 0 -150.5 42t-52.5 121q0 78 52.5 121t150.5 43t152.5 -43t54.5 -121q0 -79 -54 -121t-153 -42zM879 1137q-98 0 -150.5 42t-52.5 121q0 78 52.5 121t150.5 43t152 -43t54 -121q0 -79 -53.5 -121t-152.5 -42z" />
    <glyph glyph-name="copyright" unicode="&#xa9;" horiz-adv-x="2326" 
d="M1163 -444q-186 0 -348 51.5t-284 145t-210 220t-133 280.5t-45 322q0 211 71.5 397t201 324t323 218.5t424.5 80.5t424.5 -80.5t323 -218.5t201 -324t71.5 -397q0 -168 -45 -322t-133 -280.5t-210 -220t-284 -145t-348 -51.5zM1163 -240q184 0 339 65.5t258 177
t160.5 259.5t57.5 313t-57.5 313t-160.5 260t-258 177.5t-339 65.5t-339 -65.5t-258 -177.5t-160.5 -260t-57.5 -313t57.5 -313t160.5 -259.5t258 -177t339 -65.5zM604 578q0 168 73 290.5t199.5 184t292.5 61.5q108 0 204.5 -29t173.5 -84t124.5 -141.5t52.5 -193.5h-327
q-9 71 -70.5 116t-157.5 45q-116 0 -176.5 -64.5t-60.5 -184.5q0 -121 60.5 -186.5t176.5 -65.5q96 0 157.5 45t70.5 116h327q-5 -107 -52.5 -193.5t-124.5 -141.5t-173.5 -84t-204.5 -29q-254 0 -409.5 142.5t-155.5 396.5z" />
    <glyph glyph-name="guillemotleft" unicode="&#xab;" horiz-adv-x="1734" 
d="M977 20l-180 -163l-654 651l654 649l180 -164l-485 -485zM1591 20l-180 -163l-653 651l653 649l180 -164l-485 -485z" />
    <glyph glyph-name="logicalnot" unicode="&#xac;" horiz-adv-x="1392" 
d="M1249 850v-551h-245v305h-861v246h1106z" />
    <glyph glyph-name="registered" unicode="&#xae;" horiz-adv-x="1499" 
d="M750 444q-140 0 -256 48t-192 130.5t-117.5 192.5t-41.5 236q0 100 26 191t77.5 166.5t124 131t169.5 86.5t210 31q186 0 325.5 -82.5t210 -218.5t70.5 -305q0 -126 -41.5 -236t-117.5 -192.5t-191.5 -130.5t-255.5 -48zM750 608q138 0 240 61.5t152 161t50 220.5
t-50 220t-152 160.5t-240 61.5q-104 0 -189 -35.5t-140 -96.5t-84.5 -140.5t-29.5 -169.5t29.5 -170t84.5 -141t140 -96.5t189 -35.5zM485 768v575h254q51 0 96.5 -7t93.5 -23.5t76.5 -51.5t28.5 -85q0 -38 -14.5 -64.5t-41.5 -40.5t-54 -21t-64 -10v-41h123q51 0 51 -51
v-180h-155v160h-238v-160h-156zM641 1083h98q40 0 59.5 1t41.5 6t30.5 16.5t8.5 30.5t-8.5 29.5t-31 15t-41 5.5t-59.5 1h-98v-105z" />
    <glyph glyph-name="macron" unicode="&#xaf;" horiz-adv-x="1167" 
d="M143 1475h881v-242l-881 -4v246z" />
    <glyph glyph-name="degree" unicode="&#xb0;" horiz-adv-x="1236" 
d="M618 575q-139 0 -248.5 65t-168 173t-58.5 238q0 199 133 337t342 138q104 0 194 -38t151.5 -102t96 -151t34.5 -184q0 -199 -133.5 -337.5t-342.5 -138.5zM618 821q100 0 165 67t65 163q0 95 -65 162t-165 67t-164.5 -66.5t-64.5 -162.5t65 -163t164 -67z" />
    <glyph glyph-name="plusminus" unicode="&#xb1;" horiz-adv-x="1392" 
d="M819 901h430v-246h-430v-286h-246v286h-430v246h430v285h246v-285zM143 0v246h1106v-246h-1106z" />
    <glyph glyph-name="acute" unicode="&#xb4;" horiz-adv-x="1140" 
d="M143 1370l799 176l55 -233l-798 -176z" />
    <glyph glyph-name="paragraph" unicode="&#xb6;" horiz-adv-x="1523" 
d="M764 1747h246v-2050h-246v1030q-120 0 -215.5 17.5t-163 51.5t-115 79t-75 103.5t-40 121.5t-12.5 137t12.5 137t40 121.5t75 103.5t115 79t163 51.5t215.5 17.5zM1135 1747h245v-2050h-245v2050z" />
    <glyph glyph-name="periodcentered" unicode="&#xb7;" horiz-adv-x="737" 
d="M367 293q-102 0 -163 64t-61 163q0 96 61 159.5t163 63.5q100 0 163.5 -64t63.5 -159q0 -98 -63.5 -162.5t-163.5 -64.5z" />
    <glyph glyph-name="cedilla" unicode="&#xb8;" horiz-adv-x="858" 
d="M539 -82q47 0 83.5 -9.5t64.5 -39.5t28 -78q0 -42 -17 -75.5t-45 -56.5t-72.5 -39.5t-90 -26t-107.5 -15t-116 -7t-124 -1.5v184h74q148 -1 200 6.5t52 40.5q0 15 -13 25t-34 10q-55 0 -160 -37l-104 80l55 121h246l-111 -123q87 41 191 41z" />
    <glyph glyph-name="guillemotright" unicode="&#xbb;" horiz-adv-x="1734" 
d="M143 20l486 488l-486 485l181 164l653 -649l-653 -651zM758 20l485 488l-485 485l180 164l653 -649l-653 -651z" />
    <glyph glyph-name="onequarter" unicode="&#xbc;" horiz-adv-x="2447" 
d="M1386 1667l232 -90l-692 -1800l-232 90zM61 1221q68 56 96.5 92.5t45 91t28.5 162.5h463v-973h-245v747l40 144h-61q-5 -78 -18 -143t-40.5 -136t-79.5 -125.5t-124 -85.5zM1556 123v504q326 61 373 346h246q-10 -97 -46.5 -185.5t-103.5 -170t-176.5 -141.5t-251.5 -87
v-61l144 41h266v161h246v-161h133v-246h-133v-123h-246v123h-451z" />
    <glyph glyph-name="onehalf" unicode="&#xbd;" horiz-adv-x="2416" 
d="M1386 1667l232 -90l-692 -1800l-232 90zM61 1221q68 56 96.5 92.5t45 91t28.5 162.5h463v-973h-245v747l40 144h-61q-5 -78 -18 -143t-40.5 -136t-79.5 -125.5t-124 -85.5zM1536 559q0 87 27 164t79.5 138t138.5 96.5t195 35.5q100 0 176 -28.5t119 -77.5t63.5 -107
t20.5 -123q0 -86 -35.5 -152.5t-94 -110.5t-149.5 -76.5t-186 -50.5t-219 -31v-62l144 31h540v-205h-766v379q4 1 35 4.5t53 6.5t62.5 10t71 14.5t71 20.5t70.5 27t61 34.5t51 43.5t32.5 53t12.5 64q0 56 -35.5 93.5t-115.5 37.5q-98 0 -137 -56t-39 -173h-246z" />
    <glyph glyph-name="threequarters" unicode="&#xbe;" horiz-adv-x="2596" 
d="M1536 1667l231 -90l-692 -1800l-231 90zM61 969h246q0 -57 14 -94.5t43.5 -56.5t63 -25.5t82.5 -6.5q85 0 126.5 24.5t41.5 92.5q0 33 -11 54.5t-33.5 31.5t-45 13.5t-56.5 3.5h-98v202h98q67 0 99.5 17.5t32.5 72.5q0 52 -36.5 72.5t-117.5 20.5q-96 0 -143.5 -28.5
t-47.5 -102.5h-245q0 159 115 247t321 88q199 0 300 -73.5t101 -186.5q0 -52 -18.5 -89t-54.5 -58.5t-73.5 -32.5t-92.5 -20v-62q37 -7 55 -11t50 -13t48.5 -18t38.5 -24.5t33 -34t19 -45t8 -59.5q0 -134 -105 -210t-309 -76q-212 0 -330.5 96.5t-118.5 290.5zM1706 123v504
q326 61 373 346h245q-10 -97 -46.5 -185.5t-103 -170t-176 -141.5t-251.5 -87v-61l143 41h267v161h245v-161h133v-246h-133v-123h-245v123h-451z" />
    <glyph glyph-name="questiondown" unicode="&#xbf;" horiz-adv-x="1136" 
d="M573 1055q102 0 163 -64.5t61 -163.5q0 -96 -61 -159.5t-163 -63.5q-100 0 -163.5 64t-63.5 159q0 98 63.5 163t163.5 65zM1034 -72q0 -89 -28 -163t-84.5 -132.5t-151.5 -91.5t-221 -33q-114 0 -200 29.5t-133.5 78.5t-70 105t-22.5 117q0 68 23.5 126t61.5 100t96 76.5
t117.5 57t135.5 40.5t141.5 28.5t143.5 18.5v69l-156 -55h-467v205h705v-406q-115 -2 -210.5 -17t-175 -43.5t-124.5 -77.5t-45 -114q0 -67 50 -100t134 -33q124 0 179.5 54.5t55.5 160.5h246z" />
    <glyph glyph-name="Agrave" unicode="&#xc0;" horiz-adv-x="1591" 
d="M1243 1780l-55 -234l-799 176l55 234zM1219 0l-132 463h-585l-129 -463h-332l416 1444h676l417 -1444h-331zM582 750h426l-172 612h-82z" />
    <glyph glyph-name="Aacute" unicode="&#xc1;" horiz-adv-x="1591" 
d="M1202 1722l-799 -176l-55 234l799 176zM1219 0l-132 463h-585l-129 -463h-332l416 1444h676l417 -1444h-331zM582 750h426l-172 612h-82z" />
    <glyph glyph-name="Acircumflex" unicode="&#xc2;" horiz-adv-x="1591" 
d="M797 1710l-269 -186l-174 164l443 309l442 -309l-174 -164zM1219 0l-132 463h-585l-129 -463h-332l416 1444h676l417 -1444h-331zM582 750h426l-172 612h-82z" />
    <glyph glyph-name="Atilde" unicode="&#xc3;" horiz-adv-x="1591" 
d="M639 1782q-38 0 -57 -29t-19 -115h-246q0 180 80.5 285t220.5 105q52 0 97.5 -17t76.5 -41t58 -48t53.5 -41t50.5 -17q38 0 57 29t19 114h246q0 -179 -80.5 -284t-220.5 -105q-52 0 -97.5 17t-76.5 41t-58 48t-53.5 41t-50.5 17zM1219 0l-132 463h-585l-129 -463h-332
l416 1444h676l417 -1444h-331zM582 750h426l-172 612h-82z" />
    <glyph glyph-name="Adieresis" unicode="&#xc4;" horiz-adv-x="1591" 
d="M528 1546q-98 0 -150 42t-52 122q0 78 52 121t150 43t152.5 -43t54.5 -121q0 -79 -54 -121.5t-153 -42.5zM1061 1546q-98 0 -150.5 42.5t-52.5 121.5q0 78 52.5 121t150.5 43t152.5 -43t54.5 -121q0 -79 -54 -121.5t-153 -42.5zM1219 0l-132 463h-585l-129 -463h-332
l416 1444h676l417 -1444h-331zM582 750h426l-172 612h-82z" />
    <glyph glyph-name="Aring" unicode="&#xc5;" horiz-adv-x="1591" 
d="M795 1546q-153 0 -237.5 63.5t-84.5 188.5q0 124 85 188t237 64t237.5 -64t85.5 -188t-85.5 -188t-237.5 -64zM795 1864q-76 0 -76 -66q0 -67 76 -67q77 0 77 67q0 66 -77 66zM1219 0l-132 463h-585l-129 -463h-332l416 1444h676l417 -1444h-331zM582 750h426l-172 612
h-82z" />
    <glyph glyph-name="AE" unicode="&#xc6;" horiz-adv-x="2260" 
d="M2179 1157h-702v-291h600v-286h-600v-293h702v-287h-1030v479h-516l-246 -479h-346l743 1444h1395v-287zM780 766h369v596h-62z" />
    <glyph glyph-name="Ccedilla" unicode="&#xc7;" horiz-adv-x="1658" 
d="M848 266q151 0 254 76.5t127 216.5h327q-29 -249 -193.5 -400.5t-428.5 -174.5l-96 -107q87 41 190 41q47 0 83.5 -9.5t64.5 -39.5t28 -78q0 -42 -17 -75.5t-44.5 -56.5t-72 -39.5t-90 -26t-107.5 -15t-116 -7t-124 -1.5v184h74q147 -1 199 6.5t52 40.5q0 15 -13 25
t-34 10q-54 0 -159 -37l-105 80l51 113q-276 44 -436 244.5t-160 486.5q0 210 88.5 377.5t259 265.5t394.5 98q301 0 490.5 -154.5t221.5 -422.5h-327q-24 140 -127 215.5t-254 75.5q-193 0 -305.5 -118t-112.5 -337q0 -220 112.5 -338.5t305.5 -118.5z" />
    <glyph glyph-name="Egrave" unicode="&#xc8;" horiz-adv-x="1234" 
d="M1085 1780l-55 -234l-799 176l56 234zM123 0v1444h1030v-287h-702v-291h600v-286h-600v-293h702v-287h-1030z" />
    <glyph glyph-name="Eacute" unicode="&#xc9;" horiz-adv-x="1234" 
d="M190 1780l799 176l55 -234l-798 -176zM123 0v1444h1030v-287h-702v-291h600v-286h-600v-293h702v-287h-1030z" />
    <glyph glyph-name="Ecircumflex" unicode="&#xca;" horiz-adv-x="1234" 
d="M1081 1688l-174 -164l-268 186l-268 -186l-174 164l442 309zM123 0v1444h1030v-287h-702v-291h600v-286h-600v-293h702v-287h-1030z" />
    <glyph glyph-name="Edieresis" unicode="&#xcb;" horiz-adv-x="1234" 
d="M371 1546q-98 0 -150.5 42.5t-52.5 121.5q0 78 52.5 121t150.5 43t152.5 -43t54.5 -121q0 -79 -54 -121.5t-153 -42.5zM903 1546q-98 0 -150.5 42.5t-52.5 121.5q0 78 52.5 121t150.5 43t152.5 -43t54.5 -121q0 -79 -54 -121.5t-153 -42.5zM123 0v1444h1030v-287h-702
v-291h600v-286h-600v-293h702v-287h-1030z" />
    <glyph glyph-name="Igrave" unicode="&#xcc;" horiz-adv-x="1187" 
d="M1040 1780l-55 -234l-799 176l56 234zM1085 1157h-327v-870h327v-287h-983v287h328v870h-328v287h983v-287z" />
    <glyph glyph-name="Iacute" unicode="&#xcd;" horiz-adv-x="1187" 
d="M999 1722l-798 -176l-56 234l799 176zM1085 1157h-327v-870h327v-287h-983v287h328v870h-328v287h983v-287z" />
    <glyph glyph-name="Icircumflex" unicode="&#xce;" horiz-adv-x="1187" 
d="M594 1710l-268 -186l-174 164l442 309l442 -309l-174 -164zM1085 1157h-327v-870h327v-287h-983v287h328v870h-328v287h983v-287z" />
    <glyph glyph-name="Idieresis" unicode="&#xcf;" horiz-adv-x="1187" 
d="M326 1546q-98 0 -150.5 42.5t-52.5 121.5q0 78 52.5 121t150.5 43t152 -43t54 -121q0 -79 -53.5 -121.5t-152.5 -42.5zM858 1546q-98 0 -150.5 42.5t-52.5 121.5q0 78 52.5 121t150.5 43t152.5 -43t54.5 -121q0 -79 -54 -121.5t-153 -42.5zM1085 1157h-327v-870h327v-287
h-983v287h328v870h-328v287h983v-287z" />
    <glyph glyph-name="Eth" unicode="&#xd0;" horiz-adv-x="1708" 
d="M819 1444q89 0 165 -7t158.5 -27.5t148 -53.5t126.5 -88.5t101 -129.5t64 -179.5t24 -235.5t-24 -236t-64 -180t-101 -130t-126.5 -89t-148 -53.5t-158.5 -27.5t-165 -7h-532v625h-185v245h185v574h532zM819 287q50 0 84 1t77 6t72 13.5t63 24.5t56 38t44 55t35 75
t20.5 98.5t7.5 124.5q0 61 -5.5 112.5t-18 91.5t-27 72t-37.5 55.5t-45 40.5t-54 28.5t-59.5 18t-67 10t-70.5 4.5t-75 1h-205v-287h304v-245h-304v-338h205z" />
    <glyph glyph-name="Ntilde" unicode="&#xd1;" horiz-adv-x="1675" 
d="M399 1638q0 180 80.5 285t220.5 105q52 0 97.5 -17t76.5 -41t58 -48t53.5 -41t50.5 -17q38 0 57 29t19 114h246q0 -179 -80.5 -284t-220.5 -105q-52 0 -97.5 17t-76.5 41t-58 48t-53.5 41t-50.5 17q-38 0 -57 -29t-19 -115h-246zM123 0v1444h645l436 -1362h82l-61 205
v1157h327v-1444h-645l-436 1362h-82l62 -205v-1157h-328z" />
    <glyph glyph-name="Ograve" unicode="&#xd2;" horiz-adv-x="1677" 
d="M1286 1780l-55 -234l-799 176l55 234zM102 723q0 157 51.5 293t145 235t233 156t308.5 57q168 0 307 -57t232.5 -156t144.5 -235t51 -293q0 -158 -51 -294t-144.5 -235.5t-232.5 -156.5t-307 -57q-169 0 -308.5 57t-233 156.5t-145 235.5t-51.5 294zM430 723
q0 -214 105 -335.5t305 -121.5t303.5 121.5t103.5 335.5q0 212 -104 333.5t-303 121.5q-200 0 -305 -121.5t-105 -333.5z" />
    <glyph glyph-name="Oacute" unicode="&#xd3;" horiz-adv-x="1677" 
d="M391 1780l799 176l55 -234l-799 -176zM102 723q0 157 51.5 293t145 235t233 156t308.5 57q168 0 307 -57t232.5 -156t144.5 -235t51 -293q0 -158 -51 -294t-144.5 -235.5t-232.5 -156.5t-307 -57q-169 0 -308.5 57t-233 156.5t-145 235.5t-51.5 294zM430 723
q0 -214 105 -335.5t305 -121.5t303.5 121.5t103.5 335.5q0 212 -104 333.5t-303 121.5q-200 0 -305 -121.5t-105 -333.5z" />
    <glyph glyph-name="Ocircumflex" unicode="&#xd4;" horiz-adv-x="1677" 
d="M1282 1688l-174 -164l-268 186l-269 -186l-174 164l443 309zM102 723q0 157 51.5 293t145 235t233 156t308.5 57q168 0 307 -57t232.5 -156t144.5 -235t51 -293q0 -158 -51 -294t-144.5 -235.5t-232.5 -156.5t-307 -57q-169 0 -308.5 57t-233 156.5t-145 235.5t-51.5 294
zM430 723q0 -214 105 -335.5t305 -121.5t303.5 121.5t103.5 335.5q0 212 -104 333.5t-303 121.5q-200 0 -305 -121.5t-105 -333.5z" />
    <glyph glyph-name="Otilde" unicode="&#xd5;" horiz-adv-x="1677" 
d="M360 1638q0 179 81 284.5t221 105.5q52 0 97.5 -17t76.5 -41t57.5 -48t53 -41t50.5 -17q38 0 57 29t19 114h246q0 -179 -80.5 -284t-220.5 -105q-52 0 -97.5 17t-76.5 41t-58 48t-53.5 41t-50.5 17q-38 0 -57 -29t-19 -115h-246zM102 723q0 157 51.5 293t145 235t233 156
t308.5 57q168 0 307 -57t232.5 -156t144.5 -235t51 -293q0 -158 -51 -294t-144.5 -235.5t-232.5 -156.5t-307 -57q-169 0 -308.5 57t-233 156.5t-145 235.5t-51.5 294zM430 723q0 -214 105 -335.5t305 -121.5t303.5 121.5t103.5 335.5q0 212 -104 333.5t-303 121.5
q-200 0 -305 -121.5t-105 -333.5z" />
    <glyph glyph-name="Odieresis" unicode="&#xd6;" horiz-adv-x="1677" 
d="M571 1546q-98 0 -150 42t-52 122q0 78 52 121t150 43t152.5 -43t54.5 -121q0 -79 -54 -121.5t-153 -42.5zM1104 1546q-98 0 -150.5 42.5t-52.5 121.5q0 78 52.5 121t150.5 43t152.5 -43t54.5 -121q0 -79 -54 -121.5t-153 -42.5zM102 723q0 157 51.5 293t145 235t233 156
t308.5 57q168 0 307 -57t232.5 -156t144.5 -235t51 -293q0 -158 -51 -294t-144.5 -235.5t-232.5 -156.5t-307 -57q-169 0 -308.5 57t-233 156.5t-145 235.5t-51.5 294zM430 723q0 -214 105 -335.5t305 -121.5t303.5 121.5t103.5 335.5q0 212 -104 333.5t-303 121.5
q-200 0 -305 -121.5t-105 -333.5z" />
    <glyph glyph-name="multiply" unicode="&#xd7;" horiz-adv-x="1243" 
d="M1100 836l-303 -304l303 -305l-174 -174l-303 305l-306 -305l-174 174l306 305l-306 304l174 174l306 -303l303 303z" />
    <glyph glyph-name="Oslash" unicode="&#xd8;" horiz-adv-x="1677" 
d="M1303 1319q131 -100 201.5 -254.5t70.5 -341.5q0 -158 -51 -294t-144.5 -235.5t-232.5 -156.5t-307 -57q-161 0 -289 49l-98 -170l-172 100l96 166q-132 100 -203.5 255.5t-71.5 342.5q0 157 51.5 293t145 235t233 156t308.5 57q155 0 282 -47l99 168l176 -102zM430 723
q0 -215 100 -330l445 768q-70 17 -135 17q-200 0 -305 -121.5t-105 -333.5zM840 266q200 0 303.5 121.5t103.5 335.5q0 212 -100 330l-447 -768q65 -19 140 -19z" />
    <glyph glyph-name="Ugrave" unicode="&#xd9;" horiz-adv-x="1468" 
d="M1180 1780l-56 -234l-798 176l55 234zM82 537v907h328v-762q0 -55 1.5 -92.5t6.5 -81t15 -72t25.5 -58.5t40 -48.5t57 -34t77 -22.5t100.5 -7t100.5 7t77.5 22t57.5 34t40.5 48.5t26 59t15.5 72t7 81t1.5 92.5v762h327v-907q0 -271 -166.5 -414t-486.5 -143t-485.5 143
t-165.5 414z" />
    <glyph glyph-name="Uacute" unicode="&#xda;" horiz-adv-x="1468" 
d="M285 1780l798 176l56 -234l-799 -176zM82 537v907h328v-762q0 -55 1.5 -92.5t6.5 -81t15 -72t25.5 -58.5t40 -48.5t57 -34t77 -22.5t100.5 -7t100.5 7t77.5 22t57.5 34t40.5 48.5t26 59t15.5 72t7 81t1.5 92.5v762h327v-907q0 -271 -166.5 -414t-486.5 -143t-485.5 143
t-165.5 414z" />
    <glyph glyph-name="Ucircumflex" unicode="&#xdb;" horiz-adv-x="1468" 
d="M1176 1688l-175 -164l-268 186l-268 -186l-174 164l442 309zM82 537v907h328v-762q0 -55 1.5 -92.5t6.5 -81t15 -72t25.5 -58.5t40 -48.5t57 -34t77 -22.5t100.5 -7t100.5 7t77.5 22t57.5 34t40.5 48.5t26 59t15.5 72t7 81t1.5 92.5v762h327v-907q0 -271 -166.5 -414
t-486.5 -143t-485.5 143t-165.5 414z" />
    <glyph glyph-name="Udieresis" unicode="&#xdc;" horiz-adv-x="1468" 
d="M465 1546q-98 0 -150.5 42.5t-52.5 121.5q0 78 52.5 121t150.5 43t152.5 -43t54.5 -121q0 -79 -54 -121.5t-153 -42.5zM997 1546q-98 0 -150 42t-52 122q0 78 52 121t150 43t152.5 -43t54.5 -121q0 -79 -54 -121.5t-153 -42.5zM82 537v907h328v-762q0 -55 1.5 -92.5
t6.5 -81t15 -72t25.5 -58.5t40 -48.5t57 -34t77 -22.5t100.5 -7t100.5 7t77.5 22t57.5 34t40.5 48.5t26 59t15.5 72t7 81t1.5 92.5v762h327v-907q0 -271 -166.5 -414t-486.5 -143t-485.5 143t-165.5 414z" />
    <glyph glyph-name="Yacute" unicode="&#xdd;" horiz-adv-x="1480" 
d="M291 1780l799 176l55 -234l-799 -176zM1090 1444h350l-537 -979v-465h-328v465l-534 979h350l307 -602v-185h82v185z" />
    <glyph glyph-name="Thorn" unicode="&#xde;" horiz-adv-x="1366" 
d="M641 1229q84 0 151 -5t135.5 -19t120 -37.5t98 -62t75.5 -91t46 -126t17 -165.5t-17 -166t-46 -126.5t-75.5 -91t-98 -62.5t-120 -38t-135.5 -19t-151 -5h-190v-215h-328v1444h328v-215h190zM662 502q74 0 107.5 2t78.5 12.5t62.5 33.5t31.5 65.5t14 107.5t-14 107
t-31.5 64.5t-62.5 33.5t-78.5 12.5t-107.5 1.5h-211v-440h211z" />
    <glyph glyph-name="germandbls" unicode="&#xdf;" horiz-adv-x="1380" 
d="M565 0v287l254 -19q103 -8 148 20.5t45 112.5q0 41 -20.5 71t-53 48t-72.5 33t-79.5 32.5t-72 40t-53 61.5t-20.5 91q0 53 21 96t50.5 70t59.5 50.5t51 48.5t21 51q0 43 -36 63.5t-122 20.5q-112 0 -173.5 -56t-61.5 -194v-928h-328v969q0 134 43 232t122 154.5
t177.5 82.5t220.5 26q123 0 218.5 -25.5t152 -69t85.5 -96.5t29 -112q0 -51 -21 -93.5t-50.5 -72.5t-59 -58t-50.5 -63t-21 -75q0 -36 20.5 -61t53 -41t72 -31.5t79 -38t72 -53.5t53 -86t20.5 -128q0 -136 -66 -226.5t-172 -126.5t-241 -27z" />
    <glyph glyph-name="agrave" unicode="&#xe0;" horiz-adv-x="1318" 
d="M1081 1370l-55 -233l-799 176l56 233zM82 283q0 137 95 215.5t319 109.5l325 45q0 65 -51.5 100t-155.5 35q-98 0 -151 -39t-53 -110h-308q0 128 68 223.5t183.5 144t260.5 48.5q110 0 204 -27.5t169.5 -83t118.5 -149.5t43 -217v-291h149v-287h-227q-73 0 -113 40
t-40 114v20l51 123h-82q-16 -70 -43.5 -123t-76 -99t-126 -70.5t-182.5 -24.5q-92 0 -162.5 22t-110 54t-64 75t-32.5 79t-8 73zM410 344q0 -41 32.5 -59.5t79.5 -18.5q136 0 217.5 54.5t81.5 148.5l-264 -37q-81 -12 -114 -29t-33 -59z" />
    <glyph glyph-name="aacute" unicode="&#xe1;" horiz-adv-x="1318" 
d="M186 1370l799 176l55 -233l-798 -176zM82 283q0 137 95 215.5t319 109.5l325 45q0 65 -51.5 100t-155.5 35q-98 0 -151 -39t-53 -110h-308q0 128 68 223.5t183.5 144t260.5 48.5q110 0 204 -27.5t169.5 -83t118.5 -149.5t43 -217v-291h149v-287h-227q-73 0 -113 40
t-40 114v20l51 123h-82q-16 -70 -43.5 -123t-76 -99t-126 -70.5t-182.5 -24.5q-92 0 -162.5 22t-110 54t-64 75t-32.5 79t-8 73zM410 344q0 -41 32.5 -59.5t79.5 -18.5q136 0 217.5 54.5t81.5 148.5l-264 -37q-81 -12 -114 -29t-33 -59z" />
    <glyph glyph-name="acircumflex" unicode="&#xe2;" horiz-adv-x="1318" 
d="M1077 1278l-174 -164l-268 186l-268 -186l-174 164l442 309zM82 283q0 137 95 215.5t319 109.5l325 45q0 65 -51.5 100t-155.5 35q-98 0 -151 -39t-53 -110h-308q0 128 68 223.5t183.5 144t260.5 48.5q110 0 204 -27.5t169.5 -83t118.5 -149.5t43 -217v-291h149v-287
h-227q-73 0 -113 40t-40 114v20l51 123h-82q-16 -70 -43.5 -123t-76 -99t-126 -70.5t-182.5 -24.5q-92 0 -162.5 22t-110 54t-64 75t-32.5 79t-8 73zM410 344q0 -41 32.5 -59.5t79.5 -18.5q136 0 217.5 54.5t81.5 148.5l-264 -37q-81 -12 -114 -29t-33 -59z" />
    <glyph glyph-name="atilde" unicode="&#xe3;" horiz-adv-x="1318" 
d="M156 1229q0 179 80.5 284t220.5 105q52 0 97.5 -17t76.5 -41t58 -48t53.5 -41t50.5 -17q38 0 56.5 28.5t18.5 114.5h246q0 -179 -80.5 -284t-220.5 -105q-52 0 -97.5 17t-76.5 41t-58 48t-53.5 41t-50.5 17q-38 0 -57 -29t-19 -114h-245zM82 283q0 137 95 215.5
t319 109.5l325 45q0 65 -51.5 100t-155.5 35q-98 0 -151 -39t-53 -110h-308q0 128 68 223.5t183.5 144t260.5 48.5q110 0 204 -27.5t169.5 -83t118.5 -149.5t43 -217v-291h149v-287h-227q-73 0 -113 40t-40 114v20l51 123h-82q-16 -70 -43.5 -123t-76 -99t-126 -70.5
t-182.5 -24.5q-92 0 -162.5 22t-110 54t-64 75t-32.5 79t-8 73zM410 344q0 -41 32.5 -59.5t79.5 -18.5q136 0 217.5 54.5t81.5 148.5l-264 -37q-81 -12 -114 -29t-33 -59z" />
    <glyph glyph-name="adieresis" unicode="&#xe4;" horiz-adv-x="1318" 
d="M367 1137q-98 0 -150.5 42t-52.5 121q0 78 52.5 121t150.5 43t152 -43t54 -121q0 -79 -53.5 -121t-152.5 -42zM899 1137q-98 0 -150.5 42t-52.5 121q0 78 52.5 121t150.5 43t152.5 -43t54.5 -121q0 -79 -54 -121t-153 -42zM82 283q0 137 95 215.5t319 109.5l325 45
q0 65 -51.5 100t-155.5 35q-98 0 -151 -39t-53 -110h-308q0 128 68 223.5t183.5 144t260.5 48.5q110 0 204 -27.5t169.5 -83t118.5 -149.5t43 -217v-291h149v-287h-227q-73 0 -113 40t-40 114v20l51 123h-82q-16 -70 -43.5 -123t-76 -99t-126 -70.5t-182.5 -24.5
q-92 0 -162.5 22t-110 54t-64 75t-32.5 79t-8 73zM410 344q0 -41 32.5 -59.5t79.5 -18.5q136 0 217.5 54.5t81.5 148.5l-264 -37q-81 -12 -114 -29t-33 -59z" />
    <glyph glyph-name="aring" unicode="&#xe5;" horiz-adv-x="1318" 
d="M633 1137q-153 0 -237.5 63.5t-84.5 188.5q0 124 85 187.5t237 63.5t237.5 -63.5t85.5 -187.5t-85.5 -188t-237.5 -64zM633 1321q78 0 78 68q0 65 -78 65q-76 0 -76 -65q0 -68 76 -68zM82 283q0 137 95 215.5t319 109.5l325 45q0 65 -51.5 100t-155.5 35q-98 0 -151 -39
t-53 -110h-308q0 128 68 223.5t183.5 144t260.5 48.5q110 0 204 -27.5t169.5 -83t118.5 -149.5t43 -217v-291h149v-287h-227q-73 0 -113 40t-40 114v20l51 123h-82q-16 -70 -43.5 -123t-76 -99t-126 -70.5t-182.5 -24.5q-92 0 -162.5 22t-110 54t-64 75t-32.5 79t-8 73z
M410 344q0 -41 32.5 -59.5t79.5 -18.5q136 0 217.5 54.5t81.5 148.5l-264 -37q-81 -12 -114 -29t-33 -59z" />
    <glyph glyph-name="ae" unicode="&#xe6;" horiz-adv-x="2131" 
d="M1722 365h328q-8 -60 -45 -124t-101.5 -124t-170 -98.5t-232.5 -38.5q-206 0 -341 85.5t-195 231.5h-78q-32 -142 -136 -229.5t-292 -87.5q-92 0 -162.5 22t-110 54t-64 75t-32.5 79t-8 73q0 137 95 215.5t319 109.5l325 45q0 65 -51.5 100t-155.5 35q-98 0 -151 -39
t-53 -110h-308q0 128 68 223.5t183.5 144t260.5 48.5q136 0 241.5 -49t166.5 -150q71 96 185.5 147.5t258.5 51.5q245 0 396 -136t151 -368v-102h-784q0 -93 68.5 -148t203.5 -55q88 0 147 31t74 88zM1466 788q-126 0 -181.5 -44t-55.5 -111h477q0 66 -57 110.5t-183 44.5z
M522 266q136 0 217.5 54.5t81.5 148.5l-264 -37q-81 -12 -114 -30t-33 -64q0 -72 112 -72z" />
    <glyph glyph-name="ccedilla" unicode="&#xe7;" horiz-adv-x="1284" 
d="M647 266q96 0 157 45.5t70 116.5h328q-9 -185 -135.5 -300.5t-316.5 -141.5l-99 -109q87 41 191 41q47 0 83.5 -9.5t64.5 -39.5t28 -78q0 -42 -17 -75.5t-45 -56.5t-72.5 -39.5t-90 -26t-107.5 -15t-116 -7t-124 -1.5v184h74q148 -1 200 6.5t52 40.5q0 15 -13 25t-34 10
q-55 0 -160 -37l-104 80l51 113q-198 35 -314 171.5t-116 354.5q0 253 156 395t409 142q107 0 204 -29t174 -84t124.5 -142t52.5 -194h-328q-9 71 -70 116.5t-157 45.5q-116 0 -176.5 -65t-60.5 -185q0 -121 60.5 -186.5t176.5 -65.5z" />
    <glyph glyph-name="egrave" unicode="&#xe8;" horiz-adv-x="1292" 
d="M1094 1370l-56 -233l-798 176l55 233zM82 530q0 243 150 384t395 141t396 -136t151 -368v-102h-785q0 -93 69 -148t204 -55q88 0 147 31t74 88h327q-6 -47 -29.5 -97.5t-69.5 -102.5t-107 -92.5t-150 -66.5t-192 -26q-144 0 -257 44.5t-182.5 121t-105 174.5t-35.5 210z
M389 633h477q0 67 -56.5 111t-182.5 44t-182 -44t-56 -111z" />
    <glyph glyph-name="eacute" unicode="&#xe9;" horiz-adv-x="1292" 
d="M199 1370l798 176l56 -233l-799 -176zM82 530q0 243 150 384t395 141t396 -136t151 -368v-102h-785q0 -93 69 -148t204 -55q88 0 147 31t74 88h327q-6 -47 -29.5 -97.5t-69.5 -102.5t-107 -92.5t-150 -66.5t-192 -26q-144 0 -257 44.5t-182.5 121t-105 174.5t-35.5 210z
M389 633h477q0 67 -56.5 111t-182.5 44t-182 -44t-56 -111z" />
    <glyph glyph-name="ecircumflex" unicode="&#xea;" horiz-adv-x="1292" 
d="M1090 1278l-175 -164l-268 186l-268 -186l-174 164l442 309zM82 530q0 243 150 384t395 141t396 -136t151 -368v-102h-785q0 -93 69 -148t204 -55q88 0 147 31t74 88h327q-6 -47 -29.5 -97.5t-69.5 -102.5t-107 -92.5t-150 -66.5t-192 -26q-144 0 -257 44.5t-182.5 121
t-105 174.5t-35.5 210zM389 633h477q0 67 -56.5 111t-182.5 44t-182 -44t-56 -111z" />
    <glyph glyph-name="edieresis" unicode="&#xeb;" horiz-adv-x="1292" 
d="M379 1137q-98 0 -150.5 42t-52.5 121q0 78 52.5 121t150.5 43t152.5 -43t54.5 -121q0 -79 -54 -121t-153 -42zM911 1137q-98 0 -150 42t-52 121q0 78 52 121t150 43t152.5 -43t54.5 -121q0 -79 -54 -121t-153 -42zM82 530q0 243 150 384t395 141t396 -136t151 -368v-102
h-785q0 -93 69 -148t204 -55q88 0 147 31t74 88h327q-6 -47 -29.5 -97.5t-69.5 -102.5t-107 -92.5t-150 -66.5t-192 -26q-144 0 -257 44.5t-182.5 121t-105 174.5t-35.5 210zM389 633h477q0 67 -56.5 111t-182.5 44t-182 -44t-56 -111z" />
    <glyph glyph-name="igrave" unicode="&#xec;" horiz-adv-x="1024" 
d="M918 1370l-56 -233l-799 176l56 233zM82 0v287h293v473l-252 -12v286l389 21q86 4 132 -40.5t46 -131.5v-596h293v-287h-901z" />
    <glyph glyph-name="iacute" unicode="&#xed;" horiz-adv-x="1062" 
d="M82 1370l799 176l55 -233l-799 -176zM121 0v287h293v473l-252 -12v286l389 21q86 4 132 -40.5t46 -131.5v-596h293v-287h-901z" />
    <glyph glyph-name="icircumflex" unicode="&#xee;" horiz-adv-x="1056" 
d="M946 1278l-174 -164l-268 186l-268 -186l-175 164l443 309zM115 0v287h293v473l-252 -12v286l389 21q86 4 132 -40.5t46 -131.5v-596h293v-287h-901z" />
    <glyph glyph-name="idieresis" unicode="&#xef;" horiz-adv-x="1062" 
d="M262 1137q-98 0 -150.5 42t-52.5 121q0 78 52.5 121t150.5 43t152.5 -43t54.5 -121q0 -79 -54 -121t-153 -42zM795 1137q-98 0 -150.5 42t-52.5 121q0 78 52.5 121t150.5 43t152 -43t54 -121q0 -79 -53.5 -121t-152.5 -42zM121 0v287h293v473l-252 -12v286l389 21
q86 4 132 -40.5t46 -131.5v-596h293v-287h-901z" />
    <glyph glyph-name="eth" unicode="&#xf0;" horiz-adv-x="1439" 
d="M1042 1352q316 -241 316 -699q0 -315 -173 -494t-472 -179q-288 0 -459.5 149.5t-171.5 386.5q0 112 39.5 210.5t111.5 171.5t180.5 115t239.5 42q224 0 349 -132.5t145 -353.5h82l-62 185q-20 161 -111 268.5t-253 173.5l-170 -109l-217 97l135 86q-81 18 -207 35v286
q295 -31 508 -127l149 97l218 -97zM721 266q153 0 231 65.5t78 184.5q0 133 -75.5 192.5t-233.5 59.5t-234.5 -59.5t-76.5 -192.5q0 -119 79 -184.5t232 -65.5z" />
    <glyph glyph-name="ntilde" unicode="&#xf1;" horiz-adv-x="1388" 
d="M256 1229q0 179 80.5 284t220.5 105q52 0 97.5 -17t76.5 -41t58 -48t53.5 -41t50.5 -17q38 0 57 29t19 114h245q0 -179 -80.5 -284t-220.5 -105q-52 0 -97.5 17t-76.5 41t-57.5 48t-53 41t-50.5 17q-38 0 -57 -29t-19 -114h-246zM745 768q-142 0 -218 -88.5t-76 -296.5
v-383h-328v1034h328v-125l-62 -184h82q33 147 133 238.5t258 91.5q200 0 312 -129.5t112 -366.5v-559h-328v508q0 142 -47.5 201t-165.5 59z" />
    <glyph glyph-name="ograve" unicode="&#xf2;" horiz-adv-x="1329" 
d="M1112 1370l-55 -233l-799 176l55 233zM82 518q0 132 45 235.5t125 168.5t185 99t229 34q123 0 227.5 -34t184 -99t124.5 -168.5t45 -235.5t-45 -236t-124.5 -169.5t-184 -99t-227.5 -33.5q-124 0 -229 33.5t-185 99t-125 169.5t-45 236zM410 518q0 -127 67.5 -189.5
t188.5 -62.5q120 0 187 62.5t67 189.5q0 125 -67.5 187.5t-186.5 62.5q-121 0 -188.5 -62.5t-67.5 -187.5z" />
    <glyph glyph-name="oacute" unicode="&#xf3;" horiz-adv-x="1329" 
d="M217 1370l799 176l55 -233l-799 -176zM82 518q0 132 45 235.5t125 168.5t185 99t229 34q123 0 227.5 -34t184 -99t124.5 -168.5t45 -235.5t-45 -236t-124.5 -169.5t-184 -99t-227.5 -33.5q-124 0 -229 33.5t-185 99t-125 169.5t-45 236zM410 518q0 -127 67.5 -189.5
t188.5 -62.5q120 0 187 62.5t67 189.5q0 125 -67.5 187.5t-186.5 62.5q-121 0 -188.5 -62.5t-67.5 -187.5z" />
    <glyph glyph-name="ocircumflex" unicode="&#xf4;" horiz-adv-x="1329" 
d="M1108 1278l-174 -164l-268 186l-269 -186l-174 164l443 309zM82 518q0 132 45 235.5t125 168.5t185 99t229 34q123 0 227.5 -34t184 -99t124.5 -168.5t45 -235.5t-45 -236t-124.5 -169.5t-184 -99t-227.5 -33.5q-124 0 -229 33.5t-185 99t-125 169.5t-45 236zM410 518
q0 -127 67.5 -189.5t188.5 -62.5q120 0 187 62.5t67 189.5q0 125 -67.5 187.5t-186.5 62.5q-121 0 -188.5 -62.5t-67.5 -187.5z" />
    <glyph glyph-name="otilde" unicode="&#xf5;" horiz-adv-x="1329" 
d="M186 1229q0 179 80.5 284t220.5 105q52 0 97.5 -17t76.5 -41t58 -48t53.5 -41t50.5 -17q38 0 57 29t19 114h246q0 -179 -80.5 -284t-220.5 -105q-52 0 -97.5 17t-76.5 41t-58 48t-53.5 41t-50.5 17q-38 0 -57 -29t-19 -114h-246zM82 518q0 132 45 235.5t125 168.5t185 99
t229 34q123 0 227.5 -34t184 -99t124.5 -168.5t45 -235.5t-45 -236t-124.5 -169.5t-184 -99t-227.5 -33.5q-124 0 -229 33.5t-185 99t-125 169.5t-45 236zM410 518q0 -127 67.5 -189.5t188.5 -62.5q120 0 187 62.5t67 189.5q0 125 -67.5 187.5t-186.5 62.5
q-121 0 -188.5 -62.5t-67.5 -187.5z" />
    <glyph glyph-name="odieresis" unicode="&#xf6;" horiz-adv-x="1329" 
d="M397 1137q-98 0 -150 42t-52 121q0 78 52 121t150 43t152.5 -43t54.5 -121q0 -79 -54 -121t-153 -42zM930 1137q-98 0 -150.5 42t-52.5 121q0 78 52.5 121t150.5 43t152.5 -43t54.5 -121q0 -79 -54 -121t-153 -42zM82 518q0 132 45 235.5t125 168.5t185 99t229 34
q123 0 227.5 -34t184 -99t124.5 -168.5t45 -235.5t-45 -236t-124.5 -169.5t-184 -99t-227.5 -33.5q-124 0 -229 33.5t-185 99t-125 169.5t-45 236zM410 518q0 -127 67.5 -189.5t188.5 -62.5q120 0 187 62.5t67 189.5q0 125 -67.5 187.5t-186.5 62.5q-121 0 -188.5 -62.5
t-67.5 -187.5z" />
    <glyph glyph-name="divide" unicode="&#xf7;" horiz-adv-x="1392" 
d="M694 758q-102 0 -162.5 64t-60.5 163q0 96 60.5 159.5t162.5 63.5q100 0 164 -64t64 -159q0 -98 -64 -162.5t-164 -64.5zM143 674h1106v-246h-1106v246zM694 -102q-102 0 -162.5 64t-60.5 163q0 96 60.5 159.5t162.5 63.5q100 0 164 -64t64 -159q0 -98 -64 -162.5
t-164 -64.5z" />
    <glyph glyph-name="oslash" unicode="&#xf8;" horiz-adv-x="1329" 
d="M1034 956q213 -143 213 -436q0 -132 -45 -236t-124.5 -169.5t-184 -99t-227.5 -33.5q-106 0 -187 20l-67 -115l-172 99l55 96q-213 143 -213 438q0 132 45 235.5t125 168.5t185 99t229 34q96 0 182 -21l65 115l177 -100zM410 520q0 -100 45 -164l237 414h-26
q-121 0 -188.5 -62.5t-67.5 -187.5zM666 268q120 0 187 62.5t67 189.5q0 100 -46 162l-239 -412q10 -2 31 -2z" />
    <glyph glyph-name="ugrave" unicode="&#xf9;" horiz-adv-x="1368" 
d="M1130 1370l-55 -233l-799 176l56 233zM643 266q143 0 219 88.5t76 296.5v383h328v-1034h-328v125l61 184h-81q-33 -146 -133.5 -237.5t-258.5 -91.5q-200 0 -312 129t-112 366v559h328v-508q0 -142 47.5 -201t165.5 -59z" />
    <glyph glyph-name="uacute" unicode="&#xfa;" horiz-adv-x="1368" 
d="M236 1370l798 176l56 -233l-799 -176zM643 266q143 0 219 88.5t76 296.5v383h328v-1034h-328v125l61 184h-81q-33 -146 -133.5 -237.5t-258.5 -91.5q-200 0 -312 129t-112 366v559h328v-508q0 -142 47.5 -201t165.5 -59z" />
    <glyph glyph-name="ucircumflex" unicode="&#xfb;" horiz-adv-x="1368" 
d="M1126 1278l-174 -164l-268 186l-268 -186l-174 164l442 309zM643 266q143 0 219 88.5t76 296.5v383h328v-1034h-328v125l61 184h-81q-33 -146 -133.5 -237.5t-258.5 -91.5q-200 0 -312 129t-112 366v559h328v-508q0 -142 47.5 -201t165.5 -59z" />
    <glyph glyph-name="udieresis" unicode="&#xfc;" horiz-adv-x="1368" 
d="M416 1137q-98 0 -150.5 42t-52.5 121q0 78 52.5 121t150.5 43t152.5 -43t54.5 -121q0 -79 -54 -121t-153 -42zM948 1137q-98 0 -150.5 42t-52.5 121q0 78 52.5 121t150.5 43t152.5 -43t54.5 -121q0 -79 -54 -121t-153 -42zM643 266q143 0 219 88.5t76 296.5v383h328
v-1034h-328v125l61 184h-81q-33 -146 -133.5 -237.5t-258.5 -91.5q-200 0 -312 129t-112 366v559h328v-508q0 -142 47.5 -201t165.5 -59z" />
    <glyph glyph-name="yacute" unicode="&#xfd;" horiz-adv-x="1376" 
d="M1104 1313l-799 -176l-55 233l799 176zM965 1034h370l-473 -973v-319q0 -86 -45.5 -130.5t-130.5 -41.5l-506 14v287l355 -6v196l-474 973h369l227 -569v-164h82v164z" />
    <glyph glyph-name="thorn" unicode="&#xfe;" horiz-adv-x="1409" 
d="M879 1055q144 0 247.5 -74.5t152 -194.5t48.5 -270q0 -111 -28.5 -207.5t-83 -170t-141 -116t-195.5 -42.5q-74 0 -135.5 15t-103.5 39.5t-76 60.5t-55 72t-38 81h-82l62 -185v-452h-328v1894h328v-534l-62 -185h82q22 57 51 101t75.5 84t118 62t163.5 22zM725 266
q274 0 274 250q0 252 -274 252t-274 -252q0 -250 274 -250z" />
    <glyph glyph-name="ydieresis" unicode="&#xff;" horiz-adv-x="1376" 
d="M430 1137q-98 0 -150.5 42t-52.5 121q0 78 52.5 121t150.5 43t152.5 -43t54.5 -121q0 -79 -54 -121t-153 -42zM963 1137q-98 0 -150.5 42t-52.5 121q0 78 52.5 121t150.5 43t152 -43t54 -121q0 -79 -53.5 -121t-152.5 -42zM965 1034h370l-473 -973v-319
q0 -86 -45.5 -130.5t-130.5 -41.5l-506 14v287l355 -6v196l-474 973h369l227 -569v-164h82v164z" />
    <glyph glyph-name="Amacron" unicode="&#x100;" horiz-adv-x="1591" 
d="M1237 1884v-242l-881 -4v246h881zM1219 0l-132 463h-585l-129 -463h-332l416 1444h676l417 -1444h-331zM582 750h426l-172 612h-82z" />
    <glyph glyph-name="amacron" unicode="&#x101;" horiz-adv-x="1318" 
d="M195 1475h880v-242l-880 -4v246zM82 283q0 137 95 215.5t319 109.5l325 45q0 65 -51.5 100t-155.5 35q-98 0 -151 -39t-53 -110h-308q0 128 68 223.5t183.5 144t260.5 48.5q110 0 204 -27.5t169.5 -83t118.5 -149.5t43 -217v-291h149v-287h-227q-73 0 -113 40t-40 114v20
l51 123h-82q-16 -70 -43.5 -123t-76 -99t-126 -70.5t-182.5 -24.5q-92 0 -162.5 22t-110 54t-64 75t-32.5 79t-8 73zM410 344q0 -41 32.5 -59.5t79.5 -18.5q136 0 217.5 54.5t81.5 148.5l-264 -37q-81 -12 -114 -29t-33 -59z" />
    <glyph glyph-name="Abreve" unicode="&#x102;" horiz-adv-x="1591" 
d="M797 1546q-100 0 -174.5 34t-117 92.5t-63 129t-20.5 152.5h246q0 -102 32.5 -142t96.5 -40t96.5 40t32.5 142h245q0 -65 -12 -123t-40.5 -111t-70.5 -91t-106.5 -60.5t-144.5 -22.5zM1219 0l-132 463h-585l-129 -463h-332l416 1444h676l417 -1444h-331zM582 750h426
l-172 612h-82z" />
    <glyph glyph-name="abreve" unicode="&#x103;" horiz-adv-x="1318" 
d="M1010 1544q0 -82 -20.5 -152.5t-63 -129t-117 -92t-174.5 -33.5t-174.5 33.5t-117 92t-63 129t-20.5 152.5h246q0 -102 32.5 -142t96.5 -40t96.5 40t32.5 142h246zM82 283q0 137 95 215.5t319 109.5l325 45q0 65 -51.5 100t-155.5 35q-98 0 -151 -39t-53 -110h-308
q0 128 68 223.5t183.5 144t260.5 48.5q110 0 204 -27.5t169.5 -83t118.5 -149.5t43 -217v-291h149v-287h-227q-73 0 -113 40t-40 114v20l51 123h-82q-16 -70 -43.5 -123t-76 -99t-126 -70.5t-182.5 -24.5q-92 0 -162.5 22t-110 54t-64 75t-32.5 79t-8 73zM410 344
q0 -41 32.5 -59.5t79.5 -18.5q136 0 217.5 54.5t81.5 148.5l-264 -37q-81 -12 -114 -29t-33 -59z" />
    <glyph glyph-name="Aogonek" unicode="&#x104;" horiz-adv-x="1591" 
d="M1473 -162l278 29v-246l-379 -31q-53 -4 -98 14.5t-68.5 51t-29 73t21.5 78.5l125 193h-104l-132 463h-585l-129 -463h-332l416 1444h676l417 -1442v-2zM582 750h426l-172 612h-82z" />
    <glyph glyph-name="aogonek" unicode="&#x105;" horiz-adv-x="1318" 
d="M1221 -162l278 29v-246l-379 -31q-53 -4 -98 14.5t-68.5 51t-29 73t21.5 78.5l125 193q-73 0 -113 40t-40 114v20l51 123h-82q-16 -70 -43.5 -123t-76 -99t-126 -70.5t-182.5 -24.5q-92 0 -162.5 22t-110 54t-64 75t-32.5 79t-8 73q0 137 95 215.5t319 109.5l325 45
q0 65 -51.5 100t-155.5 35q-98 0 -151 -39t-53 -110h-308q0 128 68 223.5t183.5 144t260.5 48.5q110 0 204 -27.5t169.5 -83t118.5 -149.5t43 -217v-291h149v-287zM522 266q136 0 217.5 54.5t81.5 148.5l-264 -37q-81 -12 -114 -29t-33 -59q0 -41 32.5 -59.5t79.5 -18.5z
" />
    <glyph glyph-name="Cacute" unicode="&#x106;" horiz-adv-x="1658" 
d="M391 1780l799 176l55 -234l-799 -176zM102 723q0 210 88.5 377.5t259 265.5t394.5 98q301 0 490.5 -154.5t221.5 -422.5h-327q-24 140 -127 215.5t-254 75.5q-193 0 -305.5 -118t-112.5 -337q0 -220 112.5 -338.5t305.5 -118.5q151 0 254 76.5t127 216.5h327
q-32 -269 -221.5 -424t-490.5 -155q-169 0 -309 57t-234.5 156.5t-146.5 235.5t-52 294z" />
    <glyph glyph-name="cacute" unicode="&#x107;" horiz-adv-x="1284" 
d="M199 1370l798 176l56 -233l-799 -176zM82 518q0 253 156 395t409 142q107 0 204 -29t174 -84t124.5 -142t52.5 -194h-328q-9 71 -70 116.5t-157 45.5q-116 0 -176.5 -65t-60.5 -185q0 -121 60.5 -186.5t176.5 -65.5q96 0 157 45.5t70 116.5h328q-5 -107 -52.5 -193.5
t-124.5 -141.5t-173.5 -84t-204.5 -29q-166 0 -292.5 61.5t-199.5 184.5t-73 292z" />
    <glyph glyph-name="Cdotaccent" unicode="&#x10a;" horiz-adv-x="1658" 
d="M838 1546q-98 0 -150.5 42.5t-52.5 121.5q0 78 52.5 121t150.5 43t152 -43t54 -121q0 -79 -53.5 -121.5t-152.5 -42.5zM102 723q0 210 88.5 377.5t259 265.5t394.5 98q301 0 490.5 -154.5t221.5 -422.5h-327q-24 140 -127 215.5t-254 75.5q-193 0 -305.5 -118
t-112.5 -337q0 -220 112.5 -338.5t305.5 -118.5q151 0 254 76.5t127 216.5h327q-32 -269 -221.5 -424t-490.5 -155q-169 0 -309 57t-234.5 156.5t-146.5 235.5t-52 294z" />
    <glyph glyph-name="cdotaccent" unicode="&#x10b;" horiz-adv-x="1284" 
d="M645 1137q-98 0 -150.5 42t-52.5 121q0 78 52.5 121t150.5 43t152.5 -43t54.5 -121q0 -79 -54 -121t-153 -42zM82 518q0 253 156 395t409 142q107 0 204 -29t174 -84t124.5 -142t52.5 -194h-328q-9 71 -70 116.5t-157 45.5q-116 0 -176.5 -65t-60.5 -185
q0 -121 60.5 -186.5t176.5 -65.5q96 0 157 45.5t70 116.5h328q-5 -107 -52.5 -193.5t-124.5 -141.5t-173.5 -84t-204.5 -29q-166 0 -292.5 61.5t-199.5 184.5t-73 292z" />
    <glyph glyph-name="Ccaron" unicode="&#x10c;" horiz-adv-x="1658" 
d="M1282 1845l-442 -309l-443 309l174 164l269 -186l268 186zM102 723q0 210 88.5 377.5t259 265.5t394.5 98q301 0 490.5 -154.5t221.5 -422.5h-327q-24 140 -127 215.5t-254 75.5q-193 0 -305.5 -118t-112.5 -337q0 -220 112.5 -338.5t305.5 -118.5q151 0 254 76.5
t127 216.5h327q-32 -269 -221.5 -424t-490.5 -155q-169 0 -309 57t-234.5 156.5t-146.5 235.5t-52 294z" />
    <glyph glyph-name="ccaron" unicode="&#x10d;" horiz-adv-x="1284" 
d="M1090 1436l-443 -310l-442 310l174 163l268 -186l268 186zM82 518q0 253 156 395t409 142q107 0 204 -29t174 -84t124.5 -142t52.5 -194h-328q-9 71 -70 116.5t-157 45.5q-116 0 -176.5 -65t-60.5 -185q0 -121 60.5 -186.5t176.5 -65.5q96 0 157 45.5t70 116.5h328
q-5 -107 -52.5 -193.5t-124.5 -141.5t-173.5 -84t-204.5 -29q-166 0 -292.5 61.5t-199.5 184.5t-73 292z" />
    <glyph glyph-name="Dcaron" unicode="&#x10e;" horiz-adv-x="1544" 
d="M1083 1845l-442 -309l-442 309l174 164l268 -186l268 186zM655 1444q89 0 165 -7t158.5 -27.5t148 -53.5t126.5 -88.5t101 -129.5t64 -179.5t24 -235.5t-24 -236t-64 -180t-101 -130t-126.5 -89t-148 -53.5t-158.5 -27.5t-165 -7h-532v1444h532zM655 287q50 0 84 1t77 6
t72 13.5t63 24.5t56 38t44 55t35 75t20.5 98.5t7.5 124.5q0 61 -5.5 112.5t-18 91.5t-27 72t-37.5 55.5t-45 40.5t-54 28.5t-59.5 18t-67 10t-70.5 4.5t-75 1h-204v-870h204z" />
    <glyph glyph-name="dcaron" unicode="&#x10f;" horiz-adv-x="1777" 
d="M1470 1587h246v-655h-246v655zM1286 0h-328v63l62 185h-82q-17 -45 -38 -81t-55 -72t-76 -60.5t-103.5 -39.5t-135.5 -15q-109 0 -195.5 42.5t-141 117t-83 171t-28.5 207.5q0 150 48.5 269.5t152 193.5t247.5 74q92 0 163.5 -22t118 -62t75.5 -84t51 -101h82l-62 185
v534h328v-1505zM958 518q0 250 -274 250t-274 -250q0 -252 274 -252t274 252z" />
    <glyph glyph-name="Dcroat" unicode="&#x110;" horiz-adv-x="1708" 
d="M819 1444q89 0 165 -7t158.5 -27.5t148 -53.5t126.5 -88.5t101 -129.5t64 -179.5t24 -235.5t-24 -236t-64 -180t-101 -130t-126.5 -89t-148 -53.5t-158.5 -27.5t-165 -7h-532v625h-185v245h185v574h532zM819 287q50 0 84 1t77 6t72 13.5t63 24.5t56 38t44 55t35 75
t20.5 98.5t7.5 124.5q0 61 -5.5 112.5t-18 91.5t-27 72t-37.5 55.5t-45 40.5t-54 28.5t-59.5 18t-67 10t-70.5 4.5t-75 1h-205v-287h304v-245h-304v-338h205z" />
    <glyph glyph-name="dcroat" unicode="&#x111;" horiz-adv-x="1470" 
d="M1409 1407v-246h-123v-1161h-328v63l62 185h-82q-17 -45 -38 -81t-55 -72t-76 -60.5t-103.5 -39.5t-135.5 -15q-109 0 -195.5 42.5t-141 117t-83 171t-28.5 207.5q0 150 48.5 269.5t152 193.5t247.5 74q92 0 163.5 -22t118 -62t75.5 -84t51 -101h82l-62 185v190h-286v246
h286v98h328v-98h123zM684 266q274 0 274 252q0 250 -274 250t-274 -250q0 -252 274 -252z" />
    <glyph glyph-name="Emacron" unicode="&#x112;" horiz-adv-x="1234" 
d="M199 1884h880v-242l-880 -4v246zM123 0v1444h1030v-287h-702v-291h600v-286h-600v-293h702v-287h-1030z" />
    <glyph glyph-name="emacron" unicode="&#x113;" horiz-adv-x="1292" 
d="M207 1475h880v-242l-880 -4v246zM82 530q0 243 150 384t395 141t396 -136t151 -368v-102h-785q0 -93 69 -148t204 -55q88 0 147 31t74 88h327q-6 -47 -29.5 -97.5t-69.5 -102.5t-107 -92.5t-150 -66.5t-192 -26q-144 0 -257 44.5t-182.5 121t-105 174.5t-35.5 210z
M389 633h477q0 67 -56.5 111t-182.5 44t-182 -44t-56 -111z" />
    <glyph glyph-name="Edotaccent" unicode="&#x116;" horiz-adv-x="1234" 
d="M637 1546q-98 0 -150.5 42.5t-52.5 121.5q0 78 52.5 121t150.5 43t152.5 -43t54.5 -121q0 -79 -54 -121.5t-153 -42.5zM123 0v1444h1030v-287h-702v-291h600v-286h-600v-293h702v-287h-1030z" />
    <glyph glyph-name="edotaccent" unicode="&#x117;" horiz-adv-x="1292" 
d="M645 1137q-98 0 -150.5 42t-52.5 121q0 78 52.5 121t150.5 43t152.5 -43t54.5 -121q0 -79 -54 -121t-153 -42zM82 530q0 243 150 384t395 141t396 -136t151 -368v-102h-785q0 -93 69 -148t204 -55q88 0 147 31t74 88h327q-6 -47 -29.5 -97.5t-69.5 -102.5t-107 -92.5
t-150 -66.5t-192 -26q-144 0 -257 44.5t-182.5 121t-105 174.5t-35.5 210zM389 633h477q0 67 -56.5 111t-182.5 44t-182 -44t-56 -111z" />
    <glyph glyph-name="Eogonek" unicode="&#x118;" horiz-adv-x="1234" 
d="M1153 1157h-702v-291h600v-286h-600v-293h702v-287h-221l-78 -162l279 29v-246l-379 -31q-53 -4 -98 14.5t-68.5 51t-29 73t21.5 78.5l125 193h-582v1444h1030v-287z" />
    <glyph glyph-name="eogonek" unicode="&#x119;" horiz-adv-x="1292" 
d="M1210 365q-6 -49 -32.5 -102t-71.5 -105t-117.5 -95.5t-159.5 -64.5l-75 -160l278 29v-246l-379 -31q-53 -4 -98 14.5t-68.5 51t-29 73t21.5 78.5l115 175q-127 11 -227 59t-161 123t-92.5 167.5t-31.5 198.5q0 243 150 384t395 141t396 -136t151 -368v-102h-785
q0 -93 69 -148t204 -55q88 0 147 31t74 88h327zM627 788q-126 0 -182 -44t-56 -111h477q0 67 -56.5 111t-182.5 44z" />
    <glyph glyph-name="Ecaron" unicode="&#x11a;" horiz-adv-x="1234" 
d="M1081 1845l-442 -309l-442 309l174 164l268 -186l268 186zM123 0v1444h1030v-287h-702v-291h600v-286h-600v-293h702v-287h-1030z" />
    <glyph glyph-name="ecaron" unicode="&#x11b;" horiz-adv-x="1292" 
d="M1090 1436l-443 -310l-442 310l174 163l268 -186l268 186zM82 530q0 243 150 384t395 141t396 -136t151 -368v-102h-785q0 -93 69 -148t204 -55q88 0 147 31t74 88h327q-6 -47 -29.5 -97.5t-69.5 -102.5t-107 -92.5t-150 -66.5t-192 -26q-144 0 -257 44.5t-182.5 121
t-105 174.5t-35.5 210zM389 633h477q0 67 -56.5 111t-182.5 44t-182 -44t-56 -111z" />
    <glyph glyph-name="Gbreve" unicode="&#x11e;" horiz-adv-x="1820" 
d="M1204 1954q0 -82 -20.5 -152.5t-63 -129t-117 -92.5t-174.5 -34q-80 0 -144.5 22.5t-106.5 60.5t-70.5 91t-40.5 111t-12 123h245q0 -102 32.5 -142t96.5 -40t96.5 40t32.5 142h246zM102 723q0 216 94.5 386t260 262.5t372.5 92.5q271 0 463 -150t224 -386h-328
q-25 128 -111 189t-248 61q-399 0 -399 -455q0 -237 87 -347t267 -110q151 0 235.5 74.5t84.5 218.5h-334v246h754q85 0 129.5 -44.5t44.5 -129.5v-631h-328v498l62 225h-82q-2 -351 -145.5 -547t-432.5 -196q-212 0 -364.5 94t-229 260.5t-76.5 388.5z" />
    <glyph glyph-name="gbreve" unicode="&#x11f;" horiz-adv-x="1445" 
d="M686 1137q-100 0 -174.5 33.5t-117 92t-63 129t-20.5 152.5h246q0 -102 32.5 -142t96.5 -40t96.5 40t32.5 142h246q0 -82 -20.5 -152.5t-63 -129t-117 -92t-174.5 -33.5zM1335 1034h90v-286h-69q-65 0 -96 -19q10 -14 19 -47.5t9 -71.5q0 -139 -119.5 -237.5
t-347.5 -175.5q93 6 171.5 -5t144 -40.5t102.5 -86t37 -135.5q0 -46 -10.5 -84t-33.5 -68.5t-53.5 -55t-78 -43.5t-99 -33t-124 -24t-145 -16t-171 -9.5t-193 -5t-218.5 -1.5v287q517 0 656.5 20t139.5 103q0 35 -25.5 57t-77 29t-106.5 7t-139.5 -10.5t-147.5 -20
t-157 -25.5q-24 -4 -35 -6l-35 184q438 46 637 94v82q-114 -41 -226 -58t-211.5 -6.5t-175.5 47t-120.5 107.5t-44.5 170t45 177.5t125 127t185 74t229 25.5q258 0 409 -111q41 54 107 72t153 18zM686 494q144 0 209.5 34.5t65.5 102.5q0 137 -275 137q-276 0 -276 -137
t276 -137z" />
    <glyph glyph-name="Gdotaccent" unicode="&#x120;" horiz-adv-x="1820" 
d="M827 1546q-98 0 -150 42t-52 122q0 78 52 121t150 43t152.5 -43t54.5 -121q0 -79 -54 -121.5t-153 -42.5zM102 723q0 216 94.5 386t260 262.5t372.5 92.5q271 0 463 -150t224 -386h-328q-25 128 -111 189t-248 61q-399 0 -399 -455q0 -237 87 -347t267 -110
q151 0 235.5 74.5t84.5 218.5h-334v246h754q85 0 129.5 -44.5t44.5 -129.5v-631h-328v498l62 225h-82q-2 -351 -145.5 -547t-432.5 -196q-212 0 -364.5 94t-229 260.5t-76.5 388.5z" />
    <glyph glyph-name="gdotaccent" unicode="&#x121;" horiz-adv-x="1445" 
d="M684 1137q-98 0 -150.5 42t-52.5 121q0 78 52.5 121t150.5 43t152.5 -43t54.5 -121q0 -79 -54 -121t-153 -42zM1335 1034h90v-286h-69q-65 0 -96 -19q10 -14 19 -47.5t9 -71.5q0 -139 -119.5 -237.5t-347.5 -175.5q93 6 171.5 -5t144 -40.5t102.5 -86t37 -135.5
q0 -46 -10.5 -84t-33.5 -68.5t-53.5 -55t-78 -43.5t-99 -33t-124 -24t-145 -16t-171 -9.5t-193 -5t-218.5 -1.5v287q517 0 656.5 20t139.5 103q0 35 -25.5 57t-77 29t-106.5 7t-139.5 -10.5t-147.5 -20t-157 -25.5q-24 -4 -35 -6l-35 184q438 46 637 94v82
q-114 -41 -226 -58t-211.5 -6.5t-175.5 47t-120.5 107.5t-44.5 170t45 177.5t125 127t185 74t229 25.5q258 0 409 -111q41 54 107 72t153 18zM686 494q144 0 209.5 34.5t65.5 102.5q0 137 -275 137q-276 0 -276 -137t276 -137z" />
    <glyph glyph-name="uni0122" unicode="&#x122;" horiz-adv-x="1820" 
d="M102 723q0 216 94.5 386t260 262.5t372.5 92.5q271 0 463 -150t224 -386h-328q-25 128 -111 189t-248 61q-399 0 -399 -455q0 -237 87 -347t267 -110q151 0 235.5 74.5t84.5 218.5h-334v246h754q85 0 129.5 -44.5t44.5 -129.5v-631h-328v498l62 225h-82
q-2 -351 -145.5 -547t-432.5 -196q-212 0 -364.5 94t-229 260.5t-76.5 388.5zM649 -100l234 -76l-127 -350l-234 75z" />
    <glyph glyph-name="uni0123" unicode="&#x123;" horiz-adv-x="1445" 
d="M932 1581l-150 -444l-237 63l149 445zM1335 1034h90v-286h-69q-65 0 -96 -19q10 -14 19 -47.5t9 -71.5q0 -139 -119.5 -237.5t-347.5 -175.5q93 6 171.5 -5t144 -40.5t102.5 -86t37 -135.5q0 -46 -10.5 -84t-33.5 -68.5t-53.5 -55t-78 -43.5t-99 -33t-124 -24t-145 -16
t-171 -9.5t-193 -5t-218.5 -1.5v287q517 0 656.5 20t139.5 103q0 35 -25.5 57t-77 29t-106.5 7t-139.5 -10.5t-147.5 -20t-157 -25.5q-24 -4 -35 -6l-35 184q438 46 637 94v82q-114 -41 -226 -58t-211.5 -6.5t-175.5 47t-120.5 107.5t-44.5 170t45 177.5t125 127t185 74
t229 25.5q258 0 409 -111q41 54 107 72t153 18zM686 494q144 0 209.5 34.5t65.5 102.5q0 137 -275 137q-276 0 -276 -137t276 -137z" />
    <glyph glyph-name="Hbar" unicode="&#x126;" horiz-adv-x="1748" 
d="M1688 1280v-246h-123v-1034h-328v559h-725v-559h-328v1034h-123v246h123v164h328v-164h725v164h328v-164h123zM1237 846v188h-725v-188h725z" />
    <glyph glyph-name="hbar" unicode="&#x127;" horiz-adv-x="1470" 
d="M944 1055q200 0 312 -129.5t112 -366.5v-559h-328v508q0 142 -47.5 201t-165.5 59q-143 0 -219 -88.5t-76 -296.5v-383h-327v1161h-123v246h123v98h327v-98h287v-246h-287v-252l-61 -184h82q33 147 133 238.5t258 91.5z" />
    <glyph glyph-name="Imacron" unicode="&#x12a;" horiz-adv-x="1187" 
d="M1034 1884v-242l-880 -4v246h880zM1085 1157h-327v-870h327v-287h-983v287h328v870h-328v287h983v-287z" />
    <glyph glyph-name="imacron" unicode="&#x12b;" horiz-adv-x="1054" 
d="M82 1475h881v-242l-881 -4v246zM113 0v287h293v473l-252 -12v286l389 21q86 4 132 -40.5t46 -131.5v-596h293v-287h-901z" />
    <glyph glyph-name="Iogonek" unicode="&#x12e;" horiz-adv-x="1187" 
d="M1085 1157h-327v-870h327v-287h-202l-78 -162l278 29v-246l-378 -31q-53 -4 -98.5 14.5t-69 51t-29 73t21.5 78.5l125 193h-553v287h328v870h-328v287h983v-287z" />
    <glyph glyph-name="iogonek" unicode="&#x12f;" horiz-adv-x="1024" 
d="M469 1137q-98 0 -150.5 42t-52.5 121q0 78 52.5 121t150.5 43t152.5 -43t54.5 -121q0 -79 -54 -121t-153 -42zM983 0h-221l-78 -162l279 29v-246l-379 -31q-53 -4 -98 14.5t-68.5 51t-29 73t21.5 78.5l125 193h-453v287h293v473l-252 -12v286l389 21q86 4 132 -40.5
t46 -131.5v-596h293v-287z" />
    <glyph glyph-name="Idotaccent" unicode="&#x130;" horiz-adv-x="1187" 
d="M592 1546q-98 0 -150.5 42.5t-52.5 121.5q0 78 52.5 121t150.5 43t152.5 -43t54.5 -121q0 -79 -54 -121.5t-153 -42.5zM1085 1157h-327v-870h327v-287h-983v287h328v870h-328v287h983v-287z" />
    <glyph glyph-name="dotlessi" unicode="&#x131;" horiz-adv-x="1024" 
d="M82 0v287h293v473l-252 -12v286l389 21q86 4 132 -40.5t46 -131.5v-596h293v-287h-901z" />
    <glyph glyph-name="uni0136" unicode="&#x136;" horiz-adv-x="1574" 
d="M1534 1444l-870 -723l870 -721h-479l-604 510v-510h-328v1444h328v-512l604 512h479zM502 -451l127 351l233 -76l-127 -350z" />
    <glyph glyph-name="uni0137" unicode="&#x137;" horiz-adv-x="1370" 
d="M958 530l351 -530h-373l-258 399l-227 -106v-293h-328v1505h328v-874l473 217l-4 186h327v-225q0 -74 -31 -123.5t-98 -81.5zM430 -451l127 351l234 -76l-127 -350z" />
    <glyph glyph-name="Lacute" unicode="&#x139;" horiz-adv-x="1208" 
d="M123 1780l799 176l55 -234l-799 -176zM313 -20q-85 -2 -130.5 42.5t-45.5 129.5v1292h328v-1178l702 21v-287z" />
    <glyph glyph-name="lacute" unicode="&#x13a;" horiz-adv-x="1048" 
d="M57 1841l799 176l55 -233l-798 -176zM106 0v287h287v944l-246 -12v286l396 15q86 3 132 -41.5t46 -130.5v-1061h287v-287h-902z" />
    <glyph glyph-name="uni013B" unicode="&#x13b;" horiz-adv-x="1193" 
d="M299 -20q-85 -2 -130.5 42.5t-45.5 129.5v1292h328v-1178l702 21v-287zM551 -100l233 -76l-127 -350l-233 75z" />
    <glyph glyph-name="uni013C" unicode="&#x13c;" horiz-adv-x="1003" 
d="M61 0v287h287v944l-246 -12v286l396 15q86 3 132 -41.5t46 -130.5v-1061h287v-287h-902zM373 -100l233 -76l-127 -350l-233 75z" />
    <glyph glyph-name="Lcaron" unicode="&#x13d;" horiz-adv-x="1214" 
d="M690 1587h246v-655h-246v655zM299 -20q-85 -2 -130.5 42.5t-45.5 129.5v1292h328v-1178l702 21v-287z" />
    <glyph glyph-name="lcaron" unicode="&#x13e;" horiz-adv-x="1105" 
d="M819 1587h246v-655h-246v655zM61 0v287h287v944l-246 -12v286l396 15q86 3 132 -41.5t46 -130.5v-1061h287v-287h-902z" />
    <glyph glyph-name="Lslash" unicode="&#x141;" horiz-adv-x="1384" 
d="M621 266l702 21v-287l-854 -20q-85 -2 -130.5 42.5t-45.5 129.5v460l-150 -41l-61 234l211 57v582h328v-494l352 97l61 -234l-413 -113v-434z" />
    <glyph glyph-name="lslash" unicode="&#x142;" horiz-adv-x="1003" 
d="M676 287h287v-287h-902v287h287v291l-201 -56l-61 236l262 71v402l-246 -12v286l396 15q86 3 132 -41.5t46 -130.5v-430l201 55l61 -236l-262 -71v-379z" />
    <glyph glyph-name="Nacute" unicode="&#x143;" horiz-adv-x="1675" 
d="M430 1780l799 176l55 -234l-799 -176zM123 0v1444h645l436 -1362h82l-61 205v1157h327v-1444h-645l-436 1362h-82l62 -205v-1157h-328z" />
    <glyph glyph-name="nacute" unicode="&#x144;" horiz-adv-x="1388" 
d="M287 1370l798 176l56 -233l-799 -176zM745 768q-142 0 -218 -88.5t-76 -296.5v-383h-328v1034h328v-125l-62 -184h82q33 147 133 238.5t258 91.5q200 0 312 -129.5t112 -366.5v-559h-328v508q0 142 -47.5 201t-165.5 59z" />
    <glyph glyph-name="uni0145" unicode="&#x145;" horiz-adv-x="1675" 
d="M123 0v1444h645l436 -1362h82l-61 205v1157h327v-1444h-645l-436 1362h-82l62 -205v-1157h-328zM709 -100l233 -76l-127 -350l-233 75z" />
    <glyph glyph-name="uni0146" unicode="&#x146;" horiz-adv-x="1388" 
d="M745 768q-142 0 -218 -88.5t-76 -296.5v-383h-328v1034h328v-125l-62 -184h82q33 147 133 238.5t258 91.5q200 0 312 -129.5t112 -366.5v-559h-328v508q0 142 -47.5 201t-165.5 59zM586 -100l233 -76l-127 -350l-233 75z" />
    <glyph glyph-name="Ncaron" unicode="&#x147;" horiz-adv-x="1675" 
d="M1321 1845l-442 -309l-443 309l174 164l269 -186l268 186zM123 0v1444h645l436 -1362h82l-61 205v1157h327v-1444h-645l-436 1362h-82l62 -205v-1157h-328z" />
    <glyph glyph-name="ncaron" unicode="&#x148;" horiz-adv-x="1388" 
d="M1178 1436l-443 -310l-442 310l174 163l268 -186l269 186zM745 768q-142 0 -218 -88.5t-76 -296.5v-383h-328v1034h328v-125l-62 -184h82q33 147 133 238.5t258 91.5q200 0 312 -129.5t112 -366.5v-559h-328v508q0 142 -47.5 201t-165.5 59z" />
    <glyph glyph-name="Eng" unicode="&#x14a;" horiz-adv-x="1675" 
d="M1225 1444h327v-1682q0 -86 -45.5 -130.5t-130.5 -41.5l-506 15v286l355 -12v121h-318l-436 1362h-82l62 -205v-1157h-328v1444h645l436 -1362h82l-61 205v1157z" />
    <glyph glyph-name="eng" unicode="&#x14b;" horiz-adv-x="1388" 
d="M862 1055q200 0 312 -129.5t112 -366.5v-797q0 -86 -45.5 -130.5t-130.5 -41.5l-506 15v286l354 -12v629q0 142 -47.5 201t-165.5 59q-142 0 -218 -88.5t-76 -296.5v-383h-328v1034h328v-125l-62 -184h82q33 147 133 238.5t258 91.5z" />
    <glyph glyph-name="Omacron" unicode="&#x14c;" horiz-adv-x="1677" 
d="M399 1884h881v-242l-881 -4v246zM102 723q0 157 51.5 293t145 235t233 156t308.5 57q168 0 307 -57t232.5 -156t144.5 -235t51 -293q0 -158 -51 -294t-144.5 -235.5t-232.5 -156.5t-307 -57q-169 0 -308.5 57t-233 156.5t-145 235.5t-51.5 294zM430 723
q0 -214 105 -335.5t305 -121.5t303.5 121.5t103.5 335.5q0 212 -104 333.5t-303 121.5q-200 0 -305 -121.5t-105 -333.5z" />
    <glyph glyph-name="omacron" unicode="&#x14d;" horiz-adv-x="1329" 
d="M225 1475h881v-242l-881 -4v246zM82 518q0 132 45 235.5t125 168.5t185 99t229 34q123 0 227.5 -34t184 -99t124.5 -168.5t45 -235.5t-45 -236t-124.5 -169.5t-184 -99t-227.5 -33.5q-124 0 -229 33.5t-185 99t-125 169.5t-45 236zM410 518q0 -127 67.5 -189.5
t188.5 -62.5q120 0 187 62.5t67 189.5q0 125 -67.5 187.5t-186.5 62.5q-121 0 -188.5 -62.5t-67.5 -187.5z" />
    <glyph glyph-name="Ohungarumlaut" unicode="&#x150;" horiz-adv-x="1677" 
d="M365 1706l409 346l172 -160l-409 -346zM877 1706l409 346l172 -160l-409 -346zM102 723q0 157 51.5 293t145 235t233 156t308.5 57q168 0 307 -57t232.5 -156t144.5 -235t51 -293q0 -158 -51 -294t-144.5 -235.5t-232.5 -156.5t-307 -57q-169 0 -308.5 57t-233 156.5
t-145 235.5t-51.5 294zM430 723q0 -214 105 -335.5t305 -121.5t303.5 121.5t103.5 335.5q0 212 -104 333.5t-303 121.5q-200 0 -305 -121.5t-105 -333.5z" />
    <glyph glyph-name="ohungarumlaut" unicode="&#x151;" horiz-adv-x="1329" 
d="M190 1296l410 346l172 -159l-410 -346zM702 1296l410 346l172 -159l-410 -346zM82 518q0 132 45 235.5t125 168.5t185 99t229 34q123 0 227.5 -34t184 -99t124.5 -168.5t45 -235.5t-45 -236t-124.5 -169.5t-184 -99t-227.5 -33.5q-124 0 -229 33.5t-185 99t-125 169.5
t-45 236zM410 518q0 -127 67.5 -189.5t188.5 -62.5q120 0 187 62.5t67 189.5q0 125 -67.5 187.5t-186.5 62.5q-121 0 -188.5 -62.5t-67.5 -187.5z" />
    <glyph glyph-name="OE" unicode="&#x152;" horiz-adv-x="2379" 
d="M2298 1157h-703v-291h600v-286h-600v-293h703v-287h-1030v100q-177 -120 -428 -120q-169 0 -308.5 57t-233 156.5t-145 235.5t-51.5 294q0 157 51.5 293t145 235t233 156t308.5 57q250 0 428 -121v101h1030v-287zM840 266q200 0 303.5 121.5t103.5 335.5
q0 212 -104 333.5t-303 121.5q-200 0 -305 -121.5t-105 -333.5q0 -214 105 -335.5t305 -121.5z" />
    <glyph glyph-name="oe" unicode="&#x153;" horiz-adv-x="2211" 
d="M1802 365h328q-8 -60 -45 -124t-101.5 -124t-170 -98.5t-232.5 -38.5q-298 0 -455 182q-76 -90 -195.5 -136t-264.5 -46q-124 0 -229 33.5t-185 99t-125 169.5t-45 236t45 235.5t125 168.5t185 99t229 34q141 0 258.5 -44t195.5 -130q72 85 181.5 129.5t244.5 44.5
q245 0 396 -136t151 -368v-102h-784q0 -93 68.5 -148t203.5 -55q88 0 147 31t74 88zM1546 788q-126 0 -181.5 -44t-55.5 -111h477q0 66 -57 110.5t-183 44.5zM666 266q120 0 187 62.5t67 189.5q0 125 -67.5 187.5t-186.5 62.5q-121 0 -188.5 -62.5t-67.5 -187.5
q0 -127 67.5 -189.5t188.5 -62.5z" />
    <glyph glyph-name="Racute" unicode="&#x154;" horiz-adv-x="1466" 
d="M254 1780l799 176l55 -234l-799 -176zM123 0v1444h559q110 0 200 -10.5t174.5 -38.5t142 -72.5t92 -116.5t34.5 -166q0 -281 -367 -323v-82h211q85 0 129.5 -44.5t44.5 -129.5v-461h-327v508h-565v-508h-328zM451 795h231q75 0 109.5 1.5t83.5 10t69.5 27t36.5 53.5
t16 88t-16 88.5t-36.5 54t-69.5 27.5t-83.5 10.5t-109.5 1.5h-231v-362z" />
    <glyph glyph-name="racute" unicode="&#x155;" horiz-adv-x="1021" 
d="M123 1370l799 176l55 -233l-799 -176zM147 0v879q0 85 46 129.5t131 42.5l677 -17v-286l-526 12v-760h-328z" />
    <glyph glyph-name="uni0156" unicode="&#x156;" horiz-adv-x="1466" 
d="M123 0v1444h559q110 0 200 -10.5t174.5 -38.5t142 -72.5t92 -116.5t34.5 -166q0 -281 -367 -323v-82h211q85 0 129.5 -44.5t44.5 -129.5v-461h-327v508h-565v-508h-328zM451 795h231q75 0 109.5 1.5t83.5 10t69.5 27t36.5 53.5t16 88t-16 88.5t-36.5 54t-69.5 27.5
t-83.5 10.5t-109.5 1.5h-231v-362zM635 -100l233 -76l-127 -350l-233 75z" />
    <glyph glyph-name="uni0157" unicode="&#x157;" horiz-adv-x="974" 
d="M100 0v879q0 85 45.5 129.5t130.5 42.5l678 -17v-286l-526 12v-760h-328zM137 -100l234 -76l-127 -350l-234 75z" />
    <glyph glyph-name="Rcaron" unicode="&#x158;" horiz-adv-x="1466" 
d="M1145 1845l-443 -309l-442 309l174 164l268 -186l269 186zM123 0v1444h559q110 0 200 -10.5t174.5 -38.5t142 -72.5t92 -116.5t34.5 -166q0 -281 -367 -323v-82h211q85 0 129.5 -44.5t44.5 -129.5v-461h-327v508h-565v-508h-328zM451 795h231q75 0 109.5 1.5t83.5 10
t69.5 27t36.5 53.5t16 88t-16 88.5t-36.5 54t-69.5 27.5t-83.5 10.5t-109.5 1.5h-231v-362z" />
    <glyph glyph-name="rcaron" unicode="&#x159;" horiz-adv-x="1028" 
d="M1008 1436l-443 -310l-442 310l174 163l268 -186l269 186zM141 0v879q0 85 45.5 129.5t130.5 42.5l678 -17v-286l-526 12v-760h-328z" />
    <glyph glyph-name="Sacute" unicode="&#x15a;" horiz-adv-x="1456" 
d="M281 1780l798 176l56 -234l-799 -176zM1395 397q0 -196 -149.5 -306.5t-469.5 -110.5q-192 0 -330.5 38.5t-222.5 114t-123 180t-39 244.5h328q0 -164 89.5 -227.5t307.5 -63.5q151 0 216 32.5t65 94.5q0 68 -112 122q-54 26 -246 91q-16 6 -29 10q-228 76 -317 122
q-165 85 -213 211q-23 60 -23 134q0 185 144.5 283t422.5 98q161 0 285.5 -39.5t201.5 -109.5t115.5 -161.5t38.5 -201.5h-327q0 64 -23.5 109t-67.5 70t-98 36t-125 11q-239 0 -239 -107q0 -35 19.5 -57t73 -46.5t173.5 -64.5q222 -75 285 -101q280 -115 357 -268
q32 -64 32 -137z" />
    <glyph glyph-name="sacute" unicode="&#x15b;" horiz-adv-x="1128" 
d="M127 1370l799 176l55 -233l-799 -176zM1087 285q0 -141 -114 -223t-367 -82q-277 0 -411 103.5t-134 291.5h328q0 -67 53.5 -108.5t173.5 -41.5q144 0 144 70q0 35 -45 59q-29 15 -178 64q-16 5 -58 18.5t-61 19.5t-57.5 20.5t-58 24.5t-51 27t-48 32.5t-37.5 38.5
t-31.5 46.5t-18 54t-7.5 64.5q0 138 118 214.5t332 76.5q127 0 224 -30t155 -82.5t86.5 -118.5t28.5 -144h-328q0 58 -43 93.5t-125 35.5q-121 0 -121 -59q0 -36 88 -73q43 -17 178 -61q162 -53 216 -80q128 -63 158 -168q11 -38 11 -83z" />
    <glyph glyph-name="Scedilla" unicode="&#x15e;" horiz-adv-x="1456" 
d="M1395 397q0 -188 -136.5 -297.5t-429.5 -119.5l-92 -103q87 41 191 41q47 0 83.5 -9.5t64.5 -39.5t28 -78q0 -42 -17 -75.5t-45 -56.5t-72.5 -39.5t-90 -26t-107.5 -15t-116 -7t-124 -1.5v184h74q148 -1 200 6.5t52 40.5q0 15 -13 25t-34 10q-55 0 -160 -37l-104 80
l51 111q-282 33 -409.5 176t-127.5 391h328q0 -164 89.5 -227.5t307.5 -63.5q151 0 216 32.5t65 94.5q0 68 -112 122q-54 26 -246 91q-16 6 -29 10q-228 76 -317 122q-165 85 -213 211q-23 60 -23 134q0 185 144.5 283t422.5 98q161 0 285.5 -39.5t201.5 -109.5
t115.5 -161.5t38.5 -201.5h-327q0 64 -23.5 109t-67.5 70t-98 36t-125 11q-239 0 -239 -107q0 -35 19.5 -57t73 -46.5t173.5 -64.5q222 -75 285 -101q280 -115 357 -268q32 -64 32 -137z" />
    <glyph glyph-name="scedilla" unicode="&#x15f;" horiz-adv-x="1128" 
d="M1087 285q0 -130 -97.5 -211t-311.5 -92l-94 -105q87 41 190 41q47 0 83.5 -9.5t64.5 -39.5t28 -78q0 -42 -17 -75.5t-44.5 -56.5t-72 -39.5t-90 -26t-107.5 -15t-116 -7t-124 -1.5v184h74q148 -1 200 6.5t52 40.5q0 15 -13.5 25t-34.5 10q-54 0 -159 -37l-105 80l51 111
q-195 29 -289 128t-94 257h328q0 -67 53.5 -108.5t173.5 -41.5q144 0 144 70q0 35 -45 59q-29 15 -178 64q-16 5 -58 18.5t-61 19.5t-57.5 20.5t-58 24.5t-51 27t-48 32.5t-37.5 38.5t-31.5 46.5t-18 54t-7.5 64.5q0 138 118 214.5t332 76.5q127 0 224 -30t155 -82.5
t86.5 -118.5t28.5 -144h-328q0 58 -43 93.5t-125 35.5q-121 0 -121 -59q0 -36 88 -73q43 -17 178 -61q162 -53 216 -80q128 -63 158 -168q11 -38 11 -83z" />
    <glyph glyph-name="Scaron" unicode="&#x160;" horiz-adv-x="1456" 
d="M1171 1845l-442 -309l-442 309l174 164l268 -186l268 186zM1395 397q0 -196 -149.5 -306.5t-469.5 -110.5q-192 0 -330.5 38.5t-222.5 114t-123 180t-39 244.5h328q0 -164 89.5 -227.5t307.5 -63.5q151 0 216 32.5t65 94.5q0 68 -112 122q-54 26 -246 91q-16 6 -29 10
q-228 76 -317 122q-165 85 -213 211q-23 60 -23 134q0 185 144.5 283t422.5 98q161 0 285.5 -39.5t201.5 -109.5t115.5 -161.5t38.5 -201.5h-327q0 64 -23.5 109t-67.5 70t-98 36t-125 11q-239 0 -239 -107q0 -35 19.5 -57t73 -46.5t173.5 -64.5q222 -75 285 -101
q280 -115 357 -268q32 -64 32 -137z" />
    <glyph glyph-name="scaron" unicode="&#x161;" horiz-adv-x="1128" 
d="M1018 1436l-443 -310l-442 310l174 163l268 -186l269 186zM1087 285q0 -141 -114 -223t-367 -82q-277 0 -411 103.5t-134 291.5h328q0 -67 53.5 -108.5t173.5 -41.5q144 0 144 70q0 35 -45 59q-29 15 -178 64q-16 5 -58 18.5t-61 19.5t-57.5 20.5t-58 24.5t-51 27
t-48 32.5t-37.5 38.5t-31.5 46.5t-18 54t-7.5 64.5q0 138 118 214.5t332 76.5q127 0 224 -30t155 -82.5t86.5 -118.5t28.5 -144h-328q0 58 -43 93.5t-125 35.5q-121 0 -121 -59q0 -36 88 -73q43 -17 178 -61q162 -53 216 -80q128 -63 158 -168q11 -38 11 -83z" />
    <glyph glyph-name="uni0162" unicode="&#x162;" horiz-adv-x="1394" 
d="M862 0h-45l-110 -123q87 41 190 41q47 0 83.5 -9.5t64.5 -39.5t28 -78q0 -42 -17 -75.5t-44.5 -56.5t-72 -39.5t-90 -26t-107.5 -15t-116 -7t-124 -1.5v184h74q147 -1 199 6.5t52 40.5q0 15 -13 25t-34 10q-54 0 -159 -37l-105 80l55 121h-36v1157h-474v287h1272v-287
h-471v-1157z" />
    <glyph glyph-name="uni0163" unicode="&#x163;" horiz-adv-x="1036" 
d="M819 -82q47 0 83.5 -9.5t64.5 -39.5t28 -78q0 -42 -17 -75.5t-44.5 -56.5t-72 -39.5t-90 -26t-107.5 -15t-116 -7t-124 -1.5v184h74q148 -1 200 6.5t52 40.5q0 15 -13.5 25t-34.5 10q-54 0 -159 -37l-105 80l47 103l-45 -2q-84 -3 -129 43t-45 131v594h-246v286h246v195
l328 102v-297h340v-286h-340v-482l381 21v-287l-244 -10l-102 -113q87 41 190 41z" />
    <glyph glyph-name="Tcaron" unicode="&#x164;" horiz-adv-x="1394" 
d="M1141 1845l-443 -309l-442 309l174 164l268 -186l269 186zM1333 1444v-287h-471v-1157h-327v1157h-474v287h1272z" />
    <glyph glyph-name="tcaron" unicode="&#x165;" horiz-adv-x="1036" 
d="M729 1505h246v-368h-246v368zM594 748v-482l381 21v-287l-535 -20q-84 -3 -129 43t-45 131v594h-246v286h246v195l328 102v-297h340v-286h-340z" />
    <glyph glyph-name="Tbar" unicode="&#x166;" horiz-adv-x="1394" 
d="M1333 1157h-471v-348h305v-246h-305v-563h-327v563h-310v246h310v348h-474v287h1272v-287z" />
    <glyph glyph-name="tbar" unicode="&#x167;" horiz-adv-x="1036" 
d="M594 266l381 21v-287l-535 -20q-84 -3 -129 43t-45 131v260h-205v245h205v89h-246v286h246v195l328 102v-297h340v-286h-340v-89h299v-245h-299v-148z" />
    <glyph glyph-name="Umacron" unicode="&#x16a;" horiz-adv-x="1468" 
d="M293 1884h881v-242l-881 -4v246zM82 537v907h328v-762q0 -55 1.5 -92.5t6.5 -81t15 -72t25.5 -58.5t40 -48.5t57 -34t77 -22.5t100.5 -7t100.5 7t77.5 22t57.5 34t40.5 48.5t26 59t15.5 72t7 81t1.5 92.5v762h327v-907q0 -271 -166.5 -414t-486.5 -143t-485.5 143
t-165.5 414z" />
    <glyph glyph-name="umacron" unicode="&#x16b;" horiz-adv-x="1368" 
d="M244 1475h880v-242l-880 -4v246zM643 266q143 0 219 88.5t76 296.5v383h328v-1034h-328v125l61 184h-81q-33 -146 -133.5 -237.5t-258.5 -91.5q-200 0 -312 129t-112 366v559h328v-508q0 -142 47.5 -201t165.5 -59z" />
    <glyph glyph-name="Uring" unicode="&#x16e;" horiz-adv-x="1468" 
d="M731 1546q-153 0 -237 63.5t-84 188.5q0 124 84.5 188t236.5 64t238 -64t86 -188t-86 -188t-238 -64zM731 1731q78 0 78 67q0 66 -78 66q-76 0 -76 -66q0 -67 76 -67zM82 537v907h328v-762q0 -55 1.5 -92.5t6.5 -81t15 -72t25.5 -58.5t40 -48.5t57 -34t77 -22.5t100.5 -7
t100.5 7t77.5 22t57.5 34t40.5 48.5t26 59t15.5 72t7 81t1.5 92.5v762h327v-907q0 -271 -166.5 -414t-486.5 -143t-485.5 143t-165.5 414z" />
    <glyph glyph-name="uring" unicode="&#x16f;" horiz-adv-x="1368" 
d="M682 1137q-153 0 -237.5 63.5t-84.5 188.5q0 124 85 187.5t237 63.5q153 0 238.5 -63.5t85.5 -187.5t-86 -188t-238 -64zM682 1321q78 0 78 68q0 65 -78 65q-76 0 -76 -65q0 -68 76 -68zM643 266q143 0 219 88.5t76 296.5v383h328v-1034h-328v125l61 184h-81
q-33 -146 -133.5 -237.5t-258.5 -91.5q-200 0 -312 129t-112 366v559h328v-508q0 -142 47.5 -201t165.5 -59z" />
    <glyph glyph-name="Uhungarumlaut" unicode="&#x170;" horiz-adv-x="1468" 
d="M258 1706l410 346l172 -160l-410 -346zM770 1706l410 346l172 -160l-410 -346zM82 537v907h328v-762q0 -55 1.5 -92.5t6.5 -81t15 -72t25.5 -58.5t40 -48.5t57 -34t77 -22.5t100.5 -7t100.5 7t77.5 22t57.5 34t40.5 48.5t26 59t15.5 72t7 81t1.5 92.5v762h327v-907
q0 -271 -166.5 -414t-486.5 -143t-485.5 143t-165.5 414z" />
    <glyph glyph-name="uhungarumlaut" unicode="&#x171;" horiz-adv-x="1368" 
d="M209 1296l409 346l173 -159l-410 -346zM721 1296l409 346l173 -159l-410 -346zM643 266q143 0 219 88.5t76 296.5v383h328v-1034h-328v125l61 184h-81q-33 -146 -133.5 -237.5t-258.5 -91.5q-200 0 -312 129t-112 366v559h328v-508q0 -142 47.5 -201t165.5 -59z" />
    <glyph glyph-name="Uogonek" unicode="&#x172;" horiz-adv-x="1468" 
d="M1059 1444h327v-907q0 -222 -112 -359t-330 -180l-76 -160l279 29v-246l-379 -31q-53 -4 -98 14.5t-68.5 51t-29 73t21.5 78.5l113 173q-307 6 -466 149t-159 408v907h328v-762q0 -55 1.5 -92.5t6.5 -81t15 -72t25.5 -58.5t40 -48.5t57 -34t77 -22.5t100.5 -7t100.5 7
t77.5 22t57.5 34t40.5 48.5t26 59t15.5 72t7 81t1.5 92.5v762z" />
    <glyph glyph-name="uogonek" unicode="&#x173;" horiz-adv-x="1368" 
d="M1188 -162l278 29v-246l-379 -31q-53 -4 -98 14.5t-68.5 51t-29 73t21.5 78.5l125 193h-100v125l61 184h-81q-33 -146 -133.5 -237.5t-258.5 -91.5q-200 0 -312 129t-112 366v559h328v-508q0 -142 47.5 -201t165.5 -59q143 0 219 88.5t76 296.5v383h328v-1034z" />
    <glyph glyph-name="Wcircumflex" unicode="&#x174;" horiz-adv-x="2392" 
d="M1638 1688l-174 -164l-268 186l-268 -186l-174 164l442 309zM41 1444h317l230 -1362h82l178 1362h696l178 -1362h82l230 1362h317l-248 -1444h-680l-186 1362h-82l-186 -1362h-680z" />
    <glyph glyph-name="wcircumflex" unicode="&#x175;" horiz-adv-x="1941" 
d="M1413 1278l-174 -164l-268 186l-269 -186l-174 164l443 309zM20 1034h314l133 -952h82l80 952h684l80 -952h82l135 952h311l-145 -1034h-684l-80 952h-82l-80 -952h-684z" />
    <glyph glyph-name="Ycircumflex" unicode="&#x176;" horiz-adv-x="1480" 
d="M1182 1688l-174 -164l-269 186l-268 -186l-174 164l442 309zM1090 1444h350l-537 -979v-465h-328v465l-534 979h350l307 -602v-185h82v185z" />
    <glyph glyph-name="ycircumflex" unicode="&#x177;" horiz-adv-x="1376" 
d="M698 1300l-268 -186l-174 164l442 309l443 -309l-174 -164zM965 1034h370l-473 -973v-319q0 -86 -45.5 -130.5t-130.5 -41.5l-506 14v287l355 -6v196l-474 973h369l227 -569v-164h82v164z" />
    <glyph glyph-name="Ydieresis" unicode="&#x178;" horiz-adv-x="1480" 
d="M471 1546q-98 0 -150.5 42.5t-52.5 121.5q0 78 52.5 121t150.5 43t152.5 -43t54.5 -121q0 -79 -54 -121.5t-153 -42.5zM1004 1546q-98 0 -150.5 42.5t-52.5 121.5q0 78 52.5 121t150.5 43t152 -43t54 -121q0 -79 -53.5 -121.5t-152.5 -42.5zM1090 1444h350l-537 -979
v-465h-328v465l-534 979h350l307 -602v-185h82v185z" />
    <glyph glyph-name="Zacute" unicode="&#x179;" horiz-adv-x="1366" 
d="M236 1780l798 176l56 -234l-799 -176zM82 0v604l1120 533v82l-184 -62h-936v287h1202v-604l-1120 -533v-82l184 62h936v-287h-1202z" />
    <glyph glyph-name="zacute" unicode="&#x17a;" horiz-adv-x="1181" 
d="M143 1370l799 176l55 -233l-798 -176zM82 0v553l936 174v82l-184 -61h-752v286h1018v-553l-936 -174v-82l184 62h752v-287h-1018z" />
    <glyph glyph-name="Zdotaccent" unicode="&#x17b;" horiz-adv-x="1366" 
d="M682 1546q-98 0 -150.5 42.5t-52.5 121.5q0 78 52.5 121t150.5 43t152.5 -43t54.5 -121q0 -79 -54 -121.5t-153 -42.5zM82 0v604l1120 533v82l-184 -62h-936v287h1202v-604l-1120 -533v-82l184 62h936v-287h-1202z" />
    <glyph glyph-name="zdotaccent" unicode="&#x17c;" horiz-adv-x="1181" 
d="M590 1137q-98 0 -150.5 42t-52.5 121q0 78 52.5 121t150.5 43t152.5 -43t54.5 -121q0 -79 -54 -121t-153 -42zM82 0v553l936 174v82l-184 -61h-752v286h1018v-553l-936 -174v-82l184 62h752v-287h-1018z" />
    <glyph glyph-name="Zcaron" unicode="&#x17d;" horiz-adv-x="1366" 
d="M1126 1845l-442 -309l-442 309l174 164l268 -186l268 186zM82 0v604l1120 533v82l-184 -62h-936v287h1202v-604l-1120 -533v-82l184 62h936v-287h-1202z" />
    <glyph glyph-name="zcaron" unicode="&#x17e;" horiz-adv-x="1181" 
d="M1034 1436l-442 -310l-442 310l174 163l268 -186l268 186zM82 0v553l936 174v82l-184 -61h-752v286h1018v-553l-936 -174v-82l184 62h752v-287h-1018z" />
    <glyph glyph-name="uni0218" unicode="&#x218;" horiz-adv-x="1456" 
d="M1395 397q0 -196 -149.5 -306.5t-469.5 -110.5q-192 0 -330.5 38.5t-222.5 114t-123 180t-39 244.5h328q0 -164 89.5 -227.5t307.5 -63.5q151 0 216 32.5t65 94.5q0 68 -112 122q-54 26 -246 91q-16 6 -29 10q-228 76 -317 122q-165 85 -213 211q-23 60 -23 134
q0 185 144.5 283t422.5 98q161 0 285.5 -39.5t201.5 -109.5t115.5 -161.5t38.5 -201.5h-327q0 64 -23.5 109t-67.5 70t-98 36t-125 11q-239 0 -239 -107q0 -35 19.5 -57t73 -46.5t173.5 -64.5q222 -75 285 -101q280 -115 357 -268q32 -64 32 -137zM600 -100l234 -76
l-127 -350l-234 75z" />
    <glyph glyph-name="uni0219" unicode="&#x219;" horiz-adv-x="1128" 
d="M1087 285q0 -141 -114 -223t-367 -82q-277 0 -411 103.5t-134 291.5h328q0 -67 53.5 -108.5t173.5 -41.5q144 0 144 70q0 35 -45 59q-29 15 -178 64q-16 5 -58 18.5t-61 19.5t-57.5 20.5t-58 24.5t-51 27t-48 32.5t-37.5 38.5t-31.5 46.5t-18 54t-7.5 64.5
q0 138 118 214.5t332 76.5q127 0 224 -30t155 -82.5t86.5 -118.5t28.5 -144h-328q0 58 -43 93.5t-125 35.5q-121 0 -121 -59q0 -36 88 -73q43 -17 178 -61q162 -53 216 -80q128 -63 158 -168q11 -38 11 -83zM446 -100l234 -76l-127 -350l-234 75z" />
    <glyph glyph-name="uni021A" unicode="&#x21a;" horiz-adv-x="1394" 
d="M1333 1444v-287h-471v-1157h-327v1157h-474v287h1272zM442 -451l127 351l234 -76l-127 -350z" />
    <glyph glyph-name="uni021B" unicode="&#x21b;" horiz-adv-x="1036" 
d="M594 266l381 21v-287l-535 -20q-84 -3 -129 43t-45 131v594h-246v286h246v195l328 102v-297h340v-286h-340v-482zM365 -451l127 351l233 -76l-127 -350z" />
    <glyph glyph-name="circumflex" unicode="&#x2c6;" horiz-adv-x="1171" 
d="M1028 1278l-174 -164l-268 186l-269 -186l-174 164l443 309z" />
    <glyph glyph-name="caron" unicode="&#x2c7;" horiz-adv-x="1171" 
d="M1028 1436l-442 -310l-443 310l174 163l269 -186l268 186z" />
    <glyph glyph-name="breve" unicode="&#x2d8;" horiz-adv-x="1036" 
d="M893 1544q0 -82 -20.5 -152.5t-63 -129t-117 -92t-174.5 -33.5t-174.5 33.5t-117 92t-63 129t-20.5 152.5h246q0 -102 32.5 -142t96.5 -40t96.5 40t32.5 142h246z" />
    <glyph glyph-name="dotaccent" unicode="&#x2d9;" horiz-adv-x="696" 
d="M346 1137q-98 0 -150.5 42t-52.5 121q0 78 52.5 121t150.5 43t152.5 -43t54.5 -121q0 -79 -54 -121t-153 -42z" />
    <glyph glyph-name="ring" unicode="&#x2da;" horiz-adv-x="890" 
d="M465 1137q-153 0 -237.5 63.5t-84.5 188.5q0 124 85 187.5t237 63.5t237.5 -63.5t85.5 -187.5t-85.5 -188t-237.5 -64zM465 1321q78 0 78 68q0 65 -78 65q-76 0 -76 -65q0 -68 76 -68z" />
    <glyph glyph-name="ogonek" unicode="&#x2db;" horiz-adv-x="862" 
d="M719 -133v-246l-379 -31q-53 -4 -98 14.5t-68.5 51t-29 73t21.5 78.5l127 195h225l-78 -164z" />
    <glyph glyph-name="tilde" unicode="&#x2dc;" horiz-adv-x="1245" 
d="M143 1208q0 179 80.5 284t220.5 105q52 0 97.5 -17t76.5 -40.5t58 -47.5t53.5 -41t50.5 -17q38 0 57 29t19 114h246q0 -179 -80.5 -284t-220.5 -105q-52 0 -97.5 17t-76.5 41t-58 48t-53.5 41t-50.5 17q-38 0 -57 -29t-19 -115h-246z" />
    <glyph glyph-name="hungarumlaut" unicode="&#x2dd;" horiz-adv-x="1380" 
d="M143 1296l410 346l172 -159l-410 -346zM655 1296l410 346l172 -159l-410 -346z" />
    <glyph glyph-name="gravecomb" unicode="&#x300;" horiz-adv-x="0" 
d="M-143 1370l-56 -233l-798 176l55 233z" />
    <glyph glyph-name="acutecomb" unicode="&#x301;" horiz-adv-x="0" 
d="M-997 1370l798 176l56 -233l-799 -176z" />
    <glyph glyph-name="uni0302" unicode="&#x302;" horiz-adv-x="0" 
d="M-143 1278l-174 -164l-269 186l-268 -186l-174 164l442 309z" />
    <glyph glyph-name="tildecomb" unicode="&#x303;" horiz-adv-x="0" 
d="M-1102 1208q0 179 80.5 284t220.5 105q52 0 97.5 -17t76.5 -40.5t58 -47.5t53.5 -41t50.5 -17q38 0 57 29t19 114h246q0 -179 -80.5 -284t-220.5 -105q-52 0 -97.5 17t-76.5 41t-58 48t-53.5 41t-50.5 17q-38 0 -57 -29t-19 -115h-246z" />
    <glyph glyph-name="uni0304" unicode="&#x304;" horiz-adv-x="0" 
d="M-1024 1475h881v-242l-881 -4v246z" />
    <glyph glyph-name="uni0306" unicode="&#x306;" horiz-adv-x="0" 
d="M-143 1544q0 -82 -20.5 -152.5t-63 -129t-117 -92t-174.5 -33.5t-174.5 33.5t-117 92t-63 129t-20.5 152.5h246q0 -102 32.5 -142t96.5 -40t96.5 40t32.5 142h246z" />
    <glyph glyph-name="uni0307" unicode="&#x307;" horiz-adv-x="0" 
d="M-350 1137q-98 0 -150.5 42t-52.5 121q0 78 52.5 121t150.5 43t152.5 -43t54.5 -121q0 -79 -54 -121t-153 -42z" />
    <glyph glyph-name="uni0308" unicode="&#x308;" horiz-adv-x="0" 
d="M-883 1137q-98 0 -150 42t-52 121q0 78 52 121t150 43t152.5 -43t54.5 -121q0 -79 -54 -121t-153 -42zM-350 1137q-98 0 -150.5 42t-52.5 121q0 78 52.5 121t150.5 43t152.5 -43t54.5 -121q0 -79 -54 -121t-153 -42z" />
    <glyph glyph-name="uni030A" unicode="&#x30a;" horiz-adv-x="0" 
d="M-467 1137q-153 0 -237 63.5t-84 188.5q0 124 84.5 187.5t236.5 63.5q153 0 238.5 -63.5t85.5 -187.5t-86 -188t-238 -64zM-467 1321q78 0 78 68q0 65 -78 65q-76 0 -76 -65q0 -68 76 -68z" />
    <glyph glyph-name="uni030B" unicode="&#x30b;" horiz-adv-x="0" 
d="M-1237 1296l410 346l172 -159l-410 -346zM-725 1296l410 346l172 -159l-410 -346z" />
    <glyph glyph-name="uni030C" unicode="&#x30c;" horiz-adv-x="0" 
d="M-143 1436l-443 -310l-442 310l174 163l268 -186l269 186z" />
    <glyph glyph-name="uni0312" unicode="&#x312;" horiz-adv-x="0" 
d="M-381 1645l238 -64l-150 -444l-237 63z" />
    <glyph glyph-name="uni0326" unicode="&#x326;" horiz-adv-x="0" 
d="M-387 -100l233 -76l-127 -350l-233 75z" />
    <glyph glyph-name="uni0327" unicode="&#x327;" horiz-adv-x="0" 
d="M-319 -82q47 0 83.5 -9.5t64.5 -39.5t28 -78q0 -42 -17 -75.5t-45 -56.5t-72.5 -39.5t-90 -26t-107.5 -15t-116 -7t-124 -1.5v184h74q148 -1 200 6.5t52 40.5q0 15 -13 25t-34 10q-55 0 -160 -37l-104 80l55 121h246l-111 -123q87 41 191 41z" />
    <glyph glyph-name="uni0328" unicode="&#x328;" horiz-adv-x="0" 
d="M-143 -133v-246l-379 -31q-53 -4 -98 14.5t-68.5 51t-29 73t21.5 78.5l127 195h225l-78 -164z" />
    <glyph glyph-name="uni0400" unicode="&#x400;" horiz-adv-x="1234" 
d="M1085 1780l-55 -234l-799 176l56 234zM123 0v1444h1030v-287h-702v-291h600v-286h-600v-293h702v-287h-1030z" />
    <glyph glyph-name="uni0401" unicode="&#x401;" horiz-adv-x="1234" 
d="M371 1546q-98 0 -150.5 42.5t-52.5 121.5q0 78 52.5 121t150.5 43t152.5 -43t54.5 -121q0 -79 -54 -121.5t-153 -42.5zM903 1546q-98 0 -150.5 42.5t-52.5 121.5q0 78 52.5 121t150.5 43t152.5 -43t54.5 -121q0 -79 -54 -121.5t-153 -42.5zM123 0v1444h1030v-287h-702
v-291h600v-286h-600v-293h702v-287h-1030z" />
    <glyph glyph-name="uni0402" unicode="&#x402;" horiz-adv-x="1775" 
d="M1085 907q140 22 252.5 10t192 -56t122 -134.5t42.5 -226.5q0 -117 -38.5 -207.5t-99.5 -144.5t-148 -88.5t-173.5 -47t-185.5 -12.5v287q158 0 237.5 51.5t79.5 140.5q0 72 -36.5 109t-100.5 40.5t-150 -7.5l-260 -37v-584h-327v1157h-451v287h1229v-287h-451v-287z" />
    <glyph glyph-name="uni0403" unicode="&#x403;" horiz-adv-x="1202" 
d="M211 1780l799 176l55 -234l-799 -176zM123 0v1444h1018v-287h-690v-1157h-328z" />
    <glyph glyph-name="uni0404" unicode="&#x404;" horiz-adv-x="1658" 
d="M848 266q151 0 254 76.5t127 216.5h327q-32 -269 -221.5 -424t-490.5 -155q-169 0 -309 57t-234.5 156.5t-146.5 235.5t-52 294q0 210 88.5 377.5t259 265.5t394.5 98q301 0 490.5 -154.5t221.5 -422.5h-327q-24 140 -127 215.5t-254 75.5q-157 0 -263 -80t-141 -232h523
v-286h-523q35 -152 140.5 -233t263.5 -81z" />
    <glyph glyph-name="uni0405" unicode="&#x405;" horiz-adv-x="1456" 
d="M1395 397q0 -196 -149.5 -306.5t-469.5 -110.5q-192 0 -330.5 38.5t-222.5 114t-123 180t-39 244.5h328q0 -164 89.5 -227.5t307.5 -63.5q151 0 216 32.5t65 94.5q0 68 -112 122q-54 26 -246 91q-16 6 -29 10q-228 76 -317 122q-165 85 -213 211q-23 60 -23 134
q0 185 144.5 283t422.5 98q161 0 285.5 -39.5t201.5 -109.5t115.5 -161.5t38.5 -201.5h-327q0 64 -23.5 109t-67.5 70t-98 36t-125 11q-239 0 -239 -107q0 -35 19.5 -57t73 -46.5t173.5 -64.5q222 -75 285 -101q280 -115 357 -268q32 -64 32 -137z" />
    <glyph glyph-name="uni0406" unicode="&#x406;" horiz-adv-x="1187" 
d="M1085 1157h-327v-870h327v-287h-983v287h328v870h-328v287h983v-287z" />
    <glyph glyph-name="uni0407" unicode="&#x407;" horiz-adv-x="1187" 
d="M326 1546q-98 0 -150.5 42.5t-52.5 121.5q0 78 52.5 121t150.5 43t152 -43t54 -121q0 -79 -53.5 -121.5t-152.5 -42.5zM858 1546q-98 0 -150.5 42.5t-52.5 121.5q0 78 52.5 121t150.5 43t152.5 -43t54.5 -121q0 -79 -54 -121.5t-153 -42.5zM1085 1157h-327v-870h327v-287
h-983v287h328v870h-328v287h983v-287z" />
    <glyph glyph-name="uni0408" unicode="&#x408;" horiz-adv-x="1095" 
d="M408 -20l-367 20v287l367 -21q59 -3 102.5 6.5t71.5 36t45 57.5t25.5 82.5t11 98t2.5 117.5v514l-435 -21v287l588 20q84 3 129 -43t45 -131v-737q0 -106 -11 -186.5t-37.5 -149t-70.5 -114.5t-108.5 -77t-153.5 -42t-204 -4z" />
    <glyph glyph-name="uni0409" unicode="&#x409;" horiz-adv-x="2299" 
d="M1575 973q115 0 200.5 -9.5t173 -40t143.5 -82.5t91 -142t35 -214q0 -89 -18 -160.5t-48.5 -122t-78.5 -87t-100 -58.5t-120.5 -35t-133 -17.5t-144.5 -4.5h-518v1157h-387q-1 -119 -5 -213t-14 -197t-25 -182t-39.5 -159.5t-58 -139t-80.5 -111.5t-105.5 -85.5
t-134.5 -51t-167 -18.5v287q160 0 229 187q62 166 71 569q3 123 3 401h1040v-471h191zM1575 287q64 0 105.5 2.5t80.5 9.5t60.5 20t38.5 35.5t23.5 54t6.5 76.5q0 54 -11 89.5t-31 58t-61 34t-88 15.5t-124 4h-191v-399h191z" />
    <glyph glyph-name="uni040A" unicode="&#x40a;" horiz-adv-x="2418" 
d="M1694 973q115 0 200.5 -9.5t173 -40t143.5 -82.5t91 -142t35 -214q0 -89 -18 -160.5t-48.5 -122t-78.5 -87t-100 -58.5t-120.5 -35t-133 -17.5t-144.5 -4.5h-518v559h-725v-559h-328v1444h328v-598h725v598h327v-471h191zM1694 287q64 0 105.5 2.5t80.5 9.5t60.5 20
t38.5 35.5t23.5 54t6.5 76.5q0 54 -11 89.5t-31 58t-61 34t-88 15.5t-124 4h-191v-399h191z" />
    <glyph glyph-name="uni040B" unicode="&#x40b;" horiz-adv-x="1767" 
d="M1466 1018q86 5 132.5 -38.5t46.5 -129.5v-850h-328v723l-635 -33v-690h-328v1157h-313v287h1147v-287h-506v-180z" />
    <glyph glyph-name="uni040C" unicode="&#x40c;" horiz-adv-x="1425" 
d="M1098 1722l-799 -176l-55 234l798 176zM995 0l-432 555q-53 -44 -112 -55v-500h-328v1444h328v-555l397 457q85 98 213 98h282v-287h-247l-324 -369l612 -788h-389z" />
    <glyph glyph-name="uni040D" unicode="&#x40d;" horiz-adv-x="1675" 
d="M1317 1780l-55 -234l-799 176l55 234zM1552 0h-327v1157l61 205h-82l-436 -1362h-645v1444h328v-1157l-62 -205h82l436 1362h645v-1444z" />
    <glyph glyph-name="uni040F" unicode="&#x40f;" horiz-adv-x="1544" 
d="M1094 1444h327v-1444h-485v-287h-328v287h-485v1444h328v-1157h643v1157z" />
    <glyph glyph-name="uni0410" unicode="&#x410;" horiz-adv-x="1591" 
d="M1219 0l-132 463h-585l-129 -463h-332l416 1444h676l417 -1444h-331zM582 750h426l-172 612h-82z" />
    <glyph glyph-name="uni0411" unicode="&#x411;" horiz-adv-x="1386" 
d="M641 973q115 0 200.5 -9.5t173 -40t143.5 -82.5t91 -142t35 -214q0 -89 -18 -160.5t-48.5 -122t-78.5 -87t-100 -58.5t-120.5 -35t-133 -17.5t-144.5 -4.5h-518v1444h991v-287h-663v-184h190zM641 287q64 0 105.5 2.5t80.5 9.5t60.5 20t38.5 35.5t23.5 54t6.5 76.5
q0 54 -11 89.5t-31 58t-61 34t-88 15.5t-124 4h-190v-399h190z" />
    <glyph glyph-name="uni0412" unicode="&#x412;" horiz-adv-x="1435" 
d="M123 0v1444h508q126 0 216.5 -9.5t165.5 -33t120.5 -63.5t69.5 -101.5t24 -146.5q0 -43 -7 -78.5t-17 -62t-29 -48t-35.5 -35.5t-44 -25.5t-46.5 -17t-51.5 -10.5t-50.5 -6.5t-52 -4.5q-9 -1 -13 -1v-82q43 -2 73.5 -3.5t71.5 -6.5t70 -12.5t63.5 -20t57.5 -29.5t47 -42
t38 -56.5t22.5 -73.5t8.5 -92q0 -80 -23.5 -142t-69.5 -103.5t-104 -69t-138.5 -42t-160.5 -20.5t-182 -6h-532zM451 895h221q33 0 48.5 0.5t42.5 1.5t40 4.5t32 9.5t28 16t19 23.5t13.5 32.5t3.5 43t-3.5 43t-13.5 32.5t-19 23.5t-28 16t-32 9.5t-40 4.5t-42.5 1.5
t-48.5 0.5h-221v-262zM451 287h245q157 0 209 13q79 21 96 94q5 23 5 52q0 24 -3 44t-11 35t-15.5 27t-24 21t-28 15t-35.5 9.5t-39.5 6t-47 3.5t-50 1h-56.5h-245v-321z" />
    <glyph glyph-name="uni0413" unicode="&#x413;" horiz-adv-x="1202" 
d="M123 0v1444h1018v-287h-690v-1157h-328z" />
    <glyph glyph-name="uni0414" unicode="&#x414;" horiz-adv-x="1585" 
d="M1409 287h135v-574h-327v287h-848v-287h-328v574h135q101 130 157 422t56 735h1020v-1157zM504 287h577v870h-370q-34 -649 -207 -870z" />
    <glyph glyph-name="uni0415" unicode="&#x415;" horiz-adv-x="1234" 
d="M123 0v1444h1030v-287h-702v-291h600v-286h-600v-293h702v-287h-1030z" />
    <glyph glyph-name="uni0416" unicode="&#x416;" horiz-adv-x="2195" 
d="M2154 1157h-247l-359 -409l606 -748h-405l-416 526q-34 -21 -71 -26v-500h-328v500q-38 6 -72 26l-416 -526h-405l606 748l-358 409h-248v287h283q128 0 213 -98l397 -457v555h328v-555l397 457q85 98 213 98h282v-287z" />
    <glyph glyph-name="uni0417" unicode="&#x417;" horiz-adv-x="1499" 
d="M102 551h328q0 -167 75 -226t271 -59q157 0 225 39t68 127q0 84 -52 126t-147 42h-200v287h200q179 0 179 145q0 75 -60.5 110.5t-212.5 35.5q-189 0 -257 -48.5t-68 -175.5h-328q0 109 32.5 196t90 145t140.5 96.5t179.5 55.5t210.5 17q131 0 240 -24.5t189.5 -72
t125.5 -122.5t45 -172q0 -63 -19 -110.5t-47 -76t-77 -50t-91.5 -31.5t-107.5 -21v-82q43 -6 69 -10.5t64.5 -12.5t62.5 -19t53.5 -27t47.5 -38t34.5 -51t24 -67.5t7.5 -85.5q0 -104 -48 -184t-133.5 -129t-196 -73.5t-243.5 -24.5q-116 0 -213 17.5t-184 59t-147 105.5
t-95 163t-35 226z" />
    <glyph glyph-name="uni0418" unicode="&#x418;" horiz-adv-x="1675" 
d="M1552 0h-327v1157l61 205h-82l-436 -1362h-645v1444h328v-1157l-62 -205h82l436 1362h645v-1444z" />
    <glyph glyph-name="uni0419" unicode="&#x419;" horiz-adv-x="1675" 
d="M1245 1954q0 -82 -20.5 -152.5t-63 -129t-117 -92.5t-174.5 -34q-80 0 -144.5 22.5t-106.5 60.5t-70.5 91t-40.5 111t-12 123h245q0 -102 32.5 -142t96.5 -40t96.5 40t32.5 142h246zM1552 0h-327v1157l61 205h-82l-436 -1362h-645v1444h328v-1157l-62 -205h82l436 1362
h645v-1444z" />
    <glyph glyph-name="uni041A" unicode="&#x41a;" horiz-adv-x="1425" 
d="M995 0l-432 555q-53 -44 -112 -55v-500h-328v1444h328v-555l397 457q85 98 213 98h282v-287h-247l-324 -369l612 -788h-389z" />
    <glyph glyph-name="uni041B" unicode="&#x41b;" horiz-adv-x="1507" 
d="M1384 1444v-1444h-327v1157h-387q-1 -119 -5 -213t-14 -197t-25 -182t-39.5 -159.5t-58 -139t-80.5 -111.5t-105.5 -85.5t-134.5 -51t-167 -18.5v287q160 0 229 187q62 166 71 569q3 123 3 401h1040z" />
    <glyph glyph-name="uni041C" unicode="&#x41c;" horiz-adv-x="2039" 
d="M123 0v1444h645l211 -1362h82l211 1362h645v-1444h-328v1157l62 205h-82l-232 -1362h-635l-231 1362h-82l62 -205v-1157h-328z" />
    <glyph glyph-name="uni041D" unicode="&#x41d;" horiz-adv-x="1626" 
d="M1176 1444h327v-1444h-327v559h-725v-559h-328v1444h328v-598h725v598z" />
    <glyph glyph-name="uni041E" unicode="&#x41e;" horiz-adv-x="1677" 
d="M102 723q0 157 51.5 293t145 235t233 156t308.5 57q168 0 307 -57t232.5 -156t144.5 -235t51 -293q0 -158 -51 -294t-144.5 -235.5t-232.5 -156.5t-307 -57q-169 0 -308.5 57t-233 156.5t-145 235.5t-51.5 294zM430 723q0 -214 105 -335.5t305 -121.5t303.5 121.5
t103.5 335.5q0 212 -104 333.5t-303 121.5q-200 0 -305 -121.5t-105 -333.5z" />
    <glyph glyph-name="uni041F" unicode="&#x41f;" horiz-adv-x="1503" 
d="M1380 1444v-1444h-327v1157h-602v-1157h-328v1444h1257z" />
    <glyph glyph-name="uni0420" unicode="&#x420;" horiz-adv-x="1366" 
d="M641 1444q84 0 151 -5t135.5 -19t120 -37.5t98 -62t75.5 -91t46 -126t17 -165.5t-17 -166t-46 -126.5t-75.5 -91t-98 -62.5t-120 -38t-135.5 -19t-151 -5h-190v-430h-328v1444h518zM662 717q54 0 90 2.5t72.5 10t58.5 22.5t40 39.5t25.5 60.5t7.5 86q0 49 -7.5 85
t-25.5 60t-40 39t-58.5 22.5t-72.5 10t-90 2.5h-211v-440h211z" />
    <glyph glyph-name="uni0421" unicode="&#x421;" horiz-adv-x="1658" 
d="M102 723q0 210 88.5 377.5t259 265.5t394.5 98q301 0 490.5 -154.5t221.5 -422.5h-327q-24 140 -127 215.5t-254 75.5q-193 0 -305.5 -118t-112.5 -337q0 -220 112.5 -338.5t305.5 -118.5q151 0 254 76.5t127 216.5h327q-32 -269 -221.5 -424t-490.5 -155q-169 0 -309 57
t-234.5 156.5t-146.5 235.5t-52 294z" />
    <glyph glyph-name="uni0422" unicode="&#x422;" horiz-adv-x="1394" 
d="M1333 1444v-287h-471v-1157h-327v1157h-474v287h1272z" />
    <glyph glyph-name="uni0423" unicode="&#x423;" horiz-adv-x="1417" 
d="M1026 1444h350l-493 -993v-299q0 -86 -45.5 -130.5t-130.5 -41.5l-506 14v287l354 -13v183l-494 993h349l268 -586v-164h82v164z" />
    <glyph glyph-name="uni0424" unicode="&#x424;" horiz-adv-x="1779" 
d="M1718 719q0 -248 -177.5 -394.5t-506.5 -172.5v-152h-286v152q-331 26 -509 172.5t-178 394.5q0 247 178 393t509 172v160h286v-160q329 -26 506.5 -172t177.5 -393zM389 719q0 -138 86.5 -203t272.5 -80v563q-186 -15 -272.5 -79.5t-86.5 -200.5zM1034 436
q184 15 270.5 80.5t86.5 202.5q0 136 -86 200.5t-271 79.5v-563z" />
    <glyph glyph-name="uni0425" unicode="&#x425;" horiz-adv-x="1615" 
d="M41 0l487 682v82l-487 680h377l389 -553l391 553h377l-490 -680v-82l490 -682h-377l-391 555l-389 -555h-377z" />
    <glyph glyph-name="uni0426" unicode="&#x426;" horiz-adv-x="1828" 
d="M1593 287q85 0 129.5 -44.5t44.5 -129.5v-400h-327v287h-1317v1444h328v-1157h602v1157h327v-1157h213z" />
    <glyph glyph-name="uni0427" unicode="&#x427;" horiz-adv-x="1536" 
d="M1085 1444h328v-1444h-328v467l-784 -41q-86 -5 -132 38.5t-46 129.5v850h328v-723l634 33v690z" />
    <glyph glyph-name="uni0428" unicode="&#x428;" horiz-adv-x="2043" 
d="M1593 1444h328v-1444h-1798v1444h328v-1157h407v1157h328v-1157h407v1157z" />
    <glyph glyph-name="uni0429" unicode="&#x429;" horiz-adv-x="2369" 
d="M2134 287q85 0 129.5 -44.5t44.5 -129.5v-400h-328v287h-1857v1444h328v-1157h407v1157h328v-1157h407v1157h328v-1157h213z" />
    <glyph glyph-name="uni042A" unicode="&#x42a;" horiz-adv-x="1611" 
d="M887 973q115 0 200.5 -9.5t173 -40t143.5 -82.5t91 -142t35 -214q0 -89 -18 -160.5t-48.5 -122t-78.5 -87t-100 -58.5t-120.5 -35t-133 -17.5t-144.5 -4.5h-518v1157h-328v287h655v-471h191zM887 287q64 0 105.5 2.5t80.5 9.5t60.5 20t38.5 35.5t23.5 54t6.5 76.5
q0 54 -11 89.5t-31 58t-61 34t-88 15.5t-124 4h-191v-399h191z" />
    <glyph glyph-name="uni042B" unicode="&#x42b;" horiz-adv-x="1916" 
d="M451 1444v-471h190q115 0 200.5 -9.5t173 -40t143.5 -82.5t91 -142t35 -214q0 -89 -18 -160.5t-48.5 -122t-78.5 -87t-100 -58.5t-120.5 -35t-133 -17.5t-144.5 -4.5h-518v1444h328zM1466 1444h328v-1444h-328v1444zM451 287h190q64 0 105.5 2.5t80.5 9.5t60.5 20
t38.5 35.5t23.5 54t6.5 76.5q0 54 -11 89.5t-31 58t-61 34t-88 15.5t-124 4h-190v-399z" />
    <glyph glyph-name="uni042C" unicode="&#x42c;" horiz-adv-x="1366" 
d="M451 1444v-471h190q115 0 200.5 -9.5t173 -40t143.5 -82.5t91 -142t35 -214q0 -89 -18 -160.5t-48.5 -122t-78.5 -87t-100 -58.5t-120.5 -35t-133 -17.5t-144.5 -4.5h-518v1444h328zM451 287h190q64 0 105.5 2.5t80.5 9.5t60.5 20t38.5 35.5t23.5 54t6.5 76.5
q0 54 -11 89.5t-31 58t-61 34t-88 15.5t-124 4h-190v-399z" />
    <glyph glyph-name="uni042D" unicode="&#x42d;" horiz-adv-x="1658" 
d="M815 1464q224 0 394 -98t258.5 -265.5t88.5 -377.5q0 -211 -88.5 -379t-258.5 -266t-394 -98q-301 0 -491 155t-222 424h328q24 -140 127 -216.5t254 -76.5q158 0 263 80.5t140 233.5h-522v286h522q-35 152 -140.5 232t-262.5 80q-151 0 -254 -75.5t-127 -215.5h-328
q32 268 222 422.5t491 154.5z" />
    <glyph glyph-name="uni042E" unicode="&#x42e;" horiz-adv-x="2101" 
d="M1305 1464q168 0 300.5 -54t218.5 -152t130.5 -233.5t44.5 -301.5q0 -167 -44.5 -303t-130.5 -234t-218.5 -152t-300.5 -54q-299 0 -476 160.5t-213 439.5h-165v-580h-328v1444h328v-578h165q38 278 214.5 438t474.5 160zM1305 266q180 0 273 107.5t93 349.5
q0 241 -93 348t-273 107q-181 0 -275 -107.5t-94 -347.5q0 -242 94 -349.5t275 -107.5z" />
    <glyph glyph-name="uni042F" unicode="&#x42f;" horiz-adv-x="1406" 
d="M1284 1444v-1444h-328v594h-151l-246 -469q-65 -125 -207 -125h-311v287h256l172 319q-192 28 -296.5 126t-104.5 288q0 98 30 172t82 121.5t130 77t165 41.5t195 12h614zM956 881v276h-327q-125 0 -179.5 -27t-54.5 -110q0 -84 54 -111.5t180 -27.5h327z" />
    <glyph glyph-name="uni0430" unicode="&#x430;" horiz-adv-x="1318" 
d="M82 283q0 137 95 215.5t319 109.5l325 45q0 65 -51.5 100t-155.5 35q-98 0 -151 -39t-53 -110h-308q0 128 68 223.5t183.5 144t260.5 48.5q110 0 204 -27.5t169.5 -83t118.5 -149.5t43 -217v-291h149v-287h-227q-73 0 -113 40t-40 114v20l51 123h-82q-16 -70 -43.5 -123
t-76 -99t-126 -70.5t-182.5 -24.5q-92 0 -162.5 22t-110 54t-64 75t-32.5 79t-8 73zM410 344q0 -41 32.5 -59.5t79.5 -18.5q136 0 217.5 54.5t81.5 148.5l-264 -37q-81 -12 -114 -29t-33 -59z" />
    <glyph glyph-name="uni0431" unicode="&#x431;" horiz-adv-x="1425" 
d="M102 670q0 158 35.5 278t106.5 204t165 139.5t224 97.5q193 62 261 101t81 97h368q-8 -60 -30.5 -111.5t-53 -89t-77 -69.5t-90.5 -53.5t-106.5 -41.5t-111.5 -32t-118 -27q-209 -44 -310.5 -128.5t-132.5 -241.5l-82 -185h82q34 213 163 330t331 117q235 0 382.5 -149
t147.5 -376q0 -119 -36.5 -217.5t-109.5 -173.5t-193 -117t-277 -42q-297 0 -458 180.5t-161 509.5zM430 518q0 -123 76 -187.5t215 -64.5t214 64.5t75 187.5t-75 186.5t-214 63.5q-140 0 -215.5 -63.5t-75.5 -186.5z" />
    <glyph glyph-name="uni0432" unicode="&#x432;" horiz-adv-x="1179" 
d="M123 0v1034h481q83 0 146.5 -6.5t120 -23t93 -43.5t57.5 -70t21 -100q0 -199 -227 -216v-81q46 -1 84 -5.5t80.5 -19t71.5 -38t48 -65.5t19 -98q0 -268 -438 -268h-557zM430 641h174q79 0 105 14.5t26 69.5q0 52 -27 68t-104 16h-174v-168zM430 225h250q72 0 101.5 21.5
t29.5 75.5q0 57 -28 75.5t-103 18.5h-250v-191z" />
    <glyph glyph-name="uni0433" unicode="&#x433;" horiz-adv-x="1019" 
d="M123 0v1034h876v-286h-548v-748h-328z" />
    <glyph glyph-name="uni0434" unicode="&#x434;" horiz-adv-x="1462" 
d="M1225 287h135v-574h-328v287h-622v-287h-328v574h135q83 110 117.5 278.5t34.5 468.5h856v-747zM545 287h352v461h-211q-12 -161 -46 -270.5t-95 -190.5z" />
    <glyph glyph-name="uni0435" unicode="&#x435;" horiz-adv-x="1292" 
d="M82 530q0 243 150 384t395 141t396 -136t151 -368v-102h-785q0 -93 69 -148t204 -55q88 0 147 31t74 88h327q-6 -47 -29.5 -97.5t-69.5 -102.5t-107 -92.5t-150 -66.5t-192 -26q-144 0 -257 44.5t-182.5 121t-105 174.5t-35.5 210zM389 633h477q0 67 -56.5 111t-182.5 44
t-182 -44t-56 -111z" />
    <glyph glyph-name="uni0436" unicode="&#x436;" horiz-adv-x="1802" 
d="M1761 748h-166l-149 -195l315 -553h-354l-219 385h-19h-104v-385h-328v385h-104h-19l-219 -385h-354l315 553l-149 195h-166v286h184q154 0 217 -84l207 -278h88v362h328v-362h88l207 278q63 84 217 84h184v-286z" />
    <glyph glyph-name="uni0437" unicode="&#x437;" horiz-adv-x="1200" 
d="M102 397h308q0 -117 46.5 -154.5t161.5 -37.5q173 0 173 110q0 61 -38.5 82t-115.5 21h-102v225h102q133 0 133 94q0 52 -37 72t-123 20q-106 0 -143 -26.5t-37 -102.5h-307q0 173 122.5 264t364.5 91q224 0 345.5 -77.5t121.5 -205.5q0 -107 -61.5 -154t-155.5 -47v-82
q45 0 84.5 -11t75.5 -34.5t57 -66.5t21 -101q0 -136 -126.5 -216t-353.5 -80q-516 0 -516 417z" />
    <glyph glyph-name="uni0438" unicode="&#x438;" horiz-adv-x="1417" 
d="M1335 0h-327v778l61 174h-82l-223 -952h-641v1034h328v-768l-62 -184h82l223 952h641v-1034z" />
    <glyph glyph-name="uni0439" unicode="&#x439;" horiz-adv-x="1417" 
d="M1114 1544q0 -82 -20.5 -152.5t-63 -129t-117 -92t-174.5 -33.5q-80 0 -144.5 22.5t-106.5 60.5t-70.5 90.5t-40.5 110.5t-12 123h245q0 -102 32.5 -142t96.5 -40t96.5 40t32.5 142h246zM1335 0h-327v778l61 174h-82l-223 -952h-641v1034h328v-768l-62 -184h82l223 952
h641v-1034z" />
    <glyph glyph-name="uni043A" unicode="&#x43a;" horiz-adv-x="1228" 
d="M1188 0h-354l-222 387q-18 -2 -57 -2h-104v-385h-328v1034h328v-362h88l206 278q63 84 218 84h184v-286h-166l-125 -164z" />
    <glyph glyph-name="uni043B" unicode="&#x43b;" horiz-adv-x="1282" 
d="M1159 1034v-1034h-328v748h-223q-3 -108 -11 -191t-24 -163.5t-41.5 -139t-65.5 -108.5t-93.5 -81t-126 -48t-164.5 -17v287q46 0 77.5 14t54.5 52.5t36 89t20.5 142.5t10 192t2.5 257h876z" />
    <glyph glyph-name="uni043C" unicode="&#x43c;" horiz-adv-x="1800" 
d="M123 0v1034h649l86 -952h82l86 952h651v-1034h-327v768l61 184h-82l-110 -952h-639l-109 952h-82l62 -184v-768h-328z" />
    <glyph glyph-name="uni043D" unicode="&#x43d;" horiz-adv-x="1388" 
d="M938 1034h328v-1034h-328v375h-487v-375h-328v1034h328v-372h487v372z" />
    <glyph glyph-name="uni043E" unicode="&#x43e;" horiz-adv-x="1329" 
d="M82 518q0 132 45 235.5t125 168.5t185 99t229 34q123 0 227.5 -34t184 -99t124.5 -168.5t45 -235.5t-45 -236t-124.5 -169.5t-184 -99t-227.5 -33.5q-124 0 -229 33.5t-185 99t-125 169.5t-45 236zM410 518q0 -127 67.5 -189.5t188.5 -62.5q120 0 187 62.5t67 189.5
q0 125 -67.5 187.5t-186.5 62.5q-121 0 -188.5 -62.5t-67.5 -187.5z" />
    <glyph glyph-name="uni043F" unicode="&#x43f;" horiz-adv-x="1298" 
d="M1176 1034v-1034h-328v748h-397v-748h-328v1034h1053z" />
    <glyph glyph-name="uni0440" unicode="&#x440;" horiz-adv-x="1409" 
d="M123 1034h328v-63l-62 -185h82q22 57 51 101t75.5 84t118 62t163.5 22q144 0 247.5 -74.5t152 -194.5t48.5 -270q0 -111 -28.5 -207.5t-83 -170t-141 -116t-195.5 -42.5q-74 0 -135.5 15t-103.5 39.5t-76 60.5t-55 72t-38 81h-82l62 -185v-452h-328v1423zM451 516
q0 -250 274 -250t274 250q0 252 -274 252t-274 -252z" />
    <glyph glyph-name="uni0441" unicode="&#x441;" horiz-adv-x="1284" 
d="M82 518q0 253 156 395t409 142q107 0 204 -29t174 -84t124.5 -142t52.5 -194h-328q-9 71 -70 116.5t-157 45.5q-116 0 -176.5 -65t-60.5 -185q0 -121 60.5 -186.5t176.5 -65.5q96 0 157 45.5t70 116.5h328q-5 -107 -52.5 -193.5t-124.5 -141.5t-173.5 -84t-204.5 -29
q-166 0 -292.5 61.5t-199.5 184.5t-73 292z" />
    <glyph glyph-name="uni0442" unicode="&#x442;" horiz-adv-x="1228" 
d="M1167 1034v-286h-389v-748h-327v748h-390v286h1106z" />
    <glyph glyph-name="uni0443" unicode="&#x443;" horiz-adv-x="1376" 
d="M965 1034h370l-473 -973v-319q0 -86 -45.5 -130.5t-130.5 -41.5l-506 14v287l355 -6v196l-474 973h369l227 -569v-164h82v164z" />
    <glyph glyph-name="uni0444" unicode="&#x444;" horiz-adv-x="1656" 
d="M1575 520q0 -234 -159.5 -370t-442.5 -164v-355h-287v355q-284 28 -444 164t-160 370q0 230 160.5 365.5t443.5 163.5v333h287v-333q282 -28 442 -163.5t160 -365.5zM410 520q0 -112 70 -170t206 -76v486q-136 -18 -206 -74.5t-70 -165.5zM973 274q135 18 204.5 76.5
t69.5 169.5q0 108 -69.5 165t-204.5 75v-486z" />
    <glyph glyph-name="uni0445" unicode="&#x445;" horiz-adv-x="1380" 
d="M61 0l394 477v82l-394 475h390l239 -332l240 332h389l-393 -475v-82l393 -477h-389l-240 334l-239 -334h-390z" />
    <glyph glyph-name="uni0446" unicode="&#x446;" horiz-adv-x="1564" 
d="M1350 287q85 0 129.5 -44.5t44.5 -129.5v-400h-328v287h-1073v1034h328v-747h397v747h328v-747h174z" />
    <glyph glyph-name="uni0447" unicode="&#x447;" horiz-adv-x="1351" 
d="M901 1034h328v-1034h-328v369l-598 -39q-86 -6 -133 38t-47 130v536h328v-416l450 37v379z" />
    <glyph glyph-name="uni0448" unicode="&#x448;" horiz-adv-x="1675" 
d="M1225 1034h327v-1034h-1429v1034h328v-747h223v747h327v-747h224v747z" />
    <glyph glyph-name="uni0449" unicode="&#x449;" horiz-adv-x="1941" 
d="M1726 287q85 0 130 -44.5t45 -129.5v-400h-328v287h-1450v1034h328v-747h223v747h327v-747h224v747h327v-747h174z" />
    <glyph glyph-name="uni044A" unicode="&#x44a;" horiz-adv-x="1368" 
d="M786 811q500 0 500 -405q0 -406 -500 -406h-475v748h-270v286h598v-223h147zM766 287q110 0 151 22.5t41 96.5t-41 96t-151 22h-127v-237h127z" />
    <glyph glyph-name="uni044B" unicode="&#x44b;" horiz-adv-x="1705" 
d="M598 811q500 0 500 -405q0 -406 -500 -406h-475v1034h328v-223h147zM1255 0v1034h328v-1034h-328zM451 287h127q110 0 151 22.5t41 96.5t-41 96t-151 22h-127v-237z" />
    <glyph glyph-name="uni044C" unicode="&#x44c;" horiz-adv-x="1179" 
d="M598 811q500 0 500 -405q0 -406 -500 -406h-475v1034h328v-223h147zM451 287h127q110 0 151 22.5t41 96.5t-41 96t-151 22h-127v-237z" />
    <glyph glyph-name="uni044D" unicode="&#x44d;" horiz-adv-x="1284" 
d="M637 1055q253 0 409 -142t156 -395q0 -169 -73 -292t-199.5 -184.5t-292.5 -61.5q-108 0 -204.5 29t-173.5 84t-124.5 141.5t-52.5 193.5h328q9 -71 70 -116.5t157 -45.5q178 0 223 150h-307v205h307q-45 147 -223 147q-96 0 -157 -45.5t-70 -116.5h-328q5 107 52.5 194
t124.5 142t174 84t204 29z" />
    <glyph glyph-name="uni044E" unicode="&#x44e;" horiz-adv-x="1718" 
d="M1116 1055q168 0 286.5 -69.5t176 -189t57.5 -278.5q0 -244 -134.5 -391t-385.5 -147q-213 0 -342.5 105.5t-165.5 289.5h-157v-375h-328v1034h328v-372h157q36 183 166 288t342 105zM1116 266q99 0 146 62t47 190q0 127 -47 188.5t-146 61.5q-100 0 -147 -61.5
t-47 -188.5q0 -129 47 -190.5t147 -61.5z" />
    <glyph glyph-name="uni044F" unicode="&#x44f;" horiz-adv-x="1124" 
d="M1001 1034v-1034h-327v410h-82l-211 -299q-41 -59 -90.5 -85t-118.5 -26h-152v266h158l109 152q-55 9 -95.5 27.5t-74.5 52.5t-52 90.5t-18 134.5q0 67 22 120.5t59.5 89t89 58.5t107.5 33t119 10h557zM674 635v174h-148q-85 0 -118 -18.5t-33 -67.5q0 -51 32.5 -69.5
t118.5 -18.5h148z" />
    <glyph glyph-name="uni0450" unicode="&#x450;" horiz-adv-x="1292" 
d="M1094 1370l-56 -233l-798 176l55 233zM82 530q0 243 150 384t395 141t396 -136t151 -368v-102h-785q0 -93 69 -148t204 -55q88 0 147 31t74 88h327q-6 -47 -29.5 -97.5t-69.5 -102.5t-107 -92.5t-150 -66.5t-192 -26q-144 0 -257 44.5t-182.5 121t-105 174.5t-35.5 210z
M389 633h477q0 67 -56.5 111t-182.5 44t-182 -44t-56 -111z" />
    <glyph glyph-name="uni0451" unicode="&#x451;" horiz-adv-x="1292" 
d="M379 1137q-98 0 -150.5 42t-52.5 121q0 78 52.5 121t150.5 43t152.5 -43t54.5 -121q0 -79 -54 -121t-153 -42zM911 1137q-98 0 -150 42t-52 121q0 78 52 121t150 43t152.5 -43t54.5 -121q0 -79 -54 -121t-153 -42zM82 530q0 243 150 384t395 141t396 -136t151 -368v-102
h-785q0 -93 69 -148t204 -55q88 0 147 31t74 88h327q-6 -47 -29.5 -97.5t-69.5 -102.5t-107 -92.5t-150 -66.5t-192 -26q-144 0 -257 44.5t-182.5 121t-105 174.5t-35.5 210zM389 633h477q0 67 -56.5 111t-182.5 44t-182 -44t-56 -111z" />
    <glyph glyph-name="uni0452" unicode="&#x452;" horiz-adv-x="1490" 
d="M965 1055q200 0 312 -129.5t112 -366.5v-797q0 -86 -46 -130.5t-131 -41.5l-505 15v286l354 -12v629q0 142 -47.5 201t-165.5 59q-143 0 -219 -88.5t-76 -296.5v-383h-328v1161h-123v246h123v98h328v-98h287v-246h-287v-252l-61 -184h81q33 147 133.5 238.5t258.5 91.5z
" />
    <glyph glyph-name="uni0453" unicode="&#x453;" horiz-adv-x="1034" 
d="M123 1370l799 176l55 -233l-799 -176zM137 0v1034h877v-286h-549v-748h-328z" />
    <glyph glyph-name="uni0454" unicode="&#x454;" horiz-adv-x="1284" 
d="M647 266q96 0 157 45.5t70 116.5h328q-5 -107 -52.5 -193.5t-124.5 -141.5t-173.5 -84t-204.5 -29q-166 0 -292.5 61.5t-199.5 184.5t-73 292q0 253 156 395t409 142q107 0 204 -29t174 -84t124.5 -142t52.5 -194h-328q-9 71 -70 116.5t-157 45.5q-178 0 -223 -147h307
v-205h-307q45 -150 223 -150z" />
    <glyph glyph-name="uni0455" unicode="&#x455;" horiz-adv-x="1128" 
d="M1087 285q0 -141 -114 -223t-367 -82q-277 0 -411 103.5t-134 291.5h328q0 -67 53.5 -108.5t173.5 -41.5q144 0 144 70q0 35 -45 59q-29 15 -178 64q-16 5 -58 18.5t-61 19.5t-57.5 20.5t-58 24.5t-51 27t-48 32.5t-37.5 38.5t-31.5 46.5t-18 54t-7.5 64.5
q0 138 118 214.5t332 76.5q127 0 224 -30t155 -82.5t86.5 -118.5t28.5 -144h-328q0 58 -43 93.5t-125 35.5q-121 0 -121 -59q0 -36 88 -73q43 -17 178 -61q162 -53 216 -80q128 -63 158 -168q11 -38 11 -83z" />
    <glyph glyph-name="uni0456" unicode="&#x456;" horiz-adv-x="1024" 
d="M506 1137q-92 0 -142.5 42t-50.5 121q0 78 51 121t142 43t143.5 -43t52.5 -121q0 -79 -52 -121t-144 -42zM82 0v287h293v473l-252 -12v286l389 21q86 4 132 -40.5t46 -131.5v-596h293v-287h-901z" />
    <glyph glyph-name="uni0457" unicode="&#x457;" horiz-adv-x="1062" 
d="M262 1137q-98 0 -150.5 42t-52.5 121q0 78 52.5 121t150.5 43t152.5 -43t54.5 -121q0 -79 -54 -121t-153 -42zM795 1137q-98 0 -150.5 42t-52.5 121q0 78 52.5 121t150.5 43t152 -43t54 -121q0 -79 -53.5 -121t-152.5 -42zM121 0v287h293v473l-252 -12v286l389 21
q86 4 132 -40.5t46 -131.5v-596h293v-287h-901z" />
    <glyph glyph-name="uni0458" unicode="&#x458;" horiz-adv-x="710" 
d="M422 1137q-92 0 -142.5 42t-50.5 121q0 78 51 121t142 43t143.5 -43t52.5 -121q0 -79 -52 -121t-144 -42zM20 -410l218 357q34 54 34 139v674l-252 -12v286l416 15q85 3 130.5 -41t45.5 -129v-818q0 -77 -34 -139l-189 -332h-369z" />
    <glyph glyph-name="uni0459" unicode="&#x459;" horiz-adv-x="1888" 
d="M1307 811q499 0 499 -405q0 -406 -499 -406h-476v748h-223q-3 -108 -11 -191t-24 -163.5t-41.5 -139t-65.5 -108.5t-93.5 -81t-126 -48t-164.5 -17v287q46 0 77.5 14t54.5 52.5t36 89t20.5 142.5t10 192t2.5 257h876v-223h148zM1286 287q110 0 151.5 22.5t41.5 96.5
t-41.5 96t-151.5 22h-127v-237h127z" />
    <glyph glyph-name="uni045A" unicode="&#x45a;" horiz-adv-x="1994" 
d="M1413 811q500 0 500 -405q0 -406 -500 -406h-475v375h-487v-375h-328v1034h328v-372h487v372h328v-223h147zM1393 287q110 0 151 22.5t41 96.5t-41 96t-151 22h-127v-237h127z" />
    <glyph glyph-name="uni045B" unicode="&#x45b;" horiz-adv-x="1470" 
d="M944 1055q200 0 312 -129.5t112 -366.5v-559h-328v508q0 142 -47.5 201t-165.5 59q-143 0 -219 -88.5t-76 -296.5v-383h-327v1161h-123v246h123v98h327v-98h287v-246h-287v-252l-61 -184h82q33 147 133 238.5t258 91.5z" />
    <glyph glyph-name="uni045C" unicode="&#x45c;" horiz-adv-x="1228" 
d="M1059 1313l-799 -176l-55 233l799 176zM1188 0h-354l-222 387q-18 -2 -57 -2h-104v-385h-328v1034h328v-362h88l206 278q63 84 218 84h184v-286h-166l-125 -164z" />
    <glyph glyph-name="uni045F" unicode="&#x45f;" horiz-adv-x="1380" 
d="M930 1014h327v-1014h-403v-287h-328v287h-403v1014h328v-727h479v727z" />
    <glyph glyph-name="uni0490" unicode="&#x490;" horiz-adv-x="1161" 
d="M813 1669h328v-512h-690v-1157h-328v1444h690v225z" />
    <glyph glyph-name="uni0491" unicode="&#x491;" horiz-adv-x="1019" 
d="M672 1298h327v-550h-548v-748h-328v1034h549v264z" />
    <glyph glyph-name="Wgrave" unicode="&#x1e80;" horiz-adv-x="2392" 
d="M1642 1780l-55 -234l-799 176l56 234zM41 1444h317l230 -1362h82l178 1362h696l178 -1362h82l230 1362h317l-248 -1444h-680l-186 1362h-82l-186 -1362h-680z" />
    <glyph glyph-name="wgrave" unicode="&#x1e81;" horiz-adv-x="1941" 
d="M1417 1370l-55 -233l-799 176l55 233zM20 1034h314l133 -952h82l80 952h684l80 -952h82l135 952h311l-145 -1034h-684l-80 952h-82l-80 -952h-684z" />
    <glyph glyph-name="Wacute" unicode="&#x1e82;" horiz-adv-x="2392" 
d="M748 1780l798 176l56 -234l-799 -176zM41 1444h317l230 -1362h82l178 1362h696l178 -1362h82l230 1362h317l-248 -1444h-680l-186 1362h-82l-186 -1362h-680z" />
    <glyph glyph-name="wacute" unicode="&#x1e83;" horiz-adv-x="1941" 
d="M522 1370l799 176l55 -233l-798 -176zM20 1034h314l133 -952h82l80 952h684l80 -952h82l135 952h311l-145 -1034h-684l-80 952h-82l-80 -952h-684z" />
    <glyph glyph-name="Wdieresis" unicode="&#x1e84;" horiz-adv-x="2392" 
d="M928 1546q-98 0 -150.5 42.5t-52.5 121.5q0 78 52.5 121t150.5 43t152.5 -43t54.5 -121q0 -79 -54 -121.5t-153 -42.5zM1460 1546q-98 0 -150.5 42.5t-52.5 121.5q0 78 52.5 121t150.5 43t152.5 -43t54.5 -121q0 -79 -54 -121.5t-153 -42.5zM41 1444h317l230 -1362h82
l178 1362h696l178 -1362h82l230 1362h317l-248 -1444h-680l-186 1362h-82l-186 -1362h-680z" />
    <glyph glyph-name="wdieresis" unicode="&#x1e85;" horiz-adv-x="1941" 
d="M702 1137q-98 0 -150 42t-52 121q0 78 52 121t150 43t152.5 -43t54.5 -121q0 -79 -54 -121t-153 -42zM1235 1137q-98 0 -150.5 42t-52.5 121q0 78 52.5 121t150.5 43t152.5 -43t54.5 -121q0 -79 -54 -121t-153 -42zM20 1034h314l133 -952h82l80 952h684l80 -952h82
l135 952h311l-145 -1034h-684l-80 952h-82l-80 -952h-684z" />
    <glyph glyph-name="uni1E9E" unicode="&#x1e9e;" horiz-adv-x="1456" 
d="M565 0v287l254 -19q130 -9 189 28.5t59 125.5q0 98 -60 142t-146 26t-163 -86l-100 405l301 117q0 152 -192 152q-125 0 -190.5 -59t-65.5 -204v-915h-328v965q0 150 78.5 264.5t210.5 174.5t295 60q70 0 141 -18t140 -58.5t121.5 -98.5t85 -145t32.5 -190l-506 -206
l16 -78q68 43 144 64.5t148.5 20.5t139 -27t116.5 -71.5t80 -118.5t30 -163q0 -224 -139 -321.5t-437 -73.5z" />
    <glyph glyph-name="Ygrave" unicode="&#x1ef2;" horiz-adv-x="1480" 
d="M1186 1780l-56 -234l-798 176l55 234zM1090 1444h350l-537 -979v-465h-328v465l-534 979h350l307 -602v-185h82v185z" />
    <glyph glyph-name="ygrave" unicode="&#x1ef3;" horiz-adv-x="1376" 
d="M1145 1370l-55 -233l-799 176l55 233zM965 1034h370l-473 -973v-319q0 -86 -45.5 -130.5t-130.5 -41.5l-506 14v287l355 -6v196l-474 973h369l227 -569v-164h82v164z" />
    <glyph glyph-name="endash" unicode="&#x2013;" horiz-adv-x="1822" 
d="M143 676h1536v-246h-1536v246z" />
    <glyph glyph-name="emdash" unicode="&#x2014;" horiz-adv-x="2232" 
d="M143 676h1946v-246h-1946v246z" />
    <glyph glyph-name="quoteleft" unicode="&#x2018;" horiz-adv-x="694" 
d="M381 1593l170 -632l-238 -64l-170 633z" />
    <glyph glyph-name="quoteright" unicode="&#x2019;" horiz-adv-x="694" 
d="M313 1593l238 -63l-170 -633l-238 64z" />
    <glyph glyph-name="quotesinglbase" unicode="&#x201a;" horiz-adv-x="724" 
d="M344 373l238 -64l-201 -725l-238 64z" />
    <glyph glyph-name="quotedblleft" unicode="&#x201c;" horiz-adv-x="1091" 
d="M381 1593l170 -632l-238 -64l-170 633zM778 1593l170 -632l-237 -64l-170 633z" />
    <glyph glyph-name="quotedblright" unicode="&#x201d;" horiz-adv-x="1091" 
d="M313 1593l238 -63l-170 -633l-238 64zM711 1593l237 -63l-170 -633l-237 64z" />
    <glyph glyph-name="quotedblbase" unicode="&#x201e;" horiz-adv-x="1124" 
d="M344 373l238 -64l-201 -725l-238 64zM743 373l238 -64l-201 -725l-237 64z" />
    <glyph glyph-name="dagger" unicode="&#x2020;" horiz-adv-x="1187" 
d="M1044 1405v-246h-327v-850h-246v850h-328v246h328v342h246v-342h327z" />
    <glyph glyph-name="daggerdbl" unicode="&#x2021;" horiz-adv-x="1187" 
d="M1044 1159h-327v-262h327v-246h-327v-342h-246v342h-328v246h328v262h-328v246h328v342h246v-342h327v-246z" />
    <glyph glyph-name="bullet" unicode="&#x2022;" horiz-adv-x="1603" 
d="M797 -141q-199 0 -349 87.5t-227.5 237t-77.5 338.5q0 137 45.5 256.5t128 208t206.5 139t274 50.5q193 0 345.5 -87t235 -235.5t82.5 -331.5q0 -187 -82.5 -338t-234.5 -238t-346 -87z" />
    <glyph glyph-name="ellipsis" unicode="&#x2026;" horiz-adv-x="1863" 
d="M367 -20q-102 0 -163 64t-61 163q0 96 61 159.5t163 63.5q100 0 163.5 -64t63.5 -159q0 -98 -63.5 -162.5t-163.5 -64.5zM930 -20q-102 0 -162.5 64t-60.5 163q0 96 60.5 159.5t162.5 63.5q100 0 163.5 -64t63.5 -159q0 -98 -63.5 -162.5t-163.5 -64.5zM1493 -20
q-102 0 -162.5 64t-60.5 163q0 96 60.5 159.5t162.5 63.5q100 0 163.5 -64t63.5 -159q0 -98 -63.5 -162.5t-163.5 -64.5z" />
    <glyph glyph-name="perthousand" unicode="&#x2030;" horiz-adv-x="3586" 
d="M1501 1647l232 -91l-693 -1800l-231 90zM618 575q-139 0 -248.5 65t-168 173t-58.5 238q0 199 133 337t342 138q104 0 194 -38t151.5 -102t96 -151t34.5 -184q0 -199 -133.5 -337.5t-342.5 -138.5zM618 821q100 0 165 67t65 163q0 95 -65 162t-165 67t-164.5 -66.5
t-64.5 -162.5t65 -163t164 -67zM1917 -143q-209 0 -342 138t-133 337t133 337t342 138t342 -138t133 -337t-133 -337t-342 -138zM2968 -143q-104 0 -194 38t-151.5 102t-96 151t-34.5 184t34.5 184t96 151t151.5 102t194 38q209 0 342 -138t133 -337t-133 -337t-342 -138z
M1917 102q99 0 164 67t65 163t-64.5 162.5t-164.5 66.5t-164.5 -66.5t-64.5 -162.5t65 -163t164 -67zM2968 102q99 0 164 67t65 163t-64.5 162.5t-164.5 66.5t-165 -67t-65 -162q0 -96 65 -163t165 -67z" />
    <glyph glyph-name="guilsinglleft" unicode="&#x2039;" horiz-adv-x="1120" 
d="M977 20l-180 -163l-654 651l654 649l180 -164l-485 -485z" />
    <glyph glyph-name="guilsinglright" unicode="&#x203a;" horiz-adv-x="1120" 
d="M143 20l486 488l-486 485l181 164l653 -649l-653 -651z" />
    <glyph glyph-name="fraction" unicode="&#x2044;" horiz-adv-x="882" 
d="M672 1667l231 -90l-692 -1800l-231 90z" />
    <glyph glyph-name="Euro" unicode="&#x20ac;" horiz-adv-x="1775" 
d="M1018 266q251 0 291 223h323q-34 -240 -195.5 -374.5t-418.5 -134.5t-423 127.5t-228 347.5h-224v204h191q-2 20 -2 64q0 39 2 59h-191v205h224q61 221 226.5 349t424.5 128q257 0 418.5 -134t195.5 -374h-327q-37 222 -287 222q-117 0 -197 -44t-121 -147h402v-205h-440
q-3 -27 -3 -59q0 -34 3 -64h440v-204h-402q78 -189 318 -189z" />
    <glyph glyph-name="trademark" unicode="&#x2122;" horiz-adv-x="1982" 
d="M758 1444v-184h-203v-500h-205v500h-207v184h615zM1427 1444h412v-684h-205v450l52 152h-62l-90 -602h-418l-92 602h-59l49 -152v-450h-205v684h414l82 -602h41z" />
    <glyph glyph-name="oneeighth" unicode="&#x215b;" horiz-adv-x="2430" 
d="M1384 1667l232 -90l-692 -1800l-232 90zM61 1221q68 56 96.5 92.5t45 91t28.5 162.5h463v-973h-245v747l40 144h-61q-5 -78 -18 -143t-40.5 -136t-79.5 -125.5t-124 -85.5zM1534 250q0 59 24 104.5t66.5 72.5t87.5 42.5t98 22.5v40q-40 5 -77 18t-73 37t-57.5 65.5
t-21.5 95.5q0 115 94 180t277 65q182 0 275 -65t93 -180q0 -54 -21.5 -95.5t-57.5 -65.5t-72 -37t-76 -18v-40q53 -7 98.5 -22.5t87.5 -42.5t66.5 -72.5t24.5 -104.5q0 -124 -110.5 -197t-307.5 -73t-307.5 73t-110.5 197zM1827 707q0 -93 125 -93q72 0 97.5 26t25.5 67
q0 38 -25 59.5t-98 21.5t-99 -21.5t-26 -59.5zM1780 295q0 -111 172 -111t172 111q0 115 -172 115t-172 -115z" />
    <glyph glyph-name="threeeighths" unicode="&#x215c;" horiz-adv-x="2539" 
d="M1495 1667l231 -90l-692 -1800l-231 90zM61 969h246q0 -57 14 -94.5t43.5 -56.5t63 -25.5t82.5 -6.5q85 0 126.5 24.5t41.5 92.5q0 33 -11 54.5t-33.5 31.5t-45 13.5t-56.5 3.5h-98v202h98q67 0 99.5 17.5t32.5 72.5q0 52 -36.5 72.5t-117.5 20.5q-96 0 -143.5 -28.5
t-47.5 -102.5h-245q0 159 115 247t321 88q199 0 300 -73.5t101 -186.5q0 -52 -18.5 -89t-54.5 -58.5t-73.5 -32.5t-92.5 -20v-62q37 -7 55 -11t50 -13t48.5 -18t38.5 -24.5t33 -34t19 -45t8 -59.5q0 -134 -105 -210t-309 -76q-212 0 -330.5 96.5t-118.5 290.5zM1642 250
q0 59 24.5 104.5t66.5 72.5t87.5 42.5t98.5 22.5v40q-40 5 -77 18t-73 37t-57.5 65.5t-21.5 95.5q0 115 93.5 180t276.5 65q182 0 275.5 -65t93.5 -180q0 -54 -21.5 -95.5t-57.5 -65.5t-72 -37t-76 -18v-40q53 -7 98 -22.5t87.5 -42.5t66.5 -72.5t24 -104.5
q0 -124 -110.5 -197t-307.5 -73t-307.5 73t-110.5 197zM1935 707q0 -93 125 -93q72 0 97.5 26t25.5 67q0 38 -25 59.5t-98 21.5t-99 -21.5t-26 -59.5zM1888 295q0 -111 172 -111t172 111q0 115 -172 115t-172 -115z" />
    <glyph glyph-name="fiveeighths" unicode="&#x215d;" horiz-adv-x="2525" 
d="M1481 1667l231 -90l-692 -1800l-232 90zM61 915h246q0 -64 49 -96.5t125 -32.5q89 0 137 32.5t48 111.5q0 157 -129 157q-103 0 -175 -112l-274 94v506h764v-205h-518v-176l-33 -90l41 -23q27 94 99.5 152.5t189.5 58.5q96 0 161 -48t92 -122t27 -170q0 -77 -25 -142.5
t-75 -117t-132.5 -81t-189.5 -29.5q-205 0 -316.5 85.5t-111.5 247.5zM1628 250q0 59 24.5 104.5t66.5 72.5t87.5 42.5t98.5 22.5v40q-40 5 -77 18t-73.5 37t-58 65.5t-21.5 95.5q0 115 94 180t277 65q182 0 275.5 -65t93.5 -180q0 -54 -21.5 -95.5t-58 -65.5t-72.5 -37
t-76 -18v-40q53 -7 98.5 -22.5t87.5 -42.5t66.5 -72.5t24.5 -104.5q0 -124 -110.5 -197t-307.5 -73t-307.5 73t-110.5 197zM1921 707q0 -93 125 -93q72 0 97.5 26t25.5 67q0 38 -25 59.5t-98 21.5t-99 -21.5t-26 -59.5zM1874 295q0 -111 172 -111t172 111q0 115 -172 115
t-172 -115z" />
    <glyph glyph-name="seveneighths" unicode="&#x215e;" horiz-adv-x="2392" 
d="M1346 1667l231 -90l-692 -1800l-232 90zM176 594q0 212 63.5 354t183 223t312.5 129v62h-674v205h756v-416q-222 -67 -308.5 -194.5t-86.5 -362.5h-246zM1495 250q0 59 24.5 104.5t66.5 72.5t87.5 42.5t98.5 22.5v40q-40 5 -77 18t-73.5 37t-58 65.5t-21.5 95.5
q0 115 94 180t277 65q182 0 275 -65t93 -180q0 -54 -21.5 -95.5t-57.5 -65.5t-72 -37t-76 -18v-40q53 -7 98.5 -22.5t87.5 -42.5t66.5 -72.5t24.5 -104.5q0 -124 -110.5 -197t-307.5 -73t-307.5 73t-110.5 197zM1788 707q0 -93 125 -93q72 0 97.5 26t25.5 67q0 38 -25 59.5
t-98 21.5t-99 -21.5t-26 -59.5zM1741 295q0 -111 172 -111t172 111q0 115 -172 115t-172 -115z" />
    <glyph glyph-name="arrowleft" unicode="&#x2190;" horiz-adv-x="1781" 
d="M1638 631v-246h-1024l363 -365l-180 -163l-654 651l654 649l180 -164l-363 -362h1024z" />
    <glyph glyph-name="arrowup" unicode="&#x2191;" horiz-adv-x="1587" 
d="M1444 596l-164 -180l-365 362v-1024h-245v1024l-363 -362l-164 180l650 653z" />
    <glyph glyph-name="arrowright" unicode="&#x2192;" horiz-adv-x="1781" 
d="M985 1157l653 -649l-653 -651l-180 163l362 365h-1024v246h1024l-362 362z" />
    <glyph glyph-name="arrowdown" unicode="&#x2193;" horiz-adv-x="1587" 
d="M1280 580l164 -181l-651 -653l-650 653l164 181l363 -363v1024h245v-1024z" />
    <glyph glyph-name="arrowboth" unicode="&#x2194;" horiz-adv-x="2789" 
d="M1993 1341l653 -649l-653 -651l-181 164l363 364h-1024v246h1024l-363 363zM977 809l-363 -363h1024v-245h-1024l363 -365l-180 -164l-654 652l654 649z" />
    <glyph glyph-name="arrowupdn" unicode="&#x2195;" horiz-adv-x="1955" 
d="M649 240v1024l-362 -363l-164 180l649 654l651 -654l-163 -180l-365 363v-1024h-246zM1669 84l164 -180l-651 -654l-650 654l164 180l363 -363v1024h246v-1024z" />
    <glyph glyph-name="uni2196" unicode="&#x2196;" horiz-adv-x="1429" 
d="M1286 125l-172 -174l-725 725l-2 -514l-242 10l-2 924l922 -4l10 -242h-514z" />
    <glyph glyph-name="uni2197" unicode="&#x2197;" horiz-adv-x="1429" 
d="M365 1092l921 4l-2 -924l-242 -10l-2 514l-725 -725l-172 174l725 725h-514z" />
    <glyph glyph-name="uni2198" unicode="&#x2198;" horiz-adv-x="1429" 
d="M1284 815l2 -924l-921 5l-11 241h514l-725 725l172 174l725 -725l2 514z" />
    <glyph glyph-name="uni2199" unicode="&#x2199;" horiz-adv-x="1429" 
d="M1286 862l-725 -725h514l-10 -241l-922 -5l2 924l242 10l2 -514l725 725z" />
    <glyph glyph-name="partialdiff" unicode="&#x2202;" horiz-adv-x="1562" 
d="M1419 653q0 -315 -173 -494t-472 -179q-288 0 -459.5 149.5t-171.5 386.5q0 112 39.5 210.5t111.5 171.5t181 115t240 42q224 0 348.5 -132.5t144.5 -353.5h82l-61 185q-12 104 -55.5 186t-112 141.5t-169.5 104t-218.5 72.5t-267.5 47v286q182 -19 332.5 -62t278.5 -119
t216 -180.5t137 -251t49 -325.5zM1092 516q0 133 -76 192.5t-234 59.5t-234.5 -59.5t-76.5 -192.5q0 -119 79 -184.5t232 -65.5t231.5 65.5t78.5 184.5z" />
    <glyph glyph-name="emptyset" unicode="&#x2205;" horiz-adv-x="2023" 
d="M1554 1268q155 -121 240.5 -301.5t85.5 -391.5q0 -178 -63 -337.5t-175 -276.5t-275.5 -185.5t-354.5 -68.5q-175 0 -326 57l-108 -188l-216 123l107 184q-155 121 -240.5 301t-85.5 391q0 178 63.5 337.5t175.5 277t275.5 186t354.5 68.5q171 0 325 -58l109 189
l215 -123zM389 575q0 -137 54.5 -259.5t152.5 -211.5l614 1063q-95 31 -198 31q-135 0 -252.5 -50t-198 -135t-126.5 -199t-46 -239zM1012 -47q180 0 323.5 85.5t221 227t77.5 309.5q0 137 -54.5 260t-152.5 212l-614 -1063q95 -31 199 -31z" />
    <glyph glyph-name="product" unicode="&#x220f;" horiz-adv-x="1679" 
d="M1536 1444v-246h-301v-1567h-246v1567h-297v-1567h-246v1567h-303v246h1393z" />
    <glyph glyph-name="summation" unicode="&#x2211;" horiz-adv-x="1337" 
d="M143 -367v484l611 381v82l-611 381v483h1051v-246h-784l-185 62v-82l781 -492v-295l-781 -491v-82l185 61h784v-246h-1051z" />
    <glyph glyph-name="minus" unicode="&#x2212;" horiz-adv-x="1392" 
d="M143 676h1106v-246h-1106v246z" />
    <glyph glyph-name="radical" unicode="&#x221a;" horiz-adv-x="1705" 
d="M971 1290q34 154 192 154h400v-246h-377l-346 -1567h-521l-176 789h246l150 -707h82z" />
    <glyph glyph-name="infinity" unicode="&#x221e;" horiz-adv-x="2211" 
d="M143 614q0 110 37 205t99 159.5t143.5 101t169.5 36.5q51 0 99 -10.5t85 -25.5t75 -41.5t63.5 -49t57 -58t48.5 -58t45 -60t41 -53.5q13 16 41 53.5t45 60t48.5 58t57 58t63.5 49t75 41.5t85 25.5t99 10.5q88 0 169.5 -36.5t143 -101t98.5 -159.5t37 -205
q0 -146 -63 -262t-165 -177.5t-220 -61.5q-51 0 -99 10.5t-85 25.5t-75 41.5t-63.5 49t-57 58t-48.5 58t-45 60t-41 53.5q-13 -16 -41 -53.5t-45 -60t-48.5 -58t-57 -58t-63.5 -49t-75 -41.5t-85 -25.5t-99 -10.5q-88 0 -169.5 36.5t-143.5 100.5t-99 159t-37 205zM389 614
q0 -117 71.5 -186.5t192.5 -69.5q35 0 64.5 6t55.5 21t45 28.5t43.5 41.5t38.5 46t41.5 55.5t43.5 57.5q-16 20 -43.5 57.5t-41.5 55.5t-38.5 46t-43.5 41.5t-45 28.5t-55.5 21t-64.5 6q-121 0 -192.5 -69.5t-71.5 -186.5zM1227 614q16 -20 43.5 -57.5t41.5 -55.5t38.5 -46
t43.5 -41.5t45 -28.5t55.5 -21t64.5 -6q121 0 192.5 69.5t71.5 186.5t-71.5 186.5t-192.5 69.5q-35 0 -64.5 -6t-55.5 -21t-45 -28.5t-43.5 -41.5t-38.5 -46t-41.5 -55.5t-43.5 -57.5z" />
    <glyph glyph-name="integral" unicode="&#x222b;" horiz-adv-x="1515" 
d="M143 -369v246h363l358 1419q38 148 195 148h313v-246h-280l-359 -1419q-38 -148 -194 -148h-396z" />
    <glyph glyph-name="approxequal" unicode="&#x2248;" horiz-adv-x="1368" 
d="M143 573q0 192 78.5 301t212.5 109q67 0 138 -25.5t119.5 -56.5t102 -56.5t89.5 -25.5q51 0 73.5 37t22.5 127h246q0 -192 -78.5 -301t-212.5 -109q-67 0 -138 25.5t-119.5 56.5t-102 56.5t-89.5 25.5q-51 0 -73.5 -37t-22.5 -127h-246zM143 82q0 192 78.5 301t212.5 109
q67 0 138 -25.5t119.5 -56.5t102 -56.5t89.5 -25.5q51 0 73.5 37t22.5 127h246q0 -192 -78.5 -301t-212.5 -109q-67 0 -138 25.5t-119.5 56.5t-102 56.5t-89.5 25.5q-51 0 -73.5 -37t-22.5 -127h-246z" />
    <glyph glyph-name="notequal" unicode="&#x2260;" horiz-adv-x="1392" 
d="M1249 655h-377l-116 -204h493v-246h-637l-186 -324l-176 103l127 221h-234v246h377l117 204h-494v246h637l187 324l176 -103l-127 -221h233v-246z" />
    <glyph glyph-name="lessequal" unicode="&#x2264;" horiz-adv-x="1406" 
d="M143 711v245l1043 406l78 -234l-834 -294l834 -273l-78 -233zM1264 246v-246h-1106v246h1106z" />
    <glyph glyph-name="greaterequal" unicode="&#x2265;" horiz-adv-x="1406" 
d="M1264 711l-1043 -383l-78 233l834 273l-834 294l78 234l1043 -406v-245zM143 246h1106v-246h-1106v246z" />
    <glyph glyph-name="uni2460" unicode="&#x2460;" 
d="M1122 -362q-186 0 -348 51.5t-284 145t-210 220t-133 280.5t-45 322q0 211 71.5 397t201 324t323 218.5t424.5 80.5t424.5 -80.5t323 -218.5t201 -324t71.5 -397q0 -168 -45 -322t-133 -280.5t-210 -220t-284 -145t-348 -51.5zM1122 -158q184 0 339 65.5t258 177
t160.5 259.5t57.5 313t-57.5 313t-160.5 260t-258 177.5t-339 65.5t-339 -65.5t-258 -177.5t-160.5 -260t-57.5 -313t57.5 -313t160.5 -259.5t258 -177t339 -65.5zM727 797q68 56 96.5 92.5t45 91t28.5 162.5h463v-973h-246v748l41 143h-61q-26 -389 -263 -490z" />
    <glyph glyph-name="uni2461" unicode="&#x2461;" 
d="M1122 -362q-186 0 -348 51.5t-284 145t-210 220t-133 280.5t-45 322q0 211 71.5 397t201 324t323 218.5t424.5 80.5t424.5 -80.5t323 -218.5t201 -324t71.5 -397q0 -168 -45 -322t-133 -280.5t-210 -220t-284 -145t-348 -51.5zM1122 -158q184 0 339 65.5t258 177
t160.5 259.5t57.5 313t-57.5 313t-160.5 260t-258 177.5t-339 65.5t-339 -65.5t-258 -177.5t-160.5 -260t-57.5 -313t57.5 -313t160.5 -259.5t258 -177t339 -65.5zM702 772q0 87 27 164t80 138t139 96.5t195 35.5q100 0 176 -28.5t119 -77.5t63.5 -107t20.5 -123
q0 -86 -35.5 -152.5t-94 -110.5t-149.5 -76.5t-186 -50.5t-219 -31v-62l143 31h541v-205h-766v379q4 1 35 4.5t53 6.5t62.5 10t71 14.5t71 20.5t70.5 27t61 34.5t51 43.5t32.5 53t12.5 64q0 56 -36 93.5t-116 37.5q-98 0 -137 -56t-39 -173h-246z" />
    <glyph glyph-name="uni2462" unicode="&#x2462;" 
d="M1122 -362q-186 0 -348 51.5t-284 145t-210 220t-133 280.5t-45 322q0 211 71.5 397t201 324t323 218.5t424.5 80.5t424.5 -80.5t323 -218.5t201 -324t71.5 -397q0 -168 -45 -322t-133 -280.5t-210 -220t-284 -145t-348 -51.5zM1122 -158q184 0 339 65.5t258 177
t160.5 259.5t57.5 313t-57.5 313t-160.5 260t-258 177.5t-339 65.5t-339 -65.5t-258 -177.5t-160.5 -260t-57.5 -313t57.5 -313t160.5 -259.5t258 -177t339 -65.5zM692 539h246q0 -57 14 -94.5t43.5 -56.5t63 -25.5t82.5 -6.5q85 0 126.5 24.5t41.5 92.5q0 33 -11 54.5
t-33.5 31.5t-45 13t-56.5 3h-98v203h98q67 0 99 17.5t32 72.5q0 52 -36 72.5t-117 20.5q-96 0 -143.5 -29t-47.5 -103h-245q0 159 115 247.5t321 88.5q199 0 300 -73.5t101 -186.5q0 -52 -18.5 -89t-54.5 -58.5t-73.5 -32.5t-92.5 -20v-62q37 -7 55 -11t49.5 -13t48 -18
t38.5 -24.5t33 -34t19 -45t8 -59.5q0 -134 -104.5 -210t-308.5 -76q-212 0 -330.5 96.5t-118.5 290.5z" />
    <glyph glyph-name="uni2463" unicode="&#x2463;" 
d="M1122 -362q-186 0 -348 51.5t-284 145t-210 220t-133 280.5t-45 322q0 211 71.5 397t201 324t323 218.5t424.5 80.5t424.5 -80.5t323 -218.5t201 -324t71.5 -397q0 -168 -45 -322t-133 -280.5t-210 -220t-284 -145t-348 -51.5zM1122 -158q184 0 339 65.5t258 177
t160.5 259.5t57.5 313t-57.5 313t-160.5 260t-258 177.5t-339 65.5t-339 -65.5t-258 -177.5t-160.5 -260t-57.5 -313t57.5 -313t160.5 -259.5t258 -177t339 -65.5zM705 303v504q325 61 372 346h246q-10 -97 -46.5 -185.5t-103.5 -170t-176.5 -141.5t-251.5 -87v-61l144 41
h266v162h246v-162h133v-246h-133v-123h-246v123h-450z" />
    <glyph glyph-name="uni2464" unicode="&#x2464;" 
d="M1122 -362q-186 0 -348 51.5t-284 145t-210 220t-133 280.5t-45 322q0 211 71.5 397t201 324t323 218.5t424.5 80.5t424.5 -80.5t323 -218.5t201 -324t71.5 -397q0 -168 -45 -322t-133 -280.5t-210 -220t-284 -145t-348 -51.5zM1122 -158q184 0 339 65.5t258 177
t160.5 259.5t57.5 313t-57.5 313t-160.5 260t-258 177.5t-339 65.5t-339 -65.5t-258 -177.5t-160.5 -260t-57.5 -313t57.5 -313t160.5 -259.5t258 -177t339 -65.5zM721 444h246q0 -64 49 -96.5t125 -32.5q88 0 136 32.5t48 111.5q0 157 -129 157q-102 0 -174 -112l-274 94
v506h763v-205h-518v-176l-32 -90l40 -23q27 94 99.5 152.5t189.5 58.5q142 0 211.5 -96t69.5 -244q0 -77 -25 -142.5t-75 -117t-132.5 -81t-189.5 -29.5q-205 0 -316.5 85.5t-111.5 247.5z" />
    <glyph glyph-name="uni2465" unicode="&#x2465;" 
d="M1122 -362q-186 0 -348 51.5t-284 145t-210 220t-133 280.5t-45 322q0 211 71.5 397t201 324t323 218.5t424.5 80.5t424.5 -80.5t323 -218.5t201 -324t71.5 -397q0 -168 -45 -322t-133 -280.5t-210 -220t-284 -145t-348 -51.5zM1122 -158q184 0 339 65.5t258 177
t160.5 259.5t57.5 313t-57.5 313t-160.5 260t-258 177.5t-339 65.5t-339 -65.5t-258 -177.5t-160.5 -260t-57.5 -313t57.5 -313t160.5 -259.5t258 -177t339 -65.5zM688 616q0 101 15 184t53 159.5t99 125t158 71t224 7.5l174 -20v-205l-194 20q-102 11 -173.5 -3t-111 -49.5
t-57 -83t-17.5 -111.5l-63 -144h61q11 48 34.5 92t62.5 84t101 64t138 24q65 0 121 -18t102.5 -56t73.5 -104.5t27 -156.5q0 -92 -32 -160.5t-88.5 -108t-125 -58.5t-148.5 -19q-215 0 -324.5 112t-109.5 354zM934 492q0 -72 40 -105t128 -33q87 0 127.5 33t40.5 105
q0 69 -41 102t-127 33q-87 0 -127.5 -33t-40.5 -102z" />
    <glyph glyph-name="uni2466" unicode="&#x2466;" 
d="M1122 -362q-186 0 -348 51.5t-284 145t-210 220t-133 280.5t-45 322q0 211 71.5 397t201 324t323 218.5t424.5 80.5t424.5 -80.5t323 -218.5t201 -324t71.5 -397q0 -168 -45 -322t-133 -280.5t-210 -220t-284 -145t-348 -51.5zM1122 -158q184 0 339 65.5t258 177
t160.5 259.5t57.5 313t-57.5 313t-160.5 260t-258 177.5t-339 65.5t-339 -65.5t-258 -177.5t-160.5 -260t-57.5 -313t57.5 -313t160.5 -259.5t258 -177t339 -65.5zM881 127q0 212 63.5 354.5t183 223.5t312.5 129v61h-674v205h756v-416q-222 -67 -309 -194.5t-87 -362.5
h-245z" />
    <glyph glyph-name="uni2467" unicode="&#x2467;" 
d="M1122 -362q-186 0 -348 51.5t-284 145t-210 220t-133 280.5t-45 322q0 211 71.5 397t201 324t323 218.5t424.5 80.5t424.5 -80.5t323 -218.5t201 -324t71.5 -397q0 -168 -45 -322t-133 -280.5t-210 -220t-284 -145t-348 -51.5zM1122 -158q184 0 339 65.5t258 177
t160.5 259.5t57.5 313t-57.5 313t-160.5 260t-258 177.5t-339 65.5t-339 -65.5t-258 -177.5t-160.5 -260t-57.5 -313t57.5 -313t160.5 -259.5t258 -177t339 -65.5zM705 422q0 59 24 104.5t66.5 72.5t87.5 42.5t98 22.5v41q-40 5 -77 18t-73 36.5t-57.5 65t-21.5 95.5
q0 115 93.5 180t276.5 65q182 0 275.5 -65t93.5 -180q0 -54 -21.5 -95.5t-57.5 -65t-72 -36.5t-76 -18v-41q53 -7 98 -22.5t87.5 -42.5t66.5 -72.5t24 -104.5q0 -124 -110.5 -197t-307.5 -73t-307 72.5t-110 197.5zM997 879q0 -93 125 -93q72 0 97.5 26t25.5 67
q0 38 -25.5 60t-97.5 22q-73 0 -99 -22t-26 -60zM950 467q0 -111 172 -111t172 111q0 115 -172 115t-172 -115z" />
    <glyph glyph-name="uni2468" unicode="&#x2468;" 
d="M1122 -362q-186 0 -348 51.5t-284 145t-210 220t-133 280.5t-45 322q0 211 71.5 397t201 324t323 218.5t424.5 80.5t424.5 -80.5t323 -218.5t201 -324t71.5 -397q0 -168 -45 -322t-133 -280.5t-210 -220t-284 -145t-348 -51.5zM1122 -158q184 0 339 65.5t258 177
t160.5 259.5t57.5 313t-57.5 313t-160.5 260t-258 177.5t-339 65.5t-339 -65.5t-258 -177.5t-160.5 -260t-57.5 -313t57.5 -313t160.5 -259.5t258 -177t339 -65.5zM1563 702q0 -610 -549 -546l-174 20v205l194 -21q102 -11 173.5 3t111 50t57 83.5t17.5 111.5l63 144h-61
q-11 -48 -34.5 -92t-62.5 -84.5t-101 -64.5t-138 -24q-65 0 -121 18t-102.5 56t-73.5 105t-27 157q0 92 32 160.5t88 108t124.5 58.5t148.5 19q215 0 325 -112.5t110 -354.5zM1317 827q0 72 -40 105t-128 33q-87 0 -127.5 -33t-40.5 -105q0 -69 41 -102t127 -33
q87 0 127.5 33t40.5 102z" />
    <glyph glyph-name="uni24EA" unicode="&#x24ea;" 
d="M1122 1677q231 0 424.5 -80.5t323 -218.5t201 -324t71.5 -397q0 -168 -45 -322t-133 -280.5t-210 -220t-284 -145t-348 -51.5t-348 51.5t-284 145t-210 220t-133 280.5t-45 322q0 211 71.5 397t201 324t323 218.5t424.5 80.5zM1122 -158q184 0 339 65.5t258 177
t160.5 259.5t57.5 313t-57.5 313t-160.5 260t-258 177.5t-339 65.5t-339 -65.5t-258 -177.5t-160.5 -260t-57.5 -313t57.5 -313t160.5 -259.5t258 -177t339 -65.5zM1124 1165q142 0 243.5 -67t150.5 -179.5t49 -259.5q0 -227 -115.5 -367t-327.5 -140q-213 0 -328.5 139.5
t-115.5 367.5q0 147 49 259.5t150.5 179.5t244.5 67zM1124 920q-91 0 -144.5 -72t-53.5 -189q0 -61 16 -114l301 338q-47 37 -119 37zM1124 397q102 0 149.5 69.5t47.5 192.5q0 65 -12 115l-303 -334q53 -43 118 -43z" />
    <glyph glyph-name="uni24FF" unicode="&#x24ff;" 
d="M1122 -362q-186 0 -348 51.5t-284 145t-210 220t-133 280.5t-45 322q0 211 71.5 397t201 324t323 218.5t424.5 80.5t424.5 -80.5t323 -218.5t201 -324t71.5 -397q0 -168 -45 -322t-133 -280.5t-210 -220t-284 -145t-348 -51.5zM680 659q0 -228 115.5 -367.5t328.5 -139.5
q212 0 327.5 140t115.5 367q0 147 -49 259.5t-150.5 179.5t-243.5 67q-143 0 -244.5 -67t-150.5 -179.5t-49 -259.5zM926 659q0 117 53.5 189t144.5 72q72 0 119 -37l-301 -338q-16 53 -16 114zM1006 440l303 334q12 -49 12 -115q0 -123 -47.5 -192.5t-149.5 -69.5
q-65 0 -118 43z" />
    <glyph glyph-name="lozenge" unicode="&#x25ca;" horiz-adv-x="1169" 
d="M831 1444l195 -694l-195 -695h-491l-197 695l197 694h491zM627 137l137 613l-137 612h-82l-139 -612l139 -613h82z" />
    <glyph glyph-name="uni2776" unicode="&#x2776;" 
d="M1122 -362q186 0 348 51.5t284 145t210 220t133 280.5t45 322q0 211 -71.5 397t-201 324t-323 218.5t-424.5 80.5t-424.5 -80.5t-323 -218.5t-201 -324t-71.5 -397q0 -168 45 -322t133 -280.5t210 -220t284 -145t348 -51.5zM727 797q68 56 96.5 92.5t45 91t28.5 162.5
h463v-973h-246v748l41 143h-61q-26 -389 -263 -490z" />
    <glyph glyph-name="uni2777" unicode="&#x2777;" 
d="M1122 -362q186 0 348 51.5t284 145t210 220t133 280.5t45 322q0 211 -71.5 397t-201 324t-323 218.5t-424.5 80.5t-424.5 -80.5t-323 -218.5t-201 -324t-71.5 -397q0 -168 45 -322t133 -280.5t210 -220t284 -145t348 -51.5zM702 772q0 87 27 164t80 138t139 96.5
t195 35.5q100 0 176 -28.5t119 -77.5t63.5 -107t20.5 -123q0 -86 -35.5 -152.5t-94 -110.5t-149.5 -76.5t-186 -50.5t-219 -31v-62l143 31h541v-205h-766v379q4 1 35 4.5t53 6.5t62.5 10t71 14.5t71 20.5t70.5 27t61 34.5t51 43.5t32.5 53t12.5 64q0 56 -36 93.5t-116 37.5
q-98 0 -137 -56t-39 -173h-246z" />
    <glyph glyph-name="uni2778" unicode="&#x2778;" 
d="M1122 -362q186 0 348 51.5t284 145t210 220t133 280.5t45 322q0 211 -71.5 397t-201 324t-323 218.5t-424.5 80.5t-424.5 -80.5t-323 -218.5t-201 -324t-71.5 -397q0 -168 45 -322t133 -280.5t210 -220t284 -145t348 -51.5zM692 539h246q0 -57 14 -94.5t43.5 -56.5
t63 -25.5t82.5 -6.5q85 0 126.5 24.5t41.5 92.5q0 33 -11 54.5t-33.5 31.5t-45 13t-56.5 3h-98v203h98q67 0 99 17.5t32 72.5q0 52 -36 72.5t-117 20.5q-96 0 -143.5 -29t-47.5 -103h-245q0 159 115 247.5t321 88.5q199 0 300 -73.5t101 -186.5q0 -52 -18.5 -89t-54.5 -58.5
t-73.5 -32.5t-92.5 -20v-62q37 -7 55 -11t49.5 -13t48 -18t38.5 -24.5t33 -34t19 -45t8 -59.5q0 -134 -104.5 -210t-308.5 -76q-212 0 -330.5 96.5t-118.5 290.5z" />
    <glyph glyph-name="uni2779" unicode="&#x2779;" 
d="M1122 -362q186 0 348 51.5t284 145t210 220t133 280.5t45 322q0 211 -71.5 397t-201 324t-323 218.5t-424.5 80.5t-424.5 -80.5t-323 -218.5t-201 -324t-71.5 -397q0 -168 45 -322t133 -280.5t210 -220t284 -145t348 -51.5zM709 317v504q325 61 372 346h246
q-10 -97 -46.5 -185.5t-103 -169.5t-176 -141t-251.5 -87v-62l143 41h266v162h246v-162h133v-246h-133v-122h-246v122h-450z" />
    <glyph glyph-name="uni277A" unicode="&#x277a;" 
d="M1122 -362q186 0 348 51.5t284 145t210 220t133 280.5t45 322q0 211 -71.5 397t-201 324t-323 218.5t-424.5 80.5t-424.5 -80.5t-323 -218.5t-201 -324t-71.5 -397q0 -168 45 -322t133 -280.5t210 -220t284 -145t348 -51.5zM721 444h246q0 -64 49 -96.5t125 -32.5
q88 0 136 32.5t48 111.5q0 157 -129 157q-102 0 -174 -112l-274 94v506h763v-205h-518v-176l-32 -90l40 -23q27 94 99.5 152.5t189.5 58.5q142 0 211.5 -96t69.5 -244q0 -77 -25 -142.5t-75 -117t-132.5 -81t-189.5 -29.5q-205 0 -316.5 85.5t-111.5 247.5z" />
    <glyph glyph-name="uni277B" unicode="&#x277b;" 
d="M1122 -362q186 0 348 51.5t284 145t210 220t133 280.5t45 322q0 211 -71.5 397t-201 324t-323 218.5t-424.5 80.5t-424.5 -80.5t-323 -218.5t-201 -324t-71.5 -397q0 -168 45 -322t133 -280.5t210 -220t284 -145t348 -51.5zM688 616q0 101 15 184t53 159.5t99 125t158 71
t224 7.5l174 -20v-205l-194 20q-102 11 -173.5 -3t-111 -49.5t-57 -83t-17.5 -111.5l-63 -144h61q11 48 34.5 92t62.5 84t101 64t138 24q65 0 121 -18t102.5 -56t73.5 -104.5t27 -156.5q0 -92 -32 -160.5t-88.5 -108t-125 -58.5t-148.5 -19q-215 0 -324.5 112t-109.5 354z
M934 492q0 -72 40 -105t128 -33q87 0 127.5 33t40.5 105q0 69 -41 102t-127 33q-87 0 -127.5 -33t-40.5 -102z" />
    <glyph glyph-name="uni277C" unicode="&#x277c;" 
d="M1122 -362q186 0 348 51.5t284 145t210 220t133 280.5t45 322q0 211 -71.5 397t-201 324t-323 218.5t-424.5 80.5t-424.5 -80.5t-323 -218.5t-201 -324t-71.5 -397q0 -168 45 -322t133 -280.5t210 -220t284 -145t348 -51.5zM881 127q0 212 63.5 354.5t183 223.5
t312.5 129v61h-674v205h756v-416q-222 -67 -309 -194.5t-87 -362.5h-245z" />
    <glyph glyph-name="uni277D" unicode="&#x277d;" 
d="M1122 -362q186 0 348 51.5t284 145t210 220t133 280.5t45 322q0 211 -71.5 397t-201 324t-323 218.5t-424.5 80.5t-424.5 -80.5t-323 -218.5t-201 -324t-71.5 -397q0 -168 45 -322t133 -280.5t210 -220t284 -145t348 -51.5zM705 422q0 59 24 104.5t66.5 72.5t87.5 42.5
t98 22.5v41q-40 5 -77 18t-73 36.5t-57.5 65t-21.5 95.5q0 115 93.5 180t276.5 65q182 0 275.5 -65t93.5 -180q0 -54 -21.5 -95.5t-57.5 -65t-72 -36.5t-76 -18v-41q53 -7 98 -22.5t87.5 -42.5t66.5 -72.5t24 -104.5q0 -124 -110.5 -197t-307.5 -73t-307 72.5t-110 197.5z
M997 879q0 -93 125 -93q72 0 97.5 26t25.5 67q0 38 -25.5 60t-97.5 22q-73 0 -99 -22t-26 -60zM950 467q0 -111 172 -111t172 111q0 115 -172 115t-172 -115z" />
    <glyph glyph-name="uni277E" unicode="&#x277e;" 
d="M1122 -362q186 0 348 51.5t284 145t210 220t133 280.5t45 322q0 211 -71.5 397t-201 324t-323 218.5t-424.5 80.5t-424.5 -80.5t-323 -218.5t-201 -324t-71.5 -397q0 -168 45 -322t133 -280.5t210 -220t284 -145t348 -51.5zM1563 702q0 -610 -549 -546l-174 20v205
l194 -21q102 -11 173.5 3t111 50t57 83.5t17.5 111.5l63 144h-61q-11 -48 -34.5 -92t-62.5 -84.5t-101 -64.5t-138 -24q-65 0 -121 18t-102.5 56t-73.5 105t-27 157q0 92 32 160.5t88 108t124.5 58.5t148.5 19q215 0 325 -112.5t110 -354.5zM1317 827q0 72 -40 105t-128 33
q-87 0 -127.5 -33t-40.5 -105q0 -69 41 -102t127 -33q87 0 127.5 33t40.5 102z" />
    <glyph glyph-name="G.ss01" horiz-adv-x="1697" 
d="M102 723q0 216 94.5 386t260 262.5t372.5 92.5q271 0 463 -150t224 -386h-328q-25 128 -111 189t-248 61q-191 0 -295 -117t-104 -338q0 -228 93.5 -342.5t291.5 -114.5q117 0 213 31.5t157.5 99.5t61.5 162h-416v246h570q85 0 129.5 -44.5t44.5 -129.5v-631h-328v129
l62 225h-82q-1 -23 -4 -47.5t-14.5 -63t-30.5 -72t-54.5 -70t-82.5 -62.5t-119 -42.5t-160 -16.5q-207 0 -357.5 94t-226.5 260.5t-76 388.5z" />
    <glyph glyph-name="Gbreve.ss01" horiz-adv-x="1697" 
d="M1204 1954q0 -82 -20.5 -152.5t-63 -129t-117 -92.5t-174.5 -34q-80 0 -144.5 22.5t-106.5 60.5t-70.5 91t-40.5 111t-12 123h245q0 -102 32.5 -142t96.5 -40t96.5 40t32.5 142h246zM102 723q0 216 94.5 386t260 262.5t372.5 92.5q271 0 463 -150t224 -386h-328
q-25 128 -111 189t-248 61q-191 0 -295 -117t-104 -338q0 -228 93.5 -342.5t291.5 -114.5q117 0 213 31.5t157.5 99.5t61.5 162h-416v246h570q85 0 129.5 -44.5t44.5 -129.5v-631h-328v129l62 225h-82q-1 -23 -4 -47.5t-14.5 -63t-30.5 -72t-54.5 -70t-82.5 -62.5
t-119 -42.5t-160 -16.5q-207 0 -357.5 94t-226.5 260.5t-76 388.5z" />
    <glyph glyph-name="uni0122.ss01" horiz-adv-x="1697" 
d="M102 723q0 216 94.5 386t260 262.5t372.5 92.5q271 0 463 -150t224 -386h-328q-25 128 -111 189t-248 61q-191 0 -295 -117t-104 -338q0 -228 93.5 -342.5t291.5 -114.5q117 0 213 31.5t157.5 99.5t61.5 162h-416v246h570q85 0 129.5 -44.5t44.5 -129.5v-631h-328v129
l62 225h-82q-1 -23 -4 -47.5t-14.5 -63t-30.5 -72t-54.5 -70t-82.5 -62.5t-119 -42.5t-160 -16.5q-207 0 -357.5 94t-226.5 260.5t-76 388.5zM649 -100l234 -76l-127 -350l-234 75z" />
    <glyph glyph-name="Gdotaccent.ss01" horiz-adv-x="1697" 
d="M827 1546q-98 0 -150 42t-52 122q0 78 52 121t150 43t152.5 -43t54.5 -121q0 -79 -54 -121.5t-153 -42.5zM102 723q0 216 94.5 386t260 262.5t372.5 92.5q271 0 463 -150t224 -386h-328q-25 128 -111 189t-248 61q-191 0 -295 -117t-104 -338q0 -228 93.5 -342.5
t291.5 -114.5q117 0 213 31.5t157.5 99.5t61.5 162h-416v246h570q85 0 129.5 -44.5t44.5 -129.5v-631h-328v129l62 225h-82q-1 -23 -4 -47.5t-14.5 -63t-30.5 -72t-54.5 -70t-82.5 -62.5t-119 -42.5t-160 -16.5q-207 0 -357.5 94t-226.5 260.5t-76 388.5z" />
    <glyph glyph-name="i.loclTRK" horiz-adv-x="1024" 
d="M469 1137q-98 0 -150.5 42t-52.5 121q0 78 52.5 121t150.5 43t152.5 -43t54.5 -121q0 -79 -54 -121t-153 -42zM82 0v287h293v473l-252 -12v286l389 21q86 4 132 -40.5t46 -131.5v-596h293v-287h-901z" />
    <glyph glyph-name="a.ss01" horiz-adv-x="1449" 
d="M1327 0h-328v63l62 185h-82q-45 -117 -145 -192.5t-263 -75.5q-116 0 -210 42.5t-154.5 116.5t-92.5 171t-32 208q0 149 54.5 269t167.5 194t267 74q163 0 263 -76t145 -193h82l-62 185v63h328v-1034zM999 518q0 250 -294 250q-295 0 -295 -250q0 -252 295 -252
q141 0 217.5 59t76.5 193z" />
    <glyph glyph-name="aacute.ss01" horiz-adv-x="1449" 
d="M276 1370l799 176l55 -233l-798 -176zM1327 0h-328v63l62 185h-82q-45 -117 -145 -192.5t-263 -75.5q-116 0 -210 42.5t-154.5 116.5t-92.5 171t-32 208q0 149 54.5 269t167.5 194t267 74q163 0 263 -76t145 -193h82l-62 185v63h328v-1034zM999 518q0 250 -294 250
q-295 0 -295 -250q0 -252 295 -252q141 0 217.5 59t76.5 193z" />
    <glyph glyph-name="abreve.ss01" horiz-adv-x="1449" 
d="M1100 1544q0 -82 -20.5 -152.5t-63 -129t-117 -92t-174.5 -33.5t-174.5 33.5t-117 92t-63 129t-20.5 152.5h246q0 -102 32.5 -142t96.5 -40t96.5 40t32.5 142h246zM1327 0h-328v63l62 185h-82q-45 -117 -145 -192.5t-263 -75.5q-116 0 -210 42.5t-154.5 116.5t-92.5 171
t-32 208q0 149 54.5 269t167.5 194t267 74q163 0 263 -76t145 -193h82l-62 185v63h328v-1034zM999 518q0 250 -294 250q-295 0 -295 -250q0 -252 295 -252q141 0 217.5 59t76.5 193z" />
    <glyph glyph-name="acircumflex.ss01" horiz-adv-x="1449" 
d="M1167 1278l-174 -164l-268 186l-268 -186l-174 164l442 309zM1327 0h-328v63l62 185h-82q-45 -117 -145 -192.5t-263 -75.5q-116 0 -210 42.5t-154.5 116.5t-92.5 171t-32 208q0 149 54.5 269t167.5 194t267 74q163 0 263 -76t145 -193h82l-62 185v63h328v-1034zM999 518
q0 250 -294 250q-295 0 -295 -250q0 -252 295 -252q141 0 217.5 59t76.5 193z" />
    <glyph glyph-name="adieresis.ss01" horiz-adv-x="1449" 
d="M457 1137q-98 0 -150.5 42t-52.5 121q0 78 52.5 121t150.5 43t152.5 -43t54.5 -121q0 -79 -54 -121t-153 -42zM989 1137q-98 0 -150.5 42t-52.5 121q0 78 52.5 121t150.5 43t152.5 -43t54.5 -121q0 -79 -54 -121t-153 -42zM1327 0h-328v63l62 185h-82
q-45 -117 -145 -192.5t-263 -75.5q-116 0 -210 42.5t-154.5 116.5t-92.5 171t-32 208q0 149 54.5 269t167.5 194t267 74q163 0 263 -76t145 -193h82l-62 185v63h328v-1034zM999 518q0 250 -294 250q-295 0 -295 -250q0 -252 295 -252q141 0 217.5 59t76.5 193z" />
    <glyph glyph-name="agrave.ss01" horiz-adv-x="1449" 
d="M1171 1370l-55 -233l-799 176l56 233zM1327 0h-328v63l62 185h-82q-45 -117 -145 -192.5t-263 -75.5q-116 0 -210 42.5t-154.5 116.5t-92.5 171t-32 208q0 149 54.5 269t167.5 194t267 74q163 0 263 -76t145 -193h82l-62 185v63h328v-1034zM999 518q0 250 -294 250
q-295 0 -295 -250q0 -252 295 -252q141 0 217.5 59t76.5 193z" />
    <glyph glyph-name="amacron.ss01" horiz-adv-x="1449" 
d="M285 1475h880v-242l-880 -4v246zM1327 0h-328v63l62 185h-82q-45 -117 -145 -192.5t-263 -75.5q-116 0 -210 42.5t-154.5 116.5t-92.5 171t-32 208q0 149 54.5 269t167.5 194t267 74q163 0 263 -76t145 -193h82l-62 185v63h328v-1034zM999 518q0 250 -294 250
q-295 0 -295 -250q0 -252 295 -252q141 0 217.5 59t76.5 193z" />
    <glyph glyph-name="aogonek.ss01" horiz-adv-x="1449" 
d="M1249 -164l279 29v-246l-379 -31q-53 -4 -98 14.5t-68.5 51t-29 73t21.5 78.5l127 195h-103v63l62 185h-82q-45 -117 -145 -192.5t-263 -75.5q-116 0 -210 42.5t-154.5 116.5t-92.5 171t-32 208q0 149 54.5 269t167.5 194t267 74q163 0 263 -76t145 -193h82l-62 185v63
h328v-1034zM705 266q141 0 217.5 59t76.5 193q0 250 -294 250q-295 0 -295 -250q0 -252 295 -252z" />
    <glyph glyph-name="aring.ss01" horiz-adv-x="1449" 
d="M723 1137q-153 0 -237.5 63.5t-84.5 188.5q0 124 85 187.5t237 63.5q153 0 238.5 -63.5t85.5 -187.5t-86 -188t-238 -64zM723 1321q78 0 78 68q0 65 -78 65q-76 0 -76 -65q0 -68 76 -68zM1327 0h-328v63l62 185h-82q-45 -117 -145 -192.5t-263 -75.5q-116 0 -210 42.5
t-154.5 116.5t-92.5 171t-32 208q0 149 54.5 269t167.5 194t267 74q163 0 263 -76t145 -193h82l-62 185v63h328v-1034zM999 518q0 250 -294 250q-295 0 -295 -250q0 -252 295 -252q141 0 217.5 59t76.5 193z" />
    <glyph glyph-name="atilde.ss01" horiz-adv-x="1449" 
d="M246 1229q0 179 80.5 284t220.5 105q52 0 97.5 -17t76.5 -41t58 -48t53.5 -41t50.5 -17q38 0 56.5 28.5t18.5 114.5h246q0 -179 -80.5 -284t-220.5 -105q-52 0 -97.5 17t-76.5 41t-58 48t-53.5 41t-50.5 17q-38 0 -56.5 -28.5t-18.5 -114.5h-246zM1327 0h-328v63l62 185
h-82q-45 -117 -145 -192.5t-263 -75.5q-116 0 -210 42.5t-154.5 116.5t-92.5 171t-32 208q0 149 54.5 269t167.5 194t267 74q163 0 263 -76t145 -193h82l-62 185v63h328v-1034zM999 518q0 250 -294 250q-295 0 -295 -250q0 -252 295 -252q141 0 217.5 59t76.5 193z" />
    <glyph glyph-name="g.ss01" horiz-adv-x="1449" 
d="M999 1034h328v-1272q0 -86 -45.5 -130t-130.5 -42l-868 15v286l716 -12v184l62 185h-82q-45 -117 -145 -192.5t-263 -75.5q-116 0 -210 42.5t-154.5 116.5t-92.5 171t-32 208q0 149 54.5 269t167.5 194t267 74q163 0 263 -76t145 -193h82l-62 185v63zM705 266
q141 0 217.5 59t76.5 193q0 250 -294 250q-295 0 -295 -250q0 -252 295 -252z" />
    <glyph glyph-name="gbreve.ss01" horiz-adv-x="1449" 
d="M686 1137q-100 0 -174.5 33.5t-117 92t-63 129t-20.5 152.5h246q0 -102 32.5 -142t96.5 -40t96.5 40t32.5 142h246q0 -82 -20.5 -152.5t-63 -129t-117 -92t-174.5 -33.5zM999 1034h328v-1272q0 -86 -45.5 -130t-130.5 -42l-868 15v286l716 -12v184l62 185h-82
q-45 -117 -145 -192.5t-263 -75.5q-116 0 -210 42.5t-154.5 116.5t-92.5 171t-32 208q0 149 54.5 269t167.5 194t267 74q163 0 263 -76t145 -193h82l-62 185v63zM705 266q141 0 217.5 59t76.5 193q0 250 -294 250q-295 0 -295 -250q0 -252 295 -252z" />
    <glyph glyph-name="uni0123.ss01" horiz-adv-x="1449" 
d="M932 1581l-150 -444l-237 63l149 445zM999 1034h328v-1272q0 -86 -45.5 -130t-130.5 -42l-868 15v286l716 -12v184l62 185h-82q-45 -117 -145 -192.5t-263 -75.5q-116 0 -210 42.5t-154.5 116.5t-92.5 171t-32 208q0 149 54.5 269t167.5 194t267 74q163 0 263 -76
t145 -193h82l-62 185v63zM705 266q141 0 217.5 59t76.5 193q0 250 -294 250q-295 0 -295 -250q0 -252 295 -252z" />
    <glyph glyph-name="gdotaccent.ss01" horiz-adv-x="1449" 
d="M684 1137q-98 0 -150.5 42t-52.5 121q0 78 52.5 121t150.5 43t152.5 -43t54.5 -121q0 -79 -54 -121t-153 -42zM999 1034h328v-1272q0 -86 -45.5 -130t-130.5 -42l-868 15v286l716 -12v184l62 185h-82q-45 -117 -145 -192.5t-263 -75.5q-116 0 -210 42.5t-154.5 116.5
t-92.5 171t-32 208q0 149 54.5 269t167.5 194t267 74q163 0 263 -76t145 -193h82l-62 185v63zM705 266q141 0 217.5 59t76.5 193q0 250 -294 250q-295 0 -295 -250q0 -252 295 -252z" />
    <glyph glyph-name="k.ss01" horiz-adv-x="1447" 
d="M1386 1034l-505 -416l505 -618h-401l-342 424l-192 -158v-266h-328v1505h328v-841l450 370h485z" />
    <glyph glyph-name="uni0137.ss01" horiz-adv-x="1447" 
d="M1386 1034l-505 -416l505 -618h-401l-342 424l-192 -158v-266h-328v1505h328v-841l450 370h485zM492 -451l126 351l234 -76l-127 -350z" />
    <glyph glyph-name="uni0438.loclBGR" horiz-adv-x="1417" 
d="M1335 0h-327v778l61 174h-82l-223 -952h-641v1034h328v-768l-62 -184h82l223 952h641v-1034z" />
    <glyph glyph-name="uni0439.loclBGR" horiz-adv-x="1417" 
d="M1114 1544q0 -82 -20.5 -152.5t-63 -129t-117 -92t-174.5 -33.5q-80 0 -144.5 22.5t-106.5 60.5t-70.5 90.5t-40.5 110.5t-12 123h245q0 -102 32.5 -142t96.5 -40t96.5 40t32.5 142h246zM1335 0h-327v778l61 174h-82l-223 -952h-641v1034h328v-768l-62 -184h82l223 952
h641v-1034z" />
    <glyph glyph-name="uni045D.loclBGR" horiz-adv-x="1417" 
d="M1186 1370l-56 -233l-798 176l55 233zM1335 0h-327v778l61 174h-82l-223 -952h-641v1034h328v-768l-62 -184h82l223 952h641v-1034z" />
    <glyph glyph-name="zero.dnom" horiz-adv-x="1009" 
d="M506 993q142 0 243 -67t150 -179.5t49 -259.5q0 -227 -115 -367t-327 -140q-213 0 -329 140t-116 367q0 147 49 259.5t151 179.5t245 67zM506 748q-91 0 -145 -72t-54 -189q0 -58 17 -114l301 338q-47 37 -119 37zM506 225q196 0 196 262q0 65 -12 115l-303 -334
q53 -43 119 -43z" />
    <glyph glyph-name="one.dnom" horiz-adv-x="755" 
d="M61 627q68 56 96.5 92.5t45 91t28.5 162.5h463v-973h-245v748l40 143h-61q-5 -78 -18 -143t-40.5 -136t-79.5 -125.5t-124 -85.5z" />
    <glyph glyph-name="two.dnom" horiz-adv-x="942" 
d="M61 559q0 87 27 164t80 138t139 96.5t195 35.5q100 0 176 -28.5t119 -77.5t63.5 -107t20.5 -123q0 -86 -35.5 -152.5t-94 -110.5t-149.5 -76.5t-186 -50.5t-219 -31v-62l143 31h541v-205h-766v379q4 1 35 4.5t53 6.5t62.5 10t71 14.5t71 20.5t70.5 27t61 34.5t51 43.5
t32.5 53t12.5 64q0 56 -36 93.5t-116 37.5q-98 0 -137 -56t-39 -173h-246z" />
    <glyph glyph-name="three.dnom" horiz-adv-x="985" 
d="M61 367h246q0 -57 14 -94.5t43.5 -56.5t63 -25.5t82.5 -6.5q85 0 126.5 24.5t41.5 92.5q0 33 -11 54.5t-33.5 31.5t-45 13t-56.5 3h-98v203h98q67 0 99.5 17.5t32.5 72.5q0 52 -36.5 72t-117.5 20q-96 0 -143.5 -28.5t-47.5 -102.5h-245q0 159 115 247.5t321 88.5
q199 0 300 -73.5t101 -186.5q0 -52 -18.5 -89t-54.5 -59t-74 -33t-92 -20v-61q37 -7 55 -11t50 -13t48.5 -18t38.5 -24.5t33 -34t19 -45t8 -59.5q0 -134 -105 -210t-309 -76q-212 0 -330.5 96.5t-118.5 290.5z" />
    <glyph glyph-name="four.dnom" horiz-adv-x="952" 
d="M61 123v504q326 61 373 346h246q-10 -97 -46.5 -185.5t-103.5 -170t-176.5 -141.5t-251.5 -87v-61l144 41h266v161h246v-161h133v-246h-133v-123h-246v123h-451z" />
    <glyph glyph-name="five.dnom" horiz-adv-x="972" 
d="M61 313h246q0 -64 49 -96.5t125 -32.5q89 0 137 32.5t48 111.5q0 157 -129 157q-103 0 -175 -112l-274 94v506h764v-205h-518v-176l-33 -90l41 -23q27 94 99.5 152.5t189.5 58.5q96 0 161 -48t92 -122t27 -170q0 -77 -25 -142.5t-75 -117t-132.5 -81t-189.5 -29.5
q-205 0 -316.5 85.5t-111.5 247.5z" />
    <glyph glyph-name="six.dnom" horiz-adv-x="950" 
d="M61 446q0 101 15 184t53 159.5t99 125t158 71t224 7.5l174 -20v-205l-194 20q-102 11 -173.5 -3t-111 -49.5t-57 -83t-17.5 -111.5l-63 -144h61q11 48 34.5 92t62.5 84.5t101 64.5t138 24q65 0 121 -18t102.5 -56t73.5 -105t27 -157q0 -92 -32 -160.5t-88 -108
t-124.5 -58.5t-148.5 -19q-215 0 -325 112t-110 354zM307 322q0 -72 40 -105t128 -33q87 0 127.5 33t40.5 105q0 69 -41 102t-127 33q-87 0 -127.5 -33t-40.5 -102z" />
    <glyph glyph-name="seven.dnom" horiz-adv-x="878" 
d="M176 0q0 212 63.5 354.5t183 223.5t312.5 129v61h-674v205h756v-416q-222 -67 -308.5 -194.5t-86.5 -362.5h-246z" />
    <glyph glyph-name="eight.dnom" horiz-adv-x="958" 
d="M61 250q0 59 24.5 104.5t66.5 72.5t87.5 42.5t98.5 22.5v40q-40 5 -77 18t-73 37t-57.5 65.5t-21.5 95.5q0 115 93.5 180t276.5 65q182 0 275.5 -65t93.5 -180q0 -54 -21.5 -95.5t-57.5 -65.5t-72 -37t-76 -18v-40q53 -7 98 -22.5t87.5 -42.5t66.5 -72.5t24 -104.5
q0 -124 -110.5 -197t-307.5 -73t-307.5 73t-110.5 197zM354 707q0 -93 125 -93q72 0 97.5 26t25.5 67q0 38 -25 59.5t-98 21.5t-99 -21.5t-26 -59.5zM307 295q0 -111 172 -111t172 111q0 115 -172 115t-172 -115z" />
    <glyph glyph-name="nine.dnom" horiz-adv-x="950" 
d="M889 532q0 -610 -549 -546l-174 20v205l194 -21q102 -11 173.5 3t111 50t57 83.5t17.5 111.5l63 144h-61q-11 -48 -34.5 -92t-62.5 -84.5t-101 -64.5t-138 -24q-65 0 -121 18t-102.5 56t-73.5 105t-27 157q0 92 32 160.5t88.5 108t125 58.5t148.5 19q215 0 324.5 -112.5
t109.5 -354.5zM643 657q0 72 -40 105t-128 33q-87 0 -127.5 -33t-40.5 -105q0 -69 41 -102t127 -33q87 0 127.5 33t40.5 102z" />
    <glyph glyph-name="zero.numr" horiz-adv-x="1009" 
d="M506 1604q142 0 243 -67t150 -179.5t49 -259.5q0 -227 -115 -367.5t-327 -140.5q-213 0 -329 140.5t-116 367.5q0 147 49 259.5t151 179.5t245 67zM506 1358q-91 0 -145 -71.5t-54 -188.5q0 -59 17 -115l301 338q-47 37 -119 37zM506 836q196 0 196 262q0 64 -12 114
l-303 -333q53 -43 119 -43z" />
    <glyph glyph-name="one.numr" horiz-adv-x="755" 
d="M61 1221q68 56 96.5 92.5t45 91t28.5 162.5h463v-973h-245v747l40 144h-61q-5 -78 -18 -143t-40.5 -136t-79.5 -125.5t-124 -85.5z" />
    <glyph glyph-name="two.numr" horiz-adv-x="942" 
d="M61 1161q0 87 27 164t80 138t139 96.5t195 35.5q100 0 176 -28.5t119 -77.5t63.5 -106.5t20.5 -122.5q0 -86 -35.5 -152.5t-94 -111t-149.5 -76.5t-186 -50.5t-219 -31.5v-62l143 31h541v-205h-766v379q4 1 35.5 4.5t53 6.5t62 10.5t71 15t71 20t70 27t61 35t51.5 43.5
t32.5 53t12.5 64q0 56 -36 93.5t-116 37.5q-98 0 -137 -56.5t-39 -173.5h-246z" />
    <glyph glyph-name="three.numr" horiz-adv-x="985" 
d="M61 969h246q0 -57 14 -94.5t43.5 -56.5t63 -25.5t82.5 -6.5q85 0 126.5 24.5t41.5 92.5q0 33 -11 54.5t-33.5 31.5t-45 13.5t-56.5 3.5h-98v202h98q67 0 99.5 17.5t32.5 72.5q0 52 -36.5 72.5t-117.5 20.5q-96 0 -143.5 -28.5t-47.5 -102.5h-245q0 159 115 247t321 88
q199 0 300 -73.5t101 -186.5q0 -52 -18.5 -89t-54.5 -58.5t-73.5 -32.5t-92.5 -20v-62q37 -7 55 -11t50 -13t48.5 -18t38.5 -24.5t33 -34t19 -45t8 -59.5q0 -134 -105 -210t-309 -76q-212 0 -330.5 96.5t-118.5 290.5z" />
    <glyph glyph-name="four.numr" horiz-adv-x="952" 
d="M61 717v504q326 61 373 346h246q-10 -97 -46.5 -185.5t-103.5 -170t-176.5 -141.5t-251.5 -87v-61l144 41h266v161h246v-161h133v-246h-133v-123h-246v123h-451z" />
    <glyph glyph-name="five.numr" horiz-adv-x="972" 
d="M61 915h246q0 -64 49 -96.5t125 -32.5q89 0 137 32.5t48 111.5q0 157 -129 157q-103 0 -175 -112l-274 94v506h764v-205h-518v-176l-33 -90l41 -23q27 94 99.5 152.5t189.5 58.5q96 0 161 -48t92 -122t27 -170q0 -77 -25 -142.5t-75 -117t-132.5 -81t-189.5 -29.5
q-205 0 -316.5 85.5t-111.5 247.5z" />
    <glyph glyph-name="six.numr" horiz-adv-x="950" 
d="M61 1059q0 101 15 184t53 159.5t99 125t158 71t224 7.5l174 -21v-205l-194 21q-102 11 -173.5 -3t-111 -50t-57 -83.5t-17.5 -111.5l-63 -143h61q11 48 34.5 92t62.5 84t101 64t138 24q65 0 121 -18t102.5 -56t73.5 -105t27 -157q0 -92 -32 -160.5t-88 -108t-124.5 -58.5
t-148.5 -19q-215 0 -325 112.5t-110 354.5zM307 934q0 -72 40 -104.5t128 -32.5q87 0 127.5 32.5t40.5 104.5q0 69 -41 102t-127 33q-87 0 -127.5 -33t-40.5 -102z" />
    <glyph glyph-name="seven.numr" horiz-adv-x="878" 
d="M176 594q0 212 63.5 354t183 223t312.5 129v62h-674v205h756v-416q-222 -67 -308.5 -194.5t-86.5 -362.5h-246z" />
    <glyph glyph-name="eight.numr" horiz-adv-x="958" 
d="M61 860q0 59 24.5 104.5t66.5 72.5t87.5 42.5t98.5 22.5v41q-40 5 -77 18t-73 36.5t-57.5 65t-21.5 95.5q0 116 93.5 181t276.5 65q182 0 275.5 -65.5t93.5 -180.5q0 -54 -21.5 -95.5t-57.5 -65t-72 -36.5t-76 -18v-41q53 -7 98 -22.5t87.5 -42.5t66.5 -72.5t24 -104.5
q0 -124 -110.5 -197t-307.5 -73t-307.5 73t-110.5 197zM354 1317q0 -92 125 -92q72 0 97.5 25.5t25.5 66.5q0 38 -25.5 60t-97.5 22q-73 0 -99 -22t-26 -60zM307 905q0 -110 172 -110t172 110q0 115 -172 115t-172 -115z" />
    <glyph glyph-name="nine.numr" horiz-adv-x="950" 
d="M889 1145q0 -101 -15 -184t-53 -159.5t-99 -125t-158 -71t-224 -7.5l-174 20v205l194 -20q102 -11 173.5 3t111 50t57 83.5t17.5 111.5l63 143h-61q-11 -48 -34.5 -92t-62.5 -84t-101 -64t-138 -24q-65 0 -121 18t-102.5 56t-73.5 105t-27 157q0 92 32 160.5t88.5 108
t125 58.5t148.5 19q215 0 324.5 -112.5t109.5 -354.5zM643 1270q0 72 -40 104.5t-128 32.5q-87 0 -127.5 -32.5t-40.5 -104.5q0 -69 41 -102t127 -33q87 0 127.5 33t40.5 102z" />
    <glyph glyph-name="colon.case" horiz-adv-x="737" 
d="M367 854q-102 0 -163 64t-61 163q0 96 61 160t163 64q100 0 163.5 -64.5t63.5 -159.5q0 -98 -63.5 -162.5t-163.5 -64.5zM367 137q-102 0 -163 64.5t-61 163.5q0 96 61 159.5t163 63.5q100 0 163.5 -64t63.5 -159q0 -98 -63.5 -163t-163.5 -65z" />
    <glyph glyph-name="bullet.case" horiz-adv-x="1603" 
d="M797 63q-199 0 -349 87.5t-227.5 237.5t-77.5 339q0 137 45.5 256.5t128 207.5t206.5 138.5t274 50.5q193 0 345.5 -86.5t235 -235t82.5 -331.5q0 -140 -48.5 -262.5t-134.5 -211t-210.5 -139.5t-269.5 -51z" />
    <glyph glyph-name="parenleft.case" horiz-adv-x="923" 
d="M780 51v-205q-162 30 -285 107.5t-199.5 193t-114.5 260t-38 316.5q0 231 66 409.5t210.5 301.5t360.5 163v-204q-96 -30 -166.5 -78t-113 -106.5t-68 -138t-34.5 -160.5t-9 -187t9 -187t34.5 -161t68 -138.5t113 -107t166.5 -78.5z" />
    <glyph glyph-name="parenright.case" horiz-adv-x="923" 
d="M143 51q96 30 166.5 78.5t113.5 107t68.5 138.5t34.5 161t9 187t-9 187t-34.5 160.5t-68.5 138t-113.5 106.5t-166.5 78v204q216 -40 360.5 -163t210.5 -301.5t66 -409.5q0 -172 -38 -316.5t-114.5 -260t-199.5 -193t-285 -107.5v205z" />
    <glyph glyph-name="braceleft.case" horiz-adv-x="1318" 
d="M721 1382l-184 62v-82q105 -25 173.5 -47.5t129 -55t94 -73t52 -97.5t18.5 -133q0 -106 -70 -239q70 -133 70 -240q0 -76 -18.5 -133t-52 -97.5t-94 -72.5t-129 -54.5t-173.5 -47.5v-82l184 61h455v-205h-721v351q87 27 144.5 53.5t106 65t71 92.5t22.5 127
q-150 -150 -310 -150q-155 0 -250.5 88.5t-95.5 243.5q0 159 89.5 245.5t256.5 86.5q160 0 310 -150q0 73 -22.5 127t-71 92.5t-106 65t-144.5 53.5v350h721v-205h-455zM528 569q49 0 104 42t99 106q-44 63 -99 105t-104 42q-60 0 -99.5 -38.5t-39.5 -108.5
q0 -71 39.5 -109.5t99.5 -38.5z" />
    <glyph glyph-name="braceright.case" horiz-adv-x="1318" 
d="M1176 717q0 -155 -96 -243.5t-251 -88.5q-159 0 -309 150q0 -73 22.5 -127t71 -92.5t106 -65t144.5 -53.5v-351h-721v205h455l184 -61v82q-105 25 -173.5 47.5t-129 54.5t-94 72.5t-52 97.5t-18.5 133q0 107 70 240q-70 133 -70 239q0 76 18.5 133t52 97.5t94 73t129 55
t173.5 47.5v82l-184 -62h-455v205h721v-350q-87 -27 -144.5 -53.5t-106 -65t-71 -92.5t-22.5 -127q150 150 309 150q167 0 257 -86.5t90 -245.5zM588 717q44 -64 99 -106t104 -42q60 0 99.5 38.5t39.5 109.5q0 70 -39.5 108.5t-99.5 38.5q-49 0 -104 -42t-99 -105z" />
    <glyph glyph-name="bracketleft.case" horiz-adv-x="944" 
d="M143 1597h658v-204h-410v-1342h410v-205h-658v1751z" />
    <glyph glyph-name="bracketright.case" horiz-adv-x="944" 
d="M801 1597v-1751h-658v205h410v1342h-410v204h658z" />
    <glyph glyph-name="braceleft.ss01" horiz-adv-x="952" 
d="M143 694q60 0 108 8t78 19.5t52 30t32.5 34t16.5 38.5t7 36t1 33q0 70 -48.5 125t-141.5 69v357h561v-205h-377l-102 61v-81q86 -28 145.5 -56t109.5 -68.5t74.5 -95.5t24.5 -127q0 -134 -91 -199t-247 -65v-82q155 0 246.5 -66t91.5 -200q0 -72 -24.5 -126.5t-75 -94
t-109 -66.5t-145.5 -55v-82l102 62h377v-205h-561v356q93 14 141.5 68t48.5 123q0 20 -1 33t-7 36t-16.5 38.5t-32.5 34.5t-52 30.5t-78 19.5t-108 8v254z" />
    <glyph glyph-name="braceright.ss01" horiz-adv-x="952" 
d="M809 694v-254q-60 0 -108 -8t-78 -19.5t-52 -30.5t-32.5 -34.5t-16.5 -38.5t-7 -36t-1 -33q0 -69 49 -123t142 -68v-356h-562v205h377l103 -62v82q-87 28 -145.5 55t-109.5 66.5t-75.5 94t-24.5 126.5q0 134 91.5 200t246.5 66v82q-156 0 -247 65t-91 199q0 72 24.5 127
t75 95.5t110 68.5t145.5 56v81l-103 -61h-377v205h562v-357q-93 -14 -142 -69t-49 -125q0 -20 1 -33t7 -36t16.5 -38.5t32.5 -34t52 -30t78 -19.5t108 -8z" />
    <glyph glyph-name="braceleft.case.ss01" horiz-adv-x="952" 
d="M143 848q60 0 108 8t78 19.5t52 30t32.5 34t16.5 38.5t7 36t1 33q0 70 -48.5 125t-141.5 69v356h561v-204h-377l-102 61v-82q86 -28 145.5 -56t109.5 -68t74.5 -95t24.5 -127q0 -134 -91 -199t-247 -65v-82q155 0 246.5 -66t91.5 -200q0 -72 -24.5 -126.5t-75 -94
t-109 -66.5t-145.5 -55v-82l102 61h377v-205h-561v357q93 14 141.5 67.5t48.5 122.5q0 29 -2.5 48t-18 51t-44.5 51.5t-88 35t-142 15.5v254z" />
    <glyph glyph-name="braceright.case.ss01" horiz-adv-x="952" 
d="M809 848v-254q-83 0 -142 -15.5t-88 -35t-44.5 -51.5t-18 -51t-2.5 -48q0 -69 49 -122.5t142 -67.5v-357h-562v205h377l103 -61v82q-87 28 -145.5 55t-109.5 66.5t-75.5 94t-24.5 126.5q0 134 91.5 200t246.5 66v82q-156 0 -247 65t-91 199q0 72 24.5 127t75 95t109.5 68
t146 56v82l-103 -61h-377v204h562v-356q-93 -14 -142 -69t-49 -125q0 -20 1 -33t7 -36t16.5 -38.5t32.5 -34t52 -30t78 -19.5t108 -8z" />
    <glyph glyph-name="hyphen.case" horiz-adv-x="1392" 
d="M143 846h1106v-246h-1106v246z" />
    <glyph glyph-name="endash.case" horiz-adv-x="1822" 
d="M143 846h1536v-246h-1536v246z" />
    <glyph glyph-name="emdash.case" horiz-adv-x="2232" 
d="M143 846h1946v-246h-1946v246z" />
    <glyph glyph-name="guillemotleft.case" horiz-adv-x="1734" 
d="M977 236l-180 -164l-654 651l654 649l180 -164l-485 -485zM1591 236l-180 -164l-653 651l653 649l180 -164l-485 -485z" />
    <glyph glyph-name="guillemotright.case" horiz-adv-x="1775" 
d="M184 236l486 487l-486 485l181 164l653 -649l-653 -651zM799 236l485 487l-485 485l180 164l653 -649l-653 -651z" />
    <glyph glyph-name="guilsinglleft.case" horiz-adv-x="1120" 
d="M977 236l-180 -164l-654 651l654 649l180 -164l-485 -485z" />
    <glyph glyph-name="guilsinglright.case" horiz-adv-x="1161" 
d="M184 236l486 487l-486 485l181 164l653 -649l-653 -651z" />
    <glyph glyph-name="ampersand.ss01" horiz-adv-x="1990" 
d="M1847 1034q0 -221 -81.5 -406.5t-225.5 -324.5q140 -85 307 -182l-176 -242q-254 151 -391 236q-261 -135 -547 -135q-278 0 -434 105.5t-156 303.5q0 64 17.5 118.5t46.5 94t73.5 73.5t89.5 57.5t103 45.5q-94 142 -94 273q0 204 142.5 308.5t391.5 104.5
q215 0 350.5 -106t135.5 -256q0 -154 -86 -239.5t-328 -178.5q133 -108 299 -217q236 212 236 567h327zM897 1178q-96 0 -143 -31t-47 -96q0 -73 77 -172q178 59 232.5 95.5t54.5 94.5q0 51 -49 80t-125 29zM733 266q134 0 258 39q-190 130 -329 258q-105 -44 -148 -81
t-43 -83q0 -69 71 -101t191 -32z" />
    <glyph glyph-name="brevecombcy" horiz-adv-x="0" 
d="M-143 1544q0 -82 -20.5 -152.5t-63 -129t-117 -92t-174.5 -33.5t-174.5 33.5t-117 92t-63 129t-20.5 152.5h246q0 -102 32.5 -142t96.5 -40t96.5 40t32.5 142h246z" />
    </font>
</defs>
</svg>
