<?xml version="1.0" standalone="no"?>
<!DOCTYPE svg PUBLIC "-//W3C//DTD SVG 1.1//EN" "http://www.w3.org/Graphics/SVG/1.1/DTD/svg11.dtd" >
<svg xmlns="http://www.w3.org/2000/svg" xmlns:xlink="http://www.w3.org/1999/xlink" version="1.1">
<metadata>
Created by FontForge 20170731 at Wed Sep  6 15:04:19 2023
 By Aleksey,,,
Copyright (c) 2019 by Mathieu Desjardins. All rights reserved.
</metadata>
<defs>
<font id="NeueMachina-Regular" horiz-adv-x="2080" >
  <font-face 
    font-family="Neue Machina"
    font-weight="400"
    font-stretch="normal"
    units-per-em="2048"
    panose-1="0 0 5 0 0 0 0 0 0 0"
    ascent="1638"
    descent="-410"
    x-height="1018"
    cap-height="1444"
    bbox="-911 -508 3228 2015"
    underline-thickness="102"
    underline-position="-255"
    unicode-range="U+0020-277E"
  />
<missing-glyph horiz-adv-x="989" 
d="M811 1505v-1976h-627v1976h627zM657 1372h-325v-63h129v-74h-131v-66h327v66h-129v74h129v63zM528 1118h-198v-205h327v66h-129v139zM461 1051v-72h-66v72h66zM657 858h-327v-63h131v-74h-131v-66h198v140h129v63zM657 741h-63v-131h-264v-67h327v198zM657 500h-196v-111
h67v45h66v-92h-199v158h-65v-224h327v224zM657 158h-327v-224h327v224zM594 92v-92h-199v92h199zM657 -111h-327v-65h139l-139 -94v-64h327v64h-200l137 94h63v65z" />
    <glyph glyph-name="f_f" unicode="ff" horiz-adv-x="1521" 
d="M1290 1362q-96 0 -133 -45t-37 -148v-151h295v-144h-295v-731h295v-143h-1327v143h234v731h-234v144h234v53q0 338 344 338h360q87 96 270 96h177v-143h-183zM952 1018v156q0 48 9 92h-295q-100 0 -138.5 -47t-38.5 -152v-49h463zM952 143v731h-463v-731h463z" />
    <glyph glyph-name="f_f_i" unicode="ffi" horiz-adv-x="2160" 
d="M1810 143h281v-143h-2003v143h234v731h-234v144h234v53q0 338 344 338h356q89 126 283 117l397 -21v-143l-406 20q-92 4 -131 -51t-39 -162v-143l549 12q71 1 103 -33t32 -106v-756zM489 1067v-49h246l226 4v152q0 48 6 92h-301q-100 0 -138.5 -47t-38.5 -152zM1642 143
v750l-516 -10v-740h516zM961 143v736l-185 -5h-287v-731h472z" />
    <glyph glyph-name="f_i" unicode="fi" horiz-adv-x="1513" 
d="M1163 143h281v-143h-1356v143h227v736l-227 -5v144l227 4v152q0 109 33.5 188t112 124.5t196.5 39.5l398 -21v-143l-406 20q-92 4 -131 -51t-39 -162v-143l551 12q69 1 101 -33t32 -106v-756zM995 143v750l-516 -10v-740h516z" />
    <glyph glyph-name=".notdef" horiz-adv-x="989" 
d="M811 1505v-1976h-627v1976h627zM657 1372h-325v-63h129v-74h-131v-66h327v66h-129v74h129v63zM528 1118h-198v-205h327v66h-129v139zM461 1051v-72h-66v72h66zM657 858h-327v-63h131v-74h-131v-66h198v140h129v63zM657 741h-63v-131h-264v-67h327v198zM657 500h-196v-111
h67v45h66v-92h-199v158h-65v-224h327v224zM657 158h-327v-224h327v224zM594 92v-92h-199v92h199zM657 -111h-327v-65h139l-139 -94v-64h327v64h-200l137 94h63v65z" />
    <glyph glyph-name=".null" horiz-adv-x="0" 
 />
    <glyph glyph-name="nonmarkingreturn" horiz-adv-x="682" 
 />
    <glyph glyph-name="space" unicode=" " horiz-adv-x="679" 
 />
    <glyph glyph-name="exclam" unicode="!" horiz-adv-x="681" 
d="M258 1444h168l-20 -948h-130zM340 -20q-72 0 -121 49.5t-49 122.5q0 71 49 119t121 48q71 0 120.5 -48.5t49.5 -118.5q0 -73 -49.5 -122.5t-120.5 -49.5z" />
    <glyph glyph-name="quotedbl" unicode="&#x22;" horiz-adv-x="774" 
d="M170 1520h154v-521h-154v521zM451 1520h153v-521h-153v521z" />
    <glyph glyph-name="numbersign" unicode="#" horiz-adv-x="2215" 
d="M2044 887h-445l-161 -484h407v-131h-452l-195 -577l-129 45l180 532h-532l-195 -577l-129 45l180 532h-403v131h446l164 484h-411v131h456l191 567l129 -45l-176 -522h532l191 567l129 -45l-176 -522h399v-131zM1292 403l164 484h-532l-162 -484h530z" />
    <glyph glyph-name="dollar" unicode="$" horiz-adv-x="1548" 
d="M1378 365q0 -380 -538 -385v-283h-129v287q-122 10 -215 41t-154.5 79t-100 116.5t-55 146t-16.5 174.5h168q0 -109 24.5 -186.5t74 -124.5t116 -71t158.5 -32v565q-67 20 -114 36t-100.5 39t-89 45t-71 53t-55.5 65.5t-32.5 79.5t-12.5 98q0 164 117 256.5t358 99.5v283
h129v-287q127 -13 223 -60.5t150 -117.5t80 -148.5t26 -164.5h-168q0 151 -84.5 238t-226.5 108v-506q55 -17 88.5 -27.5t85 -29t84 -33t75 -37.5t69 -45t55 -52t44.5 -62t26.5 -72.5t10.5 -85.5zM403 1112q0 -98 71.5 -153t236.5 -109v471q-308 -10 -308 -209zM840 123
q184 2 277 56t93 177q0 53 -21 96.5t-52.5 72.5t-84.5 55t-98.5 41t-113.5 34v-532z" />
    <glyph glyph-name="percent" unicode="%" horiz-adv-x="2398" 
d="M1442 1663l129 -45l-625 -1845l-129 47zM594 678q-187 0 -305.5 123t-118.5 301t118.5 301t305.5 123t305.5 -123t118.5 -301t-118.5 -301t-305.5 -123zM594 815q125 0 207 84t82 203t-82 203t-207 84q-124 0 -205.5 -84t-81.5 -203t81.5 -203t205.5 -84zM1804 -41
q-187 0 -305.5 123t-118.5 301t118.5 301t305.5 123t305.5 -123t118.5 -301t-118.5 -301t-305.5 -123zM1804 96q125 0 206 84t81 203t-81 203t-206 84t-205.5 -83.5t-80.5 -203.5t80.5 -203.5t205.5 -83.5z" />
    <glyph glyph-name="ampersand" unicode="&#x26;" horiz-adv-x="1953" 
d="M1782 -35l-131 -86l-224 285q-235 -215 -593 -215q-193 0 -343 65t-235.5 189.5t-85.5 290.5q0 108 36 198.5t96.5 149t139.5 91t166 32.5q81 0 142 -31.5t94 -73.5v49l-342 437l-2 98h1077v-144h-850l703 -890q145 233 145 598h166q0 -442 -209 -727zM834 92
q304 0 497 193l-274 350q-88 113 -170.5 158t-202.5 45q-157 0 -251.5 -91.5t-94.5 -254.5q0 -187 135 -293.5t361 -106.5z" />
    <glyph glyph-name="quotesingle" unicode="'" horiz-adv-x="495" 
d="M170 1520h154v-521h-154v521z" />
    <glyph glyph-name="parenleft" unicode="(" horiz-adv-x="880" 
d="M711 -166v-141q-115 24 -206 79.5t-153.5 134t-103.5 183t-59.5 223t-18.5 256.5q0 174 30 316.5t93 258.5t169 193t249 107v-141q-387 -95 -387 -734q0 -640 387 -735z" />
    <glyph glyph-name="parenright" unicode=")" horiz-adv-x="880" 
d="M170 -166q387 95 387 735q0 639 -387 734v141q143 -30 249 -107t169 -193t93 -258.5t30 -316.5q0 -138 -18.5 -256.5t-59.5 -223t-103.5 -183t-153.5 -134t-206 -79.5v141z" />
    <glyph glyph-name="asterisk" unicode="*" horiz-adv-x="1038" 
d="M129 1176l41 124l238 -77l73 -54l-24 86v250h129v-250l-27 -88l72 54l239 75l39 -122l-237 -78l-88 -4l69 -50l146 -202l-105 -76l-147 201l-29 84l-31 -82l-147 -203l-104 76l147 202l72 52l-86 4z" />
    <glyph glyph-name="plus" unicode="+" horiz-adv-x="1316" 
d="M1147 584v-138h-420v-419h-137v419h-420v138h420v420h137v-420h420z" />
    <glyph glyph-name="comma" unicode="," horiz-adv-x="567" 
d="M248 334l149 -39l-159 -594l-150 41z" />
    <glyph glyph-name="hyphen" unicode="-" horiz-adv-x="1316" 
d="M170 584h977v-138h-977v138z" />
    <glyph glyph-name="period" unicode="." horiz-adv-x="681" 
d="M340 -20q-72 0 -121 49.5t-49 122.5q0 71 49 119t121 48q71 0 120.5 -48.5t49.5 -118.5q0 -73 -49.5 -122.5t-120.5 -49.5z" />
    <glyph glyph-name="slash" unicode="/" horiz-adv-x="1011" 
d="M754 1667l129 -45l-625 -1845l-129 45z" />
    <glyph glyph-name="zero" unicode="0" horiz-adv-x="1482" 
d="M743 1464q147 0 264.5 -56t193 -155.5t115.5 -234.5t40 -295q0 -161 -40 -296t-115.5 -235t-193 -156t-264.5 -56q-198 0 -339 98t-209 263.5t-68 381.5q0 160 39.5 294.5t115.5 234.5t194 156t267 56zM743 1321q-147 0 -249.5 -77.5t-151.5 -210.5t-49 -310
q0 -205 65 -350l680 829q-116 119 -295 119zM743 123q217 0 332 164t115 436q0 203 -66 350l-680 -829q115 -121 299 -121z" />
    <glyph glyph-name="one" unicode="1" horiz-adv-x="987" 
d="M106 803q366 148 373 641h340v-1444h-168v1280l29 117h-49q-6 -103 -22 -188.5t-49.5 -174.5t-84.5 -157.5t-131 -126t-184 -91.5z" />
    <glyph glyph-name="two" unicode="2" horiz-adv-x="1370" 
d="M109 748q0 189 47.5 330t133.5 224t195.5 122.5t243.5 39.5q235 0 375.5 -126.5t140.5 -358.5q0 -137 -54 -255.5t-149.5 -207.5t-231 -159.5t-292.5 -117t-340 -75.5v-47l119 26h948v-143h-1116v293q32 4 71.5 11t107 23t133 36t144 51.5t146 68.5t133 89.5t111.5 111
t74 135.5t28 162q0 166 -89.5 253t-254.5 87q-457 0 -457 -573h-167z" />
    <glyph glyph-name="three" unicode="3" horiz-adv-x="1386" 
d="M123 551h168q0 -231 102 -329.5t324 -98.5q193 0 283 76t90 225q0 264 -279 264h-201v143h201q131 0 194.5 55.5t63.5 172.5q0 262 -352 262q-215 0 -310.5 -85t-95.5 -265h-168q0 241 147.5 367t426.5 126q251 0 385.5 -105.5t134.5 -277.5q0 -130 -69.5 -202.5
t-209.5 -94.5v-47q149 -30 224 -105.5t75 -232.5q0 -195 -141.5 -307t-398.5 -112q-287 0 -440.5 139.5t-153.5 431.5z" />
    <glyph glyph-name="four" unicode="4" horiz-adv-x="1357" 
d="M1249 463v-144h-186v-319h-168v319h-766v299q125 53 233 132.5t195 183t143 234.5t72 276h168q-87 -660 -762 -961v-49l119 29h598v524h168v-524h186z" />
    <glyph glyph-name="five" unicode="5" horiz-adv-x="1443" 
d="M127 514h166q0 -192 109.5 -291.5t324.5 -99.5q200 0 310 107.5t110 306.5q0 170 -82 264t-244 94q-235 0 -366 -195l-215 111v633h972v-144h-806v-350l-27 -116l41 -23q63 100 175.5 163.5t258.5 63.5q213 0 337 -137.5t124 -372.5q0 -256 -160 -402t-428 -146
q-281 0 -440.5 140t-159.5 394z" />
    <glyph glyph-name="six" unicode="6" horiz-adv-x="1409" 
d="M129 676q0 145 21 267t69 226t120.5 173.5t180.5 102.5t244 19l418 -41v-143l-418 41q-100 10 -180.5 -13.5t-134 -70t-92.5 -118.5t-59.5 -148t-33.5 -168l-47 -117h47q31 157 171.5 254.5t334.5 97.5q239 0 377.5 -144t138.5 -376q0 -156 -69 -277.5t-200.5 -191
t-307.5 -69.5q-267 0 -423.5 178t-156.5 518zM297 498q0 -70 28 -136.5t79 -120t130.5 -86t174.5 -32.5q195 0 302 103t107 292q0 173 -96.5 275t-273.5 102q-196 0 -323.5 -108t-127.5 -289z" />
    <glyph glyph-name="seven" unicode="7" horiz-adv-x="1200" 
d="M322 0q0 466 186 777t571 503v47l-114 -27h-893v144h1056v-283q-325 -164 -480.5 -445t-155.5 -716h-170z" />
    <glyph glyph-name="eight" unicode="8" horiz-adv-x="1374" 
d="M102 397q0 152 86.5 240t257.5 133v49q-130 38 -196 107.5t-66 195.5q0 114 67.5 192.5t178.5 114t258 35.5q224 0 363 -86.5t139 -255.5q0 -126 -66 -195.5t-196 -107.5v-49q170 -44 257 -134t87 -239q0 -188 -156 -302.5t-428 -114.5q-275 0 -430.5 114.5t-155.5 302.5
zM352 1094q0 -125 84.5 -177.5t251.5 -52.5q166 0 250 52.5t84 177.5q0 122 -84.5 174.5t-249.5 52.5q-166 0 -251 -52.5t-85 -174.5zM270 422q0 -140 104 -219.5t314 -79.5q209 0 312.5 79.5t103.5 219.5q0 139 -104 219t-312 80q-210 0 -314 -80t-104 -219z" />
    <glyph glyph-name="nine" unicode="9" horiz-adv-x="1409" 
d="M1280 768q0 -145 -21 -267t-69 -226t-120.5 -173.5t-180.5 -102.5t-244 -19l-418 40v144l418 -41q101 -10 181.5 13.5t133.5 70t92 118.5t59.5 147.5t33.5 168.5l49 117h-49q-31 -157 -171.5 -254.5t-334.5 -97.5q-239 0 -377.5 144t-138.5 376q0 156 69 277.5t200.5 191
t307.5 69.5q267 0 423.5 -178t156.5 -518zM1112 946q0 70 -28 136.5t-78.5 120t-130.5 86t-175 32.5q-195 0 -302 -103t-107 -292q0 -173 97.5 -275t273.5 -102q196 0 323 108t127 289z" />
    <glyph glyph-name="colon" unicode=":" horiz-adv-x="681" 
d="M340 698q-72 0 -121 49t-49 121q0 71 49 120.5t121 49.5q70 0 120 -50t50 -120q0 -72 -49.5 -121t-120.5 -49zM340 -20q-72 0 -121 49.5t-49 122.5q0 71 49 119t121 48q71 0 120.5 -48.5t49.5 -118.5q0 -73 -49.5 -122.5t-120.5 -49.5z" />
    <glyph glyph-name="semicolon" unicode=";" horiz-adv-x="692" 
d="M350 698q-72 0 -121 49t-49 121q0 71 49 120.5t121 49.5q70 0 120 -50t50 -120q0 -72 -49.5 -121t-120.5 -49zM248 334l149 -39l-159 -594l-150 41z" />
    <glyph glyph-name="less" unicode="&#x3c;" horiz-adv-x="1320" 
d="M170 426v160l926 327l53 -131l-807 -276l807 -268l-53 -132z" />
    <glyph glyph-name="equal" unicode="=" horiz-adv-x="1316" 
d="M170 793h977v-138h-977v138zM170 375h977v-135h-977v135z" />
    <glyph glyph-name="greater" unicode="&#x3e;" horiz-adv-x="1320" 
d="M1149 426l-924 -320l-55 132l809 268l-809 276l55 131l924 -327v-160z" />
    <glyph glyph-name="question" unicode="?" horiz-adv-x="1060" 
d="M129 1038q0 200 111.5 318.5t314.5 118.5q184 0 280.5 -94t96.5 -253q0 -88 -35.5 -162t-95 -126t-143.5 -92.5t-173 -65.5t-192 -41v-37l88 23h432v-131h-567v262q37 4 73.5 9.5t91.5 19.5t102.5 32t98 48.5t85.5 67.5t58 91t23 117q0 96 -54.5 149.5t-166.5 53.5
q-140 0 -207 -76.5t-67 -231.5h-154zM522 -20q-72 0 -120 49t-48 123q0 71 48 119t120 48q71 0 121.5 -48.5t50.5 -118.5q0 -73 -50.5 -122.5t-121.5 -49.5z" />
    <glyph glyph-name="at" unicode="@" horiz-adv-x="2168" 
d="M1425 193v61l27 113h-47q-32 -130 -139 -210.5t-269 -80.5q-218 0 -352.5 147.5t-134.5 380.5q0 231 134.5 378.5t352.5 147.5q162 0 269 -80.5t139 -211.5h47l-27 116v105h154v-854h47q240 0 240 405q0 156 -55.5 292.5t-154.5 235t-243.5 155.5t-314.5 57t-318.5 -59.5
t-252.5 -161t-164 -241.5t-60 -296q0 -165 58.5 -305.5t164 -241t262.5 -151.5t345 -37l688 47v-129l-688 -49q-216 -14 -397 45t-304.5 175t-192.5 282.5t-69 363.5q0 254 120 457t332 316.5t476 113.5q198 0 366.5 -65.5t285.5 -180.5t183 -276t66 -347q0 -76 -11 -148
t-39 -143.5t-70.5 -124t-110.5 -85.5t-154 -33h-76q-54 0 -83.5 30t-29.5 87zM1026 205q169 0 275 100t106 299q0 196 -106.5 295.5t-274.5 99.5q-165 0 -263.5 -99t-98.5 -296q0 -201 98.5 -300t263.5 -99z" />
    <glyph glyph-name="A" unicode="A" horiz-adv-x="1413" 
d="M1178 0l-183 565h-579l-180 -565h-168l467 1444h344l464 -1444h-165zM463 709h487l-221 688h-47z" />
    <glyph glyph-name="B" unicode="B" horiz-adv-x="1323" 
d="M150 0v1444h382q111 0 193.5 -9.5t153 -33t115 -63.5t69 -102t24.5 -146q0 -76 -23.5 -134.5t-64.5 -94t-91 -54.5t-109 -23v-49q86 -2 155.5 -21t124.5 -59t85 -109t30 -163q0 -107 -39 -182.5t-115.5 -118.5t-177.5 -62.5t-237 -19.5h-475zM317 823h222q77 0 131 5
t104 20.5t80.5 41.5t48 69.5t17.5 103.5q0 47 -9.5 83t-24.5 61.5t-42.5 42.5t-55 27t-71.5 15t-82 6.5t-96 1.5h-222v-477zM317 143h314q100 0 167 10.5t121.5 38.5t80.5 82.5t26 137.5q0 150 -98.5 209t-296.5 59h-314v-537z" />
    <glyph glyph-name="C" unicode="C" horiz-adv-x="1587" 
d="M129 723q0 211 79.5 378t234.5 265t362 98q275 0 448 -154t205 -423h-168q-25 208 -149.5 321t-335.5 113q-164 0 -280 -77.5t-172 -211t-56 -309.5q0 -177 56 -311t172 -211.5t280 -77.5q211 0 335.5 113.5t149.5 322.5h168q-32 -270 -205 -424.5t-448 -154.5
q-207 0 -362 98t-234.5 265.5t-79.5 379.5z" />
    <glyph glyph-name="D" unicode="D" horiz-adv-x="1460" 
d="M608 1444q81 0 150.5 -7t145.5 -27.5t136 -53.5t116 -88.5t93.5 -129.5t59.5 -179.5t22 -235.5t-22 -236t-59.5 -180t-93.5 -130t-116 -89t-136 -53.5t-145.5 -27.5t-150.5 -7h-458v1444h458zM608 143q48 0 87 2t86 9.5t85 20t78.5 34.5t71.5 52t59.5 74t47 99
t29.5 128.5t11 160.5q0 111 -18 199.5t-46.5 148t-74 103t-90 67.5t-105 37.5t-109.5 17.5t-112 4h-291v-1157h291z" />
    <glyph glyph-name="E" unicode="E" horiz-adv-x="1153" 
d="M150 0v1444h894v-144h-727v-505h625v-144h-625v-508h727v-143h-894z" />
    <glyph glyph-name="F" unicode="F" horiz-adv-x="1204" 
d="M150 0v1444h946v-144h-779v-575l682 41v-145l-682 -41v-580h-167z" />
    <glyph glyph-name="G" unicode="G" horiz-adv-x="1669" 
d="M129 723q0 212 82.5 379.5t238.5 264.5t361 97q263 0 417.5 -145t188.5 -391h-168q-26 189 -130 291t-308 102q-247 0 -380.5 -163t-133.5 -435q0 -136 26 -243.5t80.5 -188.5t145.5 -124.5t215 -43.5q214 0 316 126.5t98 385.5h-494v135h713q123 0 123 -113v-657h-168
v539l26 184h-47q-3 -743 -569 -743q-155 0 -277 56t-199 156t-117 234.5t-40 296.5z" />
    <glyph glyph-name="H" unicode="H" horiz-adv-x="1486" 
d="M1169 1444h166v-1444h-166v641h-852v-641h-167v1444h167v-660h852v660z" />
    <glyph glyph-name="I" unicode="I" horiz-adv-x="1071" 
d="M942 1300h-321v-1157h321v-143h-813v143h324v1157h-324v144h813v-144z" />
    <glyph glyph-name="J" unicode="J" horiz-adv-x="968" 
d="M401 -20l-333 20v143l333 -20q60 -4 103.5 6t73.5 38.5t48.5 67.5t28.5 106t13.5 140t3.5 183v657l-379 -21v144l422 20q59 3 91 -30t32 -93v-696q0 -98 -3.5 -169.5t-14.5 -147t-30 -127.5t-52 -99.5t-78.5 -74t-110.5 -39.5t-148 -8z" />
    <glyph glyph-name="K" unicode="K" horiz-adv-x="1374" 
d="M1305 1444l-881 -721l881 -723h-242l-746 614v-614h-167v1444h167v-615l746 615h242z" />
    <glyph glyph-name="L" unicode="L" horiz-adv-x="1112" 
d="M274 -20q-60 -1 -92 31t-32 91v1342h167v-1321l727 20v-143z" />
    <glyph glyph-name="M" unicode="M" horiz-adv-x="1841" 
d="M150 0v1444h337l410 -1397h47l412 1397h336v-1444h-168v1276l28 121h-49l-413 -1397h-338l-414 1397h-47l26 -121v-1276h-167z" />
    <glyph glyph-name="N" unicode="N" horiz-adv-x="1546" 
d="M150 0v1444h337l721 -1397h47l-26 121v1276h166v-1444h-338l-719 1397h-47l26 -121v-1276h-167z" />
    <glyph glyph-name="O" unicode="O" horiz-adv-x="1605" 
d="M129 723q0 211 79 378t234 265t363 98q206 0 360 -98t233 -265t79 -378q0 -212 -79 -379.5t-233 -265.5t-360 -98q-156 0 -284.5 56.5t-213.5 156.5t-131.5 236t-46.5 294zM297 723q0 -131 32 -240t93.5 -189.5t159.5 -125.5t223 -45t222 45t158 125.5t92.5 189.5
t31.5 240t-31.5 239t-92.5 188.5t-158 125.5t-222 45q-166 0 -282.5 -78.5t-171 -211.5t-54.5 -308z" />
    <glyph glyph-name="P" unicode="P" horiz-adv-x="1259" 
d="M555 1444q115 0 203 -12.5t164 -44.5t125 -85t76.5 -135.5t27.5 -193.5q0 -112 -27.5 -195t-76.5 -136t-125 -85.5t-164 -45.5t-203 -13h-238v-498h-167v1444h405zM557 641q81 0 139.5 7t115.5 27.5t92.5 56.5t57 96.5t21.5 144.5q0 83 -21.5 142.5t-57 95t-92.5 56
t-115.5 27t-139.5 6.5h-240v-659h240z" />
    <glyph glyph-name="Q" unicode="Q" horiz-adv-x="1583" 
d="M944 -104q315 13 774 -74v-144q-232 42 -430.5 62.5t-425.5 18.5t-465 -33l-18 135q18 3 106 15.5t123.5 18t113.5 21t123.5 29t101.5 35.5t97 47l-18 30q-35 -24 -108 -40.5t-164 -16.5q-175 0 -318 93.5t-225 261.5t-82 376q0 211 80 376t235.5 261t362.5 96
q156 0 284 -56t213.5 -155.5t132 -235t46.5 -294.5q0 -139 -33 -261t-85 -209.5t-124.5 -160t-144.5 -118t-152 -78.5zM807 139q239 0 373.5 160t134.5 424q0 265 -135.5 431.5t-372.5 166.5q-159 0 -275.5 -75.5t-175.5 -208t-59 -306.5q0 -265 136 -428.5t374 -163.5z" />
    <glyph glyph-name="R" unicode="R" horiz-adv-x="1359" 
d="M150 0v1444h479q137 0 234.5 -18t174.5 -62t115.5 -124.5t38.5 -199.5q0 -294 -268 -340v-49h172q61 0 87.5 -25.5t26.5 -82.5v-543h-168v580h-725v-580h-167zM317 723h312q59 0 100 2t85.5 9t74 19.5t57 34t43.5 52t25.5 73.5t9.5 99t-9.5 99.5t-25 74t-44 51.5
t-57.5 33.5t-74 19t-85.5 8.5t-99.5 2h-312v-577z" />
    <glyph glyph-name="S" unicode="S" horiz-adv-x="1384" 
d="M1296 365q0 -385 -555 -385q-148 0 -261 26.5t-187 73.5t-120 118t-65.5 154.5t-19.5 188.5h168q0 -101 22 -174.5t61 -120.5t101 -74.5t133.5 -38t167.5 -10.5q193 0 290 53.5t97 179.5q0 36 -8 66.5t-27 56t-38.5 45.5t-53.5 38.5t-59.5 31t-70.5 27t-72 23t-78 23
t-76 21.5q-71 21 -118 37t-103.5 39t-92.5 45t-73 53t-57.5 66t-33.5 80.5t-13 99.5q0 171 126 263.5t386 92.5q123 0 222.5 -29t163 -77t106.5 -113t61 -133.5t18 -142.5h-168q0 175 -113 263.5t-290 88.5q-344 0 -344 -209q0 -45 16 -81t42.5 -62t75.5 -51t99.5 -43.5
t130.5 -43.5q216 -67 266 -86q216 -82 292 -198q52 -79 52 -182z" />
    <glyph glyph-name="T" unicode="T" horiz-adv-x="1347" 
d="M1257 1444v-144h-499v-1300h-166v1300h-504v144h1169z" />
    <glyph glyph-name="U" unicode="U" horiz-adv-x="1361" 
d="M109 537v907h167v-881q0 -227 92 -333.5t312 -106.5t312.5 106.5t92.5 333.5v881h168v-907q0 -557 -573 -557q-571 0 -571 557z" />
    <glyph glyph-name="V" unicode="V" horiz-adv-x="1413" 
d="M68 1444h168l446 -1397h47l449 1397h165l-464 -1444h-344z" />
    <glyph glyph-name="W" unicode="W" horiz-adv-x="2074" 
d="M68 1444h159l295 -1397h49l293 1397h346l293 -1397h49l295 1397h160l-307 -1444h-342l-297 1397h-47l-295 -1397h-342z" />
    <glyph glyph-name="X" unicode="X" horiz-adv-x="1406" 
d="M68 0l501 692v62l-501 690h192l442 -621l445 621h190l-501 -690v-62l501 -692h-190l-445 623l-442 -623h-192z" />
    <glyph glyph-name="Y" unicode="Y" horiz-adv-x="1349" 
d="M1102 1444h180l-524 -905v-539h-166v539l-524 905h180l403 -705v-116h47v116z" />
    <glyph glyph-name="Z" unicode="Z" horiz-adv-x="1335" 
d="M109 0v324l1069 956v47l-115 -27h-954v144h1118v-324l-1069 -956v-47l114 26h955v-143h-1118z" />
    <glyph glyph-name="bracketleft" unicode="[" horiz-adv-x="882" 
d="M170 1444h543v-129h-389v-1493h389v-129h-543v1751z" />
    <glyph glyph-name="backslash" unicode="\" horiz-adv-x="1011" 
d="M258 1667l625 -1845l-129 -45l-625 1845z" />
    <glyph glyph-name="bracketright" unicode="]" horiz-adv-x="882" 
d="M713 1444v-1751h-543v129h389v1493h-389v129h543z" />
    <glyph glyph-name="asciicircum" unicode="^" horiz-adv-x="1114" 
d="M788 784l-206 613h-47l-207 -613h-158l233 660h312l229 -660h-156z" />
    <glyph glyph-name="underscore" unicode="_" horiz-adv-x="1234" 
d="M129 -92h977v-137h-977v137z" />
    <glyph glyph-name="grave" unicode="`" horiz-adv-x="1003" 
d="M831 1315l-32 -131l-629 162l35 131z" />
    <glyph glyph-name="a" unicode="a" horiz-adv-x="1212" 
d="M109 283q0 262 333 297l406 38q-7 138 -80.5 208.5t-206.5 70.5q-58 0 -107 -13.5t-90 -42.5t-64.5 -80.5t-23.5 -121.5h-163q0 80 30 151.5t85 127t141.5 88t191.5 32.5q211 0 333 -126.5t122 -333.5v-435h149v-143h-180q-58 0 -89.5 31t-31.5 88v55l27 107h-49
q-16 -62 -44 -113.5t-74 -95t-116 -68t-159 -24.5q-84 0 -148 22t-99.5 54t-57.5 75.5t-28.5 79t-6.5 72.5zM276 303q0 -87 51.5 -133.5t141.5 -46.5q171 0 275 105t104 266l-377 -39q-100 -9 -147.5 -44t-47.5 -108z" />
    <glyph glyph-name="b" unicode="b" horiz-adv-x="1343" 
d="M150 0v1505h167v-637l-26 -116h47q34 127 140.5 206.5t273.5 79.5q144 0 255 -69t169.5 -189t58.5 -270q0 -231 -132.5 -380.5t-350.5 -149.5q-167 0 -273.5 79t-140.5 205h-47l26 -114v-150h-167zM317 510q0 -99 30 -174.5t83.5 -121.5t121.5 -68.5t148 -22.5
q167 0 267 96t100 291q0 194 -100 289.5t-267 95.5q-168 0 -275.5 -96.5t-107.5 -288.5z" />
    <glyph glyph-name="c" unicode="c" horiz-adv-x="1212" 
d="M109 510q0 148 60 266.5t180 190t280 71.5q78 0 154.5 -22.5t146 -68.5t117 -127t57.5 -187h-170q-11 71 -39 123t-69.5 81.5t-90.5 43.5t-106 14q-88 0 -157 -30.5t-111 -84t-63.5 -122t-21.5 -148.5q0 -81 21.5 -150t63.5 -122.5t111 -84t157 -30.5q57 0 106 14
t90.5 43.5t69.5 81.5t39 123h170q-10 -106 -57.5 -187t-117 -127t-146 -68.5t-154.5 -22.5q-160 0 -280 71.5t-180 190.5t-60 268z" />
    <glyph glyph-name="d" unicode="d" horiz-adv-x="1345" 
d="M1194 0h-168v150l29 114h-49q-34 -126 -140.5 -205t-271.5 -79q-218 0 -351.5 149.5t-133.5 380.5q0 229 133.5 378.5t351.5 149.5q166 0 272 -79.5t140 -206.5h49l-29 116v637h168v-1505zM1026 510q0 98 -30 173.5t-83 121t-121 68t-149 22.5q-167 0 -267 -95.5
t-100 -289.5q0 -195 100 -291t267 -96q81 0 149 22.5t121 68.5t83 121.5t30 174.5z" />
    <glyph glyph-name="e" unicode="e" horiz-adv-x="1220" 
d="M109 522q0 241 136 378.5t357 137.5q218 0 346.5 -131.5t128.5 -363.5v-66h-805q4 -76 25 -138t61.5 -113t109 -79t159.5 -28q127 0 208 60.5t109 176.5h168q-13 -52 -34 -100t-60.5 -100t-90.5 -89.5t-129 -62t-171 -24.5q-133 0 -234.5 43t-162 118.5t-91 171.5
t-30.5 209zM272 604h641q0 128 -82 210.5t-229 82.5q-148 0 -239 -83.5t-91 -209.5z" />
    <glyph glyph-name="f" unicode="f" horiz-adv-x="880" 
d="M649 1362q-94 0 -132 -45.5t-38 -147.5v-151h297v-144h-297v-731h297v-143h-688v143h225v731h-225v144h225v156q0 331 344 331h177v-143h-185z" />
    <glyph glyph-name="g" unicode="g" horiz-adv-x="1351" 
d="M1214 1018h91v-144h-86q-80 0 -134 -40q70 -86 70 -216q0 -158 -119 -268.5t-360 -199.5q75 12 140.5 14t126.5 -10t104.5 -38t69.5 -73.5t26 -112.5q0 -58 -18.5 -102t-52 -76.5t-94 -55t-131 -36.5t-178 -21.5t-218.5 -10.5t-269 -3v144q121 0 202.5 1t167 4t139 8
t106 14t82 21.5t53.5 30.5t33.5 41.5t9.5 53.5q0 54 -33.5 86.5t-93.5 41t-128 6t-153 -19.5t-152.5 -34t-140.5 -39l-34 116q218 60 483 142v47q-99 -25 -190 -27.5t-168 19.5t-134 66t-89.5 116t-32.5 164q0 136 70.5 230.5t185.5 137.5t266 43q208 0 346 -98
q78 50 122 64t115 14zM633 348q354 0 354 275q0 272 -354 272q-357 0 -357 -272q0 -275 357 -275z" />
    <glyph glyph-name="h" unicode="h" horiz-adv-x="1239" 
d="M729 1038q177 0 278 -104.5t101 -310.5v-623h-166v600q0 157 -62.5 226t-195.5 69q-163 0 -265 -120.5t-102 -323.5v-451h-167v1505h167v-663l-26 -117h47q32 144 131.5 228.5t259.5 84.5z" />
    <glyph glyph-name="i" unicode="i" horiz-adv-x="907" 
d="M449 1180q-63 0 -105.5 41t-42.5 102q0 59 42.5 100t105.5 41q61 0 104 -41t43 -100q0 -61 -42.5 -102t-104.5 -41zM109 0v143h286v750l-211 -19v144l236 20q69 6 101 -27.5t32 -95.5v-772h287v-143h-731z" />
    <glyph glyph-name="j" unicode="j" horiz-adv-x="583" 
d="M322 1180q-63 0 -105.5 41t-42.5 102q0 59 42.5 100t105.5 41t106 -41t43 -100q0 -61 -43 -102t-106 -41zM47 -375l184 322q35 61 35 139v807l-219 -19v144l248 18q69 6 104 -27t35 -94v-854q0 -78 -35 -139l-168 -297h-184z" />
    <glyph glyph-name="k" unicode="k" horiz-adv-x="1150" 
d="M870 0l-340 473l-213 -117v-356h-167v1505h167v-973l519 283l-21 203h168l16 -187q9 -98 -81 -147l-250 -137l393 -547h-191z" />
    <glyph glyph-name="l" unicode="l" horiz-adv-x="894" 
d="M88 0v143h287v1237l-211 -18v143l237 21q69 6 104.5 -31.5t35.5 -110.5v-1241h284v-143h-737z" />
    <glyph glyph-name="m" unicode="m" horiz-adv-x="1847" 
d="M1403 1038q154 0 234.5 -109.5t80.5 -287.5v-641h-168v602q0 155 -44.5 224t-164.5 69q-150 0 -236.5 -122t-86.5 -324v-449h-168v602q0 155 -44.5 224t-164.5 69q-151 0 -237.5 -122t-86.5 -324v-449h-167v1018h167v-174l-26 -115h47q69 309 364 309q133 0 210.5 -83.5
t95.5 -225.5h30q69 309 365 309z" />
    <glyph glyph-name="n" unicode="n" horiz-adv-x="1239" 
d="M684 895q-163 0 -265 -120.5t-102 -323.5v-451h-167v1018h167v-176l-26 -117h47q32 144 131.5 228.5t259.5 84.5q177 0 278 -104.5t101 -310.5v-623h-166v600q0 157 -62.5 226t-195.5 69z" />
    <glyph glyph-name="o" unicode="o" horiz-adv-x="1292" 
d="M109 510q0 147 65.5 267t189.5 190.5t283 70.5q158 0 281 -70.5t188.5 -190.5t65.5 -267q0 -148 -65.5 -268.5t-188.5 -191t-281 -70.5q-240 0 -389 151.5t-149 378.5zM276 510q0 -167 98 -277t273 -110q174 0 271.5 110t97.5 277q0 166 -98 275.5t-271 109.5
q-175 0 -273 -109.5t-98 -275.5z" />
    <glyph glyph-name="p" unicode="p" horiz-adv-x="1343" 
d="M150 1018h167v-150l-26 -116h47q34 127 139.5 206.5t272.5 79.5q218 0 351.5 -149.5t133.5 -380.5q0 -229 -133.5 -378.5t-351.5 -149.5q-167 0 -272.5 79t-139.5 205h-47l26 -114v-523h-167v1391zM317 508q0 -192 107.5 -288.5t275.5 -96.5q166 0 266.5 96.5
t100.5 288.5q0 193 -100 290t-267 97q-80 0 -148 -22.5t-121.5 -68.5t-83.5 -121.5t-30 -174.5z" />
    <glyph glyph-name="q" unicode="q" horiz-adv-x="1345" 
d="M1194 1018v-1391h-168v523l29 114h-49q-34 -126 -139.5 -205t-270.5 -79q-219 0 -353 149t-134 379q0 231 134 380.5t353 149.5q166 0 271 -79.5t139 -206.5h49l-29 116v150h168zM1026 508q0 99 -30 174.5t-83 121.5t-121 68.5t-149 22.5q-167 0 -267 -97t-100 -290
q0 -192 100.5 -288.5t266.5 -96.5q81 0 149 22.5t121 68t83 121t30 173.5z" />
    <glyph glyph-name="r" unicode="r" horiz-adv-x="903" 
d="M150 0v897q0 145 141 139l565 -18v-144l-539 19v-893h-167z" />
    <glyph glyph-name="s" unicode="s" horiz-adv-x="1021" 
d="M954 264q0 -61 -20.5 -110t-65 -89.5t-124.5 -62.5t-191 -22q-239 0 -352 103t-113 292h168q0 -258 299 -258q121 0 176 32t55 109q0 24 -7 45t-16 36t-30 29.5t-35.5 23.5t-46.5 20.5t-49.5 17t-58.5 17.5t-60 18q-69 22 -112 38t-93 42.5t-77.5 55.5t-46.5 72t-19 97
q0 123 99 195.5t272 72.5q114 0 197.5 -29t129 -79.5t66.5 -108.5t21 -125h-168q0 205 -246 205q-92 0 -147.5 -30t-55.5 -95q0 -69 49.5 -103.5t184.5 -78.5q19 -6 60 -19t61.5 -20t56.5 -20t56 -22.5t49.5 -26t45.5 -31t35.5 -36t29 -44t16.5 -51t7 -60.5z" />
    <glyph glyph-name="t" unicode="t" horiz-adv-x="886" 
d="M438 121l359 22v-143l-385 -20q-140 -9 -140 139v755h-225v144h225v262l166 51v-313h318v-144h-318v-753z" />
    <glyph glyph-name="u" unicode="u" horiz-adv-x="1218" 
d="M555 123q163 0 265 120t102 322v453h165v-1018h-165v176l26 117h-47q-32 -144 -131.5 -228.5t-259.5 -84.5q-179 0 -280 104t-101 311v623h168v-600q0 -158 62 -226.5t196 -68.5z" />
    <glyph glyph-name="v" unicode="v" horiz-adv-x="1103" 
d="M893 1018h162l-332 -1018h-340l-336 1018h164l317 -971h50z" />
    <glyph glyph-name="w" unicode="w" horiz-adv-x="1761" 
d="M47 1018h160l246 -971h49l205 971h346l207 -971h47l247 971h158l-258 -1018h-342l-207 969h-49l-207 -969h-344z" />
    <glyph glyph-name="x" unicode="x" horiz-adv-x="1191" 
d="M88 0l383 485v50l-383 483h199l309 -410l309 410h199l-383 -483v-50l383 -485h-199l-309 412l-309 -412h-199z" />
    <glyph glyph-name="y" unicode="y" horiz-adv-x="1210" 
d="M961 1018h182l-443 -1008v-284q0 -60 -35.5 -92t-105.5 -29l-393 18v144l366 -19v262l-444 1008h184l320 -793v-78h49v78z" />
    <glyph glyph-name="z" unicode="z" horiz-adv-x="1150" 
d="M109 0v307l884 547v47l-114 -27h-770v144h933v-307l-884 -547v-47l114 26h770v-143h-933z" />
    <glyph glyph-name="braceleft" unicode="{" horiz-adv-x="1214" 
d="M586 1315l-115 26v-47q110 -35 191 -86.5t127.5 -114.5t68 -130.5t21.5 -143.5q0 -108 -72 -246q72 -138 72 -245q0 -76 -21.5 -143.5t-68 -130.5t-127.5 -114.5t-191 -86.5v-48l115 27h454v-129h-618v223q176 75 243.5 177t67.5 251q0 43 -10 95q-124 -152 -266 -152
q-119 0 -201 74.5t-82 201.5q0 128 81.5 202.5t201.5 74.5q142 0 266 -152q10 52 10 95q0 149 -67.5 251.5t-243.5 176.5v223h618v-129h-454zM473 422q58 0 113 41t92 110q-37 70 -92 111t-113 41q-63 0 -104 -42.5t-41 -109.5t41 -109t104 -42z" />
    <glyph glyph-name="bar" unicode="|" horiz-adv-x="477" 
d="M170 1747h137v-2050h-137v2050z" />
    <glyph glyph-name="braceright" unicode="}" horiz-adv-x="1208" 
d="M754 297q-139 0 -267 149q-8 -58 -8 -92q0 -98 25 -170.5t95 -139.5t189 -118v-223h-618v129h455l116 -27v48q-111 35 -192 86.5t-127.5 114.5t-68 130.5t-21.5 143.5q0 109 71 245q-71 136 -71 246q0 76 21.5 143.5t68 130.5t127.5 114.5t192 86.5v47l-116 -26h-455v129
h618v-223q-175 -74 -242 -176.5t-67 -251.5q0 -35 8 -93q129 150 267 150q121 0 202.5 -74.5t81.5 -202.5q0 -127 -82.5 -201.5t-201.5 -74.5zM739 725q-58 0 -112.5 -41t-91.5 -111q37 -70 91.5 -110.5t112.5 -40.5q62 0 104 42t42 109t-42 109.5t-104 42.5z" />
    <glyph glyph-name="asciitilde" unicode="~" horiz-adv-x="1312" 
d="M170 383q0 74 21.5 131t57.5 89t77 47.5t86 15.5q66 0 137.5 -25.5t122 -56.5t112 -56.5t109.5 -25.5q113 0 113 147h137q0 -143 -72 -213.5t-170 -70.5q-66 0 -137 25.5t-121.5 56t-111.5 56t-111 25.5t-81.5 -30.5t-31.5 -114.5h-137z" />
    <glyph glyph-name="exclamdown" unicode="&#xa1;" horiz-adv-x="681" 
d="M340 1038q71 0 120.5 -50t49.5 -122q0 -70 -49.5 -119t-120.5 -49q-72 0 -120 48.5t-48 119.5q0 72 48 122t120 50zM258 -426l18 946h130l20 -946h-168z" />
    <glyph glyph-name="cent" unicode="&#xa2;" horiz-adv-x="1335" 
d="M733 340q225 21 262 260h170q-9 -98 -51 -175.5t-104.5 -124t-132.5 -72t-144 -31.5v-500l-129 2v502q-202 27 -318 172.5t-116 351.5q0 205 115.5 350t316.5 172v500l129 -2v-494q74 -6 144 -31.5t133.5 -72t105.5 -124t51 -175.5h-170q-37 239 -264 260zM338 725
q0 -145 67.5 -248.5t198.5 -130.5l-2 756q-130 -28 -197 -131t-67 -246z" />
    <glyph glyph-name="sterling" unicode="&#xa3;" horiz-adv-x="1271" 
d="M799 1300q-170 13 -249 -26t-79 -156q0 -54 17.5 -107.5t52.5 -125.5t49 -109h430v-129h-393q6 -38 6 -80q0 -149 -101 -241t-313 -162v-47l115 26h768v-143h-932v268q154 50 224.5 122.5t70.5 187.5q0 38 -8 69h-287v129h244q-7 16 -28.5 63.5t-31 71.5t-23.5 65t-20 78
t-6 76q0 346 496 314l301 -21v-143z" />
    <glyph glyph-name="currency" unicode="&#xa4;" horiz-adv-x="1593" 
d="M1221 692q0 -144 -80 -254l280 -280l-92 -92l-280 280q-108 -78 -252 -78q-143 0 -254 78l-281 -280l-92 92l281 280q-78 115 -78 254q0 137 78 252l-281 281l92 92l281 -281q107 80 254 80q143 0 254 -78l278 279l92 -92l-278 -279q78 -115 78 -254zM797 406
q125 0 206.5 83.5t81.5 202.5t-81.5 203t-206.5 84q-124 0 -205.5 -84t-81.5 -203t81.5 -202.5t205.5 -83.5z" />
    <glyph glyph-name="yen" unicode="&#xa5;" horiz-adv-x="1554" 
d="M1384 1444l-475 -821h299v-129h-348v-99h348v-131h-348v-264h-166v264h-348v131h348v99h-348v129h299l-475 821h180l404 -705v-116h47v116l403 705h180z" />
    <glyph glyph-name="brokenbar" unicode="&#xa6;" horiz-adv-x="477" 
d="M170 989v758h137v-758h-137zM307 455v-758h-137v758h137z" />
    <glyph glyph-name="section" unicode="&#xa7;" horiz-adv-x="1204" 
d="M170 737q0 185 199 244q-82 38 -118 89t-36 128q0 121 99 193.5t272 72.5q113 0 196.5 -29t129 -79.5t66.5 -108t21 -123.5h-168q0 203 -245 203q-203 0 -203 -125q0 -69 48.5 -102.5t184.5 -77.5q19 -6 56 -18q36 -12 55 -18t52.5 -17.5t52 -20t46.5 -22t44 -26
t37 -29.5t32 -35t22.5 -40t16 -47.5t4.5 -54.5q0 -184 -196 -243q79 -37 115 -88.5t36 -126.5q0 -123 -99 -196t-272 -73q-91 0 -163.5 19.5t-118.5 52t-76 77.5t-42.5 92.5t-12.5 100.5h168q0 -205 245 -205q92 0 147.5 30.5t55.5 94.5q0 36 -12 61.5t-44.5 46.5
t-69.5 35.5t-107 37.5q-19 6 -60 19t-61.5 20t-57 20t-56 22.5t-49 25.5t-46 31t-36 36t-29 43t-16.5 50t-7 60zM334 770q0 -20 5 -38.5t10.5 -32.5t19.5 -28.5t23 -24t30.5 -21.5t32 -17.5t38.5 -16.5t38 -15t42 -15t41 -14q116 -38 186 -3t70 120q0 31 -9 56.5t-29 46
t-40 35t-54.5 29.5t-58.5 23.5t-65 22.5q-16 5 -24 8q-117 37 -186.5 3t-69.5 -118z" />
    <glyph glyph-name="dieresis" unicode="&#xa8;" horiz-adv-x="1060" 
d="M319 1180q-64 0 -106.5 40.5t-42.5 102.5q0 59 42.5 100t106.5 41q63 0 106.5 -41t43.5 -100q0 -61 -43.5 -102t-106.5 -41zM741 1180q-64 0 -106.5 40.5t-42.5 102.5q0 59 42.5 100t106.5 41q63 0 106.5 -41t43.5 -100q0 -61 -43.5 -102t-106.5 -41z" />
    <glyph glyph-name="copyright" unicode="&#xa9;" horiz-adv-x="2162" 
d="M1081 -336q-201 0 -373 71.5t-289 194.5t-183 290t-66 355t66 355t183 290t289 195t373 72t373 -72t289.5 -195t183.5 -290t66 -355t-66 -355t-183.5 -290t-289.5 -194.5t-373 -71.5zM1081 -205q171 0 318.5 62.5t248 169t157.5 249t57 299.5t-57 299.5t-157.5 249
t-248 169.5t-318.5 63t-318 -63t-247.5 -169.5t-157.5 -249t-57 -299.5t57 -299.5t157.5 -249t247.5 -169t318 -62.5zM575 578q0 148 60 266.5t179.5 190t279.5 71.5q79 0 155.5 -23t146 -69t116.5 -127t57 -187h-168q-22 138 -103.5 200.5t-203.5 62.5q-87 0 -155.5 -30.5
t-110.5 -84t-63.5 -122t-21.5 -148.5q0 -109 36.5 -194.5t117.5 -139.5t197 -54q122 0 203.5 62.5t103.5 200.5h168q-10 -106 -57 -187t-116.5 -127t-146 -69t-155.5 -23q-160 0 -279.5 71.5t-179.5 191t-60 268.5z" />
    <glyph glyph-name="guillemotleft" unicode="&#xab;" horiz-adv-x="1437" 
d="M848 37l-109 -94l-569 565l569 563l109 -94l-473 -469zM1268 37l-109 -94l-569 565l569 563l109 -94l-473 -469z" />
    <glyph glyph-name="logicalnot" unicode="&#xac;" horiz-adv-x="1316" 
d="M1147 741v-487h-137v350h-840v137h977z" />
    <glyph glyph-name="registered" unicode="&#xae;" horiz-adv-x="1335" 
d="M668 553q-147 0 -261.5 67.5t-175.5 180.5t-61 250q0 210 138.5 353.5t359.5 143.5t359 -143.5t138 -353.5q0 -137 -60.5 -250t-175 -180.5t-261.5 -67.5zM668 659q115 0 205 54t138 143t48 195q0 163 -109 277t-282 114t-282.5 -114t-109.5 -277q0 -106 48 -195
t138.5 -143t205.5 -54zM455 809v489h202q244 0 244 -141q0 -58 -34 -80.5t-105 -29.5v-41h88q51 0 51 -52v-145h-104v160h-238v-160h-104zM559 1073h98q40 0 59.5 1t41.5 7t30.5 19t8.5 35q0 14 -4 24.5t-14 17t-19 10t-29 5t-33 2t-41 0.5h-98v-121z" />
    <glyph glyph-name="macron" unicode="&#xaf;" horiz-adv-x="1001" 
d="M170 1399h661v-133l-661 -2v135z" />
    <glyph glyph-name="degree" unicode="&#xb0;" horiz-adv-x="1189" 
d="M594 678q-187 0 -305.5 123t-118.5 301t118.5 301t305.5 123t305.5 -123t118.5 -301t-118.5 -301t-305.5 -123zM594 815q125 0 207 84t82 203t-82 203t-207 84q-124 0 -205.5 -84t-81.5 -203t81.5 -203t205.5 -84z" />
    <glyph glyph-name="plusminus" unicode="&#xb1;" horiz-adv-x="1316" 
d="M727 750h420v-138h-420v-290h-137v290h-420v138h420v292h137v-292zM170 51v137h977v-137h-977z" />
    <glyph glyph-name="acute" unicode="&#xb4;" horiz-adv-x="1003" 
d="M170 1315l629 162l32 -131l-626 -162z" />
    <glyph glyph-name="paragraph" unicode="&#xb6;" horiz-adv-x="1343" 
d="M170 1272q0 83 15.5 149.5t56.5 129t107.5 104.5t175 67t251.5 25h137v-2050h-137v1098q-143 0 -251.5 25t-175 67.5t-107.5 105t-56.5 129.5t-15.5 150zM1036 1747h135v-2050h-135v2050z" />
    <glyph glyph-name="periodcentered" unicode="&#xb7;" horiz-adv-x="681" 
d="M340 340q-72 0 -121 49t-49 121q0 71 49 119.5t121 48.5q71 0 120.5 -49t49.5 -119q0 -72 -49.5 -121t-120.5 -49z" />
    <glyph glyph-name="cedilla" unicode="&#xb8;" horiz-adv-x="770" 
d="M465 -86q57 0 95 -28.5t38 -86.5q0 -39 -13 -68t-41 -48.5t-62.5 -32t-86.5 -18.5t-103 -8.5t-122 -2.5v127q185 0 232 10q60 15 61 54q0 41 -47 41q-55 0 -144 -54l-71 95l90 106h153l-112 -117q64 31 133 31z" />
    <glyph glyph-name="guillemotright" unicode="&#xbb;" horiz-adv-x="1437" 
d="M170 37l473 471l-473 469l109 94l569 -563l-569 -565zM590 37l473 471l-473 469l108 94l570 -563l-570 -565z" />
    <glyph glyph-name="onequarter" unicode="&#xbc;" horiz-adv-x="2017" 
d="M1223 1667l129 -45l-625 -1845l-129 45zM88 1130q96 64 132.5 133.5t37.5 200.5h303v-870h-153v749l16 74h-31q-6 -98 -28.5 -171.5t-77 -139.5t-142.5 -107zM1219 164v285q297 126 350 421h153q-11 -86 -42 -165t-85 -152.5t-139.5 -135.5t-195.5 -104v-30l75 18h330
v285h154v-285h110v-137h-110v-164h-154v164h-446z" />
    <glyph glyph-name="onehalf" unicode="&#xbd;" horiz-adv-x="2082" 
d="M1223 1667l129 -45l-625 -1845l-129 45zM88 1130q96 64 132.5 133.5t37.5 200.5h303v-870h-153v749l16 74h-31q-6 -98 -28.5 -171.5t-77 -139.5t-142.5 -107zM1266 463q0 108 31 191.5t86 134.5t125 76.5t153 25.5q157 0 244.5 -78.5t87.5 -216.5q0 -81 -33.5 -147.5
t-90 -114t-139.5 -85.5t-173.5 -62t-200.5 -42v-30l76 14h538v-129h-661v252q25 3 57.5 9.5t85.5 20.5t103 31.5t103 46t92 61t64 78.5t25 97q0 166 -180 166q-119 0 -179.5 -70.5t-60.5 -228.5h-153z" />
    <glyph glyph-name="threequarters" unicode="&#xbe;" horiz-adv-x="2217" 
d="M1386 1667l130 -45l-625 -1845l-129 45zM88 932h154q0 -125 56.5 -173t176.5 -48q102 0 150.5 34.5t48.5 110.5q0 139 -166 139h-100v131h100q64 0 109 26t45 91q0 60 -44 90.5t-143 30.5q-115 0 -168 -40.5t-53 -131.5h-154q0 142 100 221.5t275 79.5q158 0 249 -66.5
t91 -166.5q0 -78 -53 -124.5t-144 -60.5v-31q98 -20 153.5 -66.5t55.5 -137.5q0 -118 -94.5 -188t-257.5 -70q-181 0 -284 87t-103 263zM1419 164v285q297 126 350 421h154q-10 -86 -41.5 -165t-86 -152.5t-140 -135.5t-195.5 -104v-30l76 18h330v285h153v-285h111v-137
h-111v-164h-153v164h-447z" />
    <glyph glyph-name="questiondown" unicode="&#xbf;" horiz-adv-x="1081" 
d="M559 1038q73 0 121.5 -49.5t48.5 -122.5q0 -71 -48.5 -119.5t-121.5 -48.5q-71 0 -120.5 49t-49.5 119q0 72 49.5 122t120.5 50zM952 -20q0 -202 -110.5 -319.5t-315.5 -117.5q-183 0 -279.5 94t-96.5 252q0 88 35.5 162t94.5 126t143 93t173 66t192 41v35l-86 -21h-434
v129h570v-260q-37 -4 -73.5 -9.5t-92 -19.5t-103 -32t-98.5 -48.5t-86.5 -68t-58.5 -91.5t-23 -118q0 -95 55 -148t168 -53q140 0 206.5 76.5t66.5 231.5h153z" />
    <glyph glyph-name="Agrave" unicode="&#xc0;" horiz-adv-x="1413" 
d="M1040 1741l-32 -131l-629 162l35 131zM1178 0l-183 565h-579l-180 -565h-168l467 1444h344l464 -1444h-165zM463 709h487l-221 688h-47z" />
    <glyph glyph-name="Aacute" unicode="&#xc1;" horiz-adv-x="1413" 
d="M1032 1772l-626 -162l-35 131l628 162zM1178 0l-183 565h-579l-180 -565h-168l467 1444h344l464 -1444h-165zM463 709h487l-221 688h-47z" />
    <glyph glyph-name="Acircumflex" unicode="&#xc2;" horiz-adv-x="1413" 
d="M707 1767l-234 -192l-98 94l332 268l331 -268l-96 -94zM1178 0l-183 565h-579l-180 -565h-168l467 1444h344l464 -1444h-165zM463 709h487l-221 688h-47z" />
    <glyph glyph-name="Atilde" unicode="&#xc3;" horiz-adv-x="1413" 
d="M557 1782q-40 0 -62 -30t-22 -114h-137q0 145 56.5 213t152.5 68q48 0 89 -17t69.5 -41t53 -48t50 -41t49.5 -17q40 0 62 29.5t22 113.5h137q0 -146 -56.5 -213t-152.5 -67q-48 0 -89 17t-69.5 41t-53 48t-50 41t-49.5 17zM1178 0l-183 565h-579l-180 -565h-168l467 1444
h344l464 -1444h-165zM463 709h487l-221 688h-47z" />
    <glyph glyph-name="Adieresis" unicode="&#xc4;" horiz-adv-x="1413" 
d="M496 1606q-65 0 -107.5 41t-42.5 102q0 59 43 100t107 41q63 0 106 -41t43 -100q0 -61 -43 -102t-106 -41zM918 1606q-65 0 -107.5 41t-42.5 102q0 59 43 100t107 41q63 0 106 -41t43 -100q0 -61 -43 -102t-106 -41zM1178 0l-183 565h-579l-180 -565h-168l467 1444h344
l464 -1444h-165zM463 709h487l-221 688h-47z" />
    <glyph glyph-name="Aring" unicode="&#xc5;" horiz-adv-x="1413" 
d="M705 1571q-112 0 -177 64.5t-65 158.5q0 92 65 156.5t177 64.5t177.5 -64.5t65.5 -156.5q0 -93 -65.5 -158t-177.5 -65zM705 1888q-50 0 -77.5 -25.5t-27.5 -68.5q0 -45 27.5 -70.5t77.5 -25.5q53 0 79.5 25.5t26.5 70.5q0 44 -27.5 69t-78.5 25zM1178 0l-183 565h-579
l-180 -565h-168l467 1444h344l464 -1444h-165zM463 709h487l-221 688h-47z" />
    <glyph glyph-name="AE" unicode="&#xc6;" horiz-adv-x="2052" 
d="M1942 1300h-725v-505h622v-144h-622v-508h725v-143h-893v567h-488l-315 -567h-178l804 1444h1070v-144zM641 711h408v686h-27z" />
    <glyph glyph-name="Ccedilla" unicode="&#xc7;" horiz-adv-x="1587" 
d="M805 123q211 0 335.5 113.5t149.5 322.5h168q-31 -258 -191 -411.5t-415 -165.5l-94 -99q64 31 133 31q57 0 95 -28.5t38 -86.5q0 -39 -13 -68t-41 -48.5t-62.5 -32t-86.5 -18.5t-103 -8.5t-122 -2.5v127q185 0 232 10q60 15 61 54q0 41 -47 41q-55 0 -144 -54l-71 95
l78 92q-267 35 -421.5 238t-154.5 499q0 211 79.5 378t234.5 265t362 98q275 0 448 -154t205 -423h-168q-25 208 -149.5 321t-335.5 113q-164 0 -280 -77.5t-172 -211t-56 -309.5q0 -177 56 -311t172 -211.5t280 -77.5z" />
    <glyph glyph-name="Egrave" unicode="&#xc8;" horiz-adv-x="1153" 
d="M932 1741l-33 -131l-629 162l35 131zM150 0v1444h894v-144h-727v-505h625v-144h-625v-508h727v-143h-894z" />
    <glyph glyph-name="Eacute" unicode="&#xc9;" horiz-adv-x="1153" 
d="M264 1741l629 162l33 -131l-627 -162zM150 0v1444h894v-144h-727v-505h625v-144h-625v-508h727v-143h-894z" />
    <glyph glyph-name="Ecircumflex" unicode="&#xca;" horiz-adv-x="1153" 
d="M930 1669l-96 -94l-236 192l-233 -192l-99 94l332 268zM150 0v1444h894v-144h-727v-505h625v-144h-625v-508h727v-143h-894z" />
    <glyph glyph-name="Edieresis" unicode="&#xcb;" horiz-adv-x="1153" 
d="M387 1606q-64 0 -106.5 40.5t-42.5 102.5q0 59 42.5 100t106.5 41q63 0 106.5 -41t43.5 -100q0 -61 -43.5 -102t-106.5 -41zM809 1606q-65 0 -107.5 41t-42.5 102q0 59 43 100t107 41q63 0 106 -41t43 -100q0 -61 -43 -102t-106 -41zM150 0v1444h894v-144h-727v-505h625
v-144h-625v-508h727v-143h-894z" />
    <glyph glyph-name="Igrave" unicode="&#xcc;" horiz-adv-x="1071" 
d="M870 1741l-32 -131l-629 162l35 131zM942 1300h-321v-1157h321v-143h-813v143h324v1157h-324v144h813v-144z" />
    <glyph glyph-name="Iacute" unicode="&#xcd;" horiz-adv-x="1071" 
d="M862 1772l-626 -162l-35 131l628 162zM942 1300h-321v-1157h321v-143h-813v143h324v1157h-324v144h813v-144z" />
    <glyph glyph-name="Icircumflex" unicode="&#xce;" horiz-adv-x="1071" 
d="M537 1767l-234 -192l-98 94l332 268l331 -268l-96 -94zM942 1300h-321v-1157h321v-143h-813v143h324v1157h-324v144h813v-144z" />
    <glyph glyph-name="Idieresis" unicode="&#xcf;" horiz-adv-x="1071" 
d="M326 1606q-65 0 -107.5 41t-42.5 102q0 59 43 100t107 41q63 0 106 -41t43 -100q0 -61 -43 -102t-106 -41zM748 1606q-65 0 -107.5 41t-42.5 102q0 59 43 100t107 41q63 0 106 -41t43 -100q0 -61 -43 -102t-106 -41zM942 1300h-321v-1157h321v-143h-813v143h324v1157
h-324v144h813v-144z" />
    <glyph glyph-name="Eth" unicode="&#xd0;" horiz-adv-x="1591" 
d="M737 1444q81 0 150.5 -7t145.5 -27.5t136 -53.5t116 -88.5t93.5 -129.5t59.5 -179.5t22 -235.5t-22 -236t-59.5 -180t-93.5 -130t-116 -89t-136 -53.5t-145.5 -27.5t-150.5 -7h-456v680h-152v135h152v629h456zM737 143q48 0 87 2t86.5 9.5t85 20t78.5 34.5t72 52t60 74
t47.5 99t29.5 128.5t11 160.5q0 111 -18 199.5t-47 148t-74.5 103t-90.5 67.5t-105.5 37.5t-109.5 17.5t-112 4h-291v-485h396v-135h-396v-537h291z" />
    <glyph glyph-name="Ntilde" unicode="&#xd1;" horiz-adv-x="1546" 
d="M442 1638q0 145 56.5 213t152.5 68q48 0 89.5 -17t69.5 -41t53 -48t50.5 -41t49.5 -17q40 0 62 29.5t22 113.5h137q0 -146 -56.5 -213t-152.5 -67q-48 0 -89 17t-69.5 41t-53 48t-50 41t-49.5 17q-40 0 -62 -30t-22 -114h-138zM150 0v1444h337l721 -1397h47l-26 121v1276
h166v-1444h-338l-719 1397h-47l26 -121v-1276h-167z" />
    <glyph glyph-name="Ograve" unicode="&#xd2;" horiz-adv-x="1605" 
d="M1137 1741l-33 -131l-629 162l35 131zM129 723q0 211 79 378t234 265t363 98q206 0 360 -98t233 -265t79 -378q0 -212 -79 -379.5t-233 -265.5t-360 -98q-156 0 -284.5 56.5t-213.5 156.5t-131.5 236t-46.5 294zM297 723q0 -131 32 -240t93.5 -189.5t159.5 -125.5
t223 -45t222 45t158 125.5t92.5 189.5t31.5 240t-31.5 239t-92.5 188.5t-158 125.5t-222 45q-166 0 -282.5 -78.5t-171 -211.5t-54.5 -308z" />
    <glyph glyph-name="Oacute" unicode="&#xd3;" horiz-adv-x="1605" 
d="M469 1741l629 162l32 -131l-626 -162zM129 723q0 211 79 378t234 265t363 98q206 0 360 -98t233 -265t79 -378q0 -212 -79 -379.5t-233 -265.5t-360 -98q-156 0 -284.5 56.5t-213.5 156.5t-131.5 236t-46.5 294zM297 723q0 -131 32 -240t93.5 -189.5t159.5 -125.5
t223 -45t222 45t158 125.5t92.5 189.5t31.5 240t-31.5 239t-92.5 188.5t-158 125.5t-222 45q-166 0 -282.5 -78.5t-171 -211.5t-54.5 -308z" />
    <glyph glyph-name="Ocircumflex" unicode="&#xd4;" horiz-adv-x="1605" 
d="M1135 1669l-97 -94l-235 192l-234 -192l-98 94l332 268zM129 723q0 211 79 378t234 265t363 98q206 0 360 -98t233 -265t79 -378q0 -212 -79 -379.5t-233 -265.5t-360 -98q-156 0 -284.5 56.5t-213.5 156.5t-131.5 236t-46.5 294zM297 723q0 -131 32 -240t93.5 -189.5
t159.5 -125.5t223 -45t222 45t158 125.5t92.5 189.5t31.5 240t-31.5 239t-92.5 188.5t-158 125.5t-222 45q-166 0 -282.5 -78.5t-171 -211.5t-54.5 -308z" />
    <glyph glyph-name="Otilde" unicode="&#xd5;" horiz-adv-x="1605" 
d="M434 1638q0 145 56.5 213t152.5 68q48 0 89 -17t69.5 -41t53 -48t50 -41t49.5 -17q40 0 62 29.5t22 113.5h138q0 -146 -56.5 -213t-152.5 -67q-48 0 -89.5 17t-69.5 41t-53 48t-50.5 41t-49.5 17q-40 0 -62 -30t-22 -114h-137zM129 723q0 211 79 378t234 265t363 98
q206 0 360 -98t233 -265t79 -378q0 -212 -79 -379.5t-233 -265.5t-360 -98q-156 0 -284.5 56.5t-213.5 156.5t-131.5 236t-46.5 294zM297 723q0 -131 32 -240t93.5 -189.5t159.5 -125.5t223 -45t222 45t158 125.5t92.5 189.5t31.5 240t-31.5 239t-92.5 188.5t-158 125.5
t-222 45q-166 0 -282.5 -78.5t-171 -211.5t-54.5 -308z" />
    <glyph glyph-name="Odieresis" unicode="&#xd6;" horiz-adv-x="1605" 
d="M592 1606q-65 0 -107.5 41t-42.5 102q0 59 43 100t107 41q63 0 106 -41t43 -100q0 -61 -43 -102t-106 -41zM1014 1606q-65 0 -107.5 41t-42.5 102q0 59 43 100t107 41q63 0 106 -41t43 -100q0 -61 -43 -102t-106 -41zM129 723q0 211 79 378t234 265t363 98q206 0 360 -98
t233 -265t79 -378q0 -212 -79 -379.5t-233 -265.5t-360 -98q-156 0 -284.5 56.5t-213.5 156.5t-131.5 236t-46.5 294zM297 723q0 -131 32 -240t93.5 -189.5t159.5 -125.5t223 -45t222 45t158 125.5t92.5 189.5t31.5 240t-31.5 239t-92.5 188.5t-158 125.5t-222 45
q-166 0 -282.5 -78.5t-171 -211.5t-54.5 -308z" />
    <glyph glyph-name="multiply" unicode="&#xd7;" horiz-adv-x="1128" 
d="M958 809l-296 -297l296 -297l-96 -96l-297 297l-297 -297l-96 96l297 297l-297 297l96 96l297 -297l297 297z" />
    <glyph glyph-name="Oslash" unicode="&#xd8;" horiz-adv-x="1605" 
d="M1227 1321q121 -99 185.5 -255t64.5 -345q0 -212 -79 -379.5t-233 -266t-360 -98.5q-177 0 -318 72l-100 -174l-111 66l105 180q-122 99 -187 254.5t-65 345.5q0 211 79 378t234 265t363 98q173 0 311 -69l101 174l114 -66zM297 721q0 -304 160 -469l585 1014
q-100 53 -237 53q-125 0 -223 -44.5t-160 -125t-93.5 -189t-31.5 -239.5zM805 121q125 0 222 45t158 125.5t92.5 189.5t31.5 240q0 307 -160 467l-588 -1012q101 -55 244 -55z" />
    <glyph glyph-name="Ugrave" unicode="&#xd9;" horiz-adv-x="1361" 
d="M1014 1741l-33 -131l-629 162l35 131zM109 537v907h167v-881q0 -227 92 -333.5t312 -106.5t312.5 106.5t92.5 333.5v881h168v-907q0 -557 -573 -557q-571 0 -571 557z" />
    <glyph glyph-name="Uacute" unicode="&#xda;" horiz-adv-x="1361" 
d="M346 1741l629 162l33 -131l-627 -162zM109 537v907h167v-881q0 -227 92 -333.5t312 -106.5t312.5 106.5t92.5 333.5v881h168v-907q0 -557 -573 -557q-571 0 -571 557z" />
    <glyph glyph-name="Ucircumflex" unicode="&#xdb;" horiz-adv-x="1361" 
d="M1012 1669l-97 -94l-235 192l-234 -192l-98 94l332 268zM109 537v907h167v-881q0 -227 92 -333.5t312 -106.5t312.5 106.5t92.5 333.5v881h168v-907q0 -557 -573 -557q-571 0 -571 557z" />
    <glyph glyph-name="Udieresis" unicode="&#xdc;" horiz-adv-x="1361" 
d="M469 1606q-65 0 -107.5 41t-42.5 102q0 59 43 100t107 41q63 0 106 -41t43 -100q0 -61 -43 -102t-106 -41zM891 1606q-65 0 -107.5 41t-42.5 102q0 59 43 100t107 41q63 0 106 -41t43 -100q0 -61 -43 -102t-106 -41zM109 537v907h167v-881q0 -227 92 -333.5t312 -106.5
t312.5 106.5t92.5 333.5v881h168v-907q0 -557 -573 -557q-571 0 -571 557z" />
    <glyph glyph-name="Yacute" unicode="&#xdd;" horiz-adv-x="1349" 
d="M340 1741l629 162l32 -131l-626 -162zM1102 1444h180l-524 -905v-539h-166v539l-524 905h180l403 -705v-116h47v116z" />
    <glyph glyph-name="Thorn" unicode="&#xde;" horiz-adv-x="1259" 
d="M555 1194q115 0 203 -12.5t164 -44.5t125 -85t76.5 -135.5t27.5 -193.5q0 -112 -27.5 -194.5t-76.5 -135.5t-125 -85.5t-164 -45t-203 -12.5h-238v-250h-167v1444h167v-250h238zM557 393q67 0 117.5 4.5t102 16.5t86.5 35.5t63.5 59t42.5 89.5t14 125q0 84 -21.5 144
t-56.5 95.5t-92.5 55.5t-116 26.5t-139.5 6.5h-240v-658h240z" />
    <glyph glyph-name="germandbls" unicode="&#xdf;" horiz-adv-x="1126" 
d="M432 0v143l219 -18q121 -10 180.5 47t59.5 162q0 62 -22.5 107t-58 70.5t-79 45t-87 38.5t-79 42t-58 63t-22.5 95q0 62 24.5 109t59.5 76t70 55t59.5 61t24.5 80q0 145 -170 145q-56 0 -95 -11t-73 -41.5t-51 -92t-17 -154.5v-1022h-167v1047q0 117 33.5 201.5t93 130
t127 65.5t149.5 20q162 0 250 -81t88 -195q0 -63 -24.5 -111t-59.5 -77.5t-70 -55t-59.5 -58t-24.5 -71.5q0 -36 22.5 -62t58 -44t79 -36.5t87 -45t79 -62.5t58 -97.5t22.5 -141.5q0 -179 -112 -270.5t-288 -75.5z" />
    <glyph glyph-name="agrave" unicode="&#xe0;" horiz-adv-x="1212" 
d="M915 1315l-32 -131l-629 162l35 131zM109 283q0 262 333 297l406 38q-7 138 -80.5 208.5t-206.5 70.5q-58 0 -107 -13.5t-90 -42.5t-64.5 -80.5t-23.5 -121.5h-163q0 80 30 151.5t85 127t141.5 88t191.5 32.5q211 0 333 -126.5t122 -333.5v-435h149v-143h-180
q-58 0 -89.5 31t-31.5 88v55l27 107h-49q-16 -62 -44 -113.5t-74 -95t-116 -68t-159 -24.5q-84 0 -148 22t-99.5 54t-57.5 75.5t-28.5 79t-6.5 72.5zM276 303q0 -87 51.5 -133.5t141.5 -46.5q171 0 275 105t104 266l-377 -39q-100 -9 -147.5 -44t-47.5 -108z" />
    <glyph glyph-name="aacute" unicode="&#xe1;" horiz-adv-x="1212" 
d="M248 1315l629 162l32 -131l-626 -162zM109 283q0 262 333 297l406 38q-7 138 -80.5 208.5t-206.5 70.5q-58 0 -107 -13.5t-90 -42.5t-64.5 -80.5t-23.5 -121.5h-163q0 80 30 151.5t85 127t141.5 88t191.5 32.5q211 0 333 -126.5t122 -333.5v-435h149v-143h-180
q-58 0 -89.5 31t-31.5 88v55l27 107h-49q-16 -62 -44 -113.5t-74 -95t-116 -68t-159 -24.5q-84 0 -148 22t-99.5 54t-57.5 75.5t-28.5 79t-6.5 72.5zM276 303q0 -87 51.5 -133.5t141.5 -46.5q171 0 275 105t104 266l-377 -39q-100 -9 -147.5 -44t-47.5 -108z" />
    <glyph glyph-name="acircumflex" unicode="&#xe2;" horiz-adv-x="1212" 
d="M913 1243l-96 -94l-235 192l-234 -192l-98 94l332 268zM109 283q0 262 333 297l406 38q-7 138 -80.5 208.5t-206.5 70.5q-58 0 -107 -13.5t-90 -42.5t-64.5 -80.5t-23.5 -121.5h-163q0 80 30 151.5t85 127t141.5 88t191.5 32.5q211 0 333 -126.5t122 -333.5v-435h149
v-143h-180q-58 0 -89.5 31t-31.5 88v55l27 107h-49q-16 -62 -44 -113.5t-74 -95t-116 -68t-159 -24.5q-84 0 -148 22t-99.5 54t-57.5 75.5t-28.5 79t-6.5 72.5zM276 303q0 -87 51.5 -133.5t141.5 -46.5q171 0 275 105t104 266l-377 -39q-100 -9 -147.5 -44t-47.5 -108z" />
    <glyph glyph-name="atilde" unicode="&#xe3;" horiz-adv-x="1212" 
d="M211 1212q0 145 56.5 213t152.5 68q48 0 89 -17t69.5 -41t53 -48t50 -41t49.5 -17q40 0 62 30t22 114h137q0 -146 -56.5 -213.5t-152.5 -67.5q-48 0 -89 17t-69.5 41t-53 48t-50 41t-49.5 17q-40 0 -62 -30t-22 -114h-137zM109 283q0 262 333 297l406 38
q-7 138 -80.5 208.5t-206.5 70.5q-58 0 -107 -13.5t-90 -42.5t-64.5 -80.5t-23.5 -121.5h-163q0 80 30 151.5t85 127t141.5 88t191.5 32.5q211 0 333 -126.5t122 -333.5v-435h149v-143h-180q-58 0 -89.5 31t-31.5 88v55l27 107h-49q-16 -62 -44 -113.5t-74 -95t-116 -68
t-159 -24.5q-84 0 -148 22t-99.5 54t-57.5 75.5t-28.5 79t-6.5 72.5zM276 303q0 -87 51.5 -133.5t141.5 -46.5q171 0 275 105t104 266l-377 -39q-100 -9 -147.5 -44t-47.5 -108z" />
    <glyph glyph-name="adieresis" unicode="&#xe4;" horiz-adv-x="1212" 
d="M371 1180q-65 0 -107.5 41t-42.5 102q0 59 43 100t107 41q63 0 106 -41t43 -100q0 -61 -43 -102t-106 -41zM793 1180q-65 0 -107.5 41t-42.5 102q0 59 43 100t107 41q63 0 106 -41t43 -100q0 -61 -43 -102t-106 -41zM109 283q0 262 333 297l406 38q-7 138 -80.5 208.5
t-206.5 70.5q-58 0 -107 -13.5t-90 -42.5t-64.5 -80.5t-23.5 -121.5h-163q0 80 30 151.5t85 127t141.5 88t191.5 32.5q211 0 333 -126.5t122 -333.5v-435h149v-143h-180q-58 0 -89.5 31t-31.5 88v55l27 107h-49q-16 -62 -44 -113.5t-74 -95t-116 -68t-159 -24.5
q-84 0 -148 22t-99.5 54t-57.5 75.5t-28.5 79t-6.5 72.5zM276 303q0 -87 51.5 -133.5t141.5 -46.5q171 0 275 105t104 266l-377 -39q-100 -9 -147.5 -44t-47.5 -108z" />
    <glyph glyph-name="aring" unicode="&#xe5;" horiz-adv-x="1212" 
d="M580 1145q-112 0 -177 64.5t-65 158.5q0 92 65 156.5t177 64.5t177.5 -64.5t65.5 -156.5q0 -93 -65.5 -158t-177.5 -65zM580 1272q53 0 79.5 25.5t26.5 70.5q0 44 -27.5 69t-78.5 25q-50 0 -77.5 -25.5t-27.5 -68.5q0 -45 27.5 -70.5t77.5 -25.5zM109 283q0 262 333 297
l406 38q-7 138 -80.5 208.5t-206.5 70.5q-58 0 -107 -13.5t-90 -42.5t-64.5 -80.5t-23.5 -121.5h-163q0 80 30 151.5t85 127t141.5 88t191.5 32.5q211 0 333 -126.5t122 -333.5v-435h149v-143h-180q-58 0 -89.5 31t-31.5 88v55l27 107h-49q-16 -62 -44 -113.5t-74 -95
t-116 -68t-159 -24.5q-84 0 -148 22t-99.5 54t-57.5 75.5t-28.5 79t-6.5 72.5zM276 303q0 -87 51.5 -133.5t141.5 -46.5q171 0 275 105t104 266l-377 -39q-100 -9 -147.5 -44t-47.5 -108z" />
    <glyph glyph-name="ae" unicode="&#xe6;" horiz-adv-x="1994" 
d="M1718 356h166q-12 -52 -33 -100.5t-60.5 -100t-91 -89t-129.5 -62t-171 -24.5q-184 0 -302.5 80.5t-172.5 220.5h-31q-45 -129 -159 -215t-285 -86q-84 0 -148 22t-99.5 54t-57.5 75.5t-28.5 79t-6.5 72.5q0 262 333 297l406 38q-7 138 -80.5 208.5t-206.5 70.5
q-58 0 -107 -13.5t-90 -42.5t-64.5 -80.5t-23.5 -121.5h-163q0 80 30 151.5t85 127t141.5 88t191.5 32.5q140 0 240.5 -58.5t152.5 -164.5q63 108 172 165.5t248 57.5q218 0 346.5 -131.5t128.5 -363.5v-66h-802q4 -76 24.5 -138t60.5 -113t108 -79t159 -28q128 0 209 60
t110 177zM1374 897q-146 0 -236.5 -83.5t-90.5 -209.5h639q0 128 -82 210.5t-230 82.5zM469 123q171 0 275 105t104 266l-377 -39q-100 -9 -147.5 -44t-47.5 -108q0 -88 51 -134t142 -46z" />
    <glyph glyph-name="ccedilla" unicode="&#xe7;" horiz-adv-x="1212" 
d="M629 123q57 0 106 14t90.5 43.5t69.5 81.5t39 123h170q-7 -80 -37 -146.5t-73 -111.5t-99 -77t-113 -48t-116 -20l-95 -99q64 31 134 31q57 0 95 -28.5t38 -86.5q0 -39 -13 -68t-41 -48.5t-62.5 -32t-86.5 -18.5t-103 -8.5t-122 -2.5v127q185 0 231 10q60 14 61 54
q0 41 -47 41q-54 0 -143 -54l-72 95l80 94q-192 35 -301.5 178.5t-109.5 343.5q0 148 60 266.5t180 190t280 71.5q78 0 154.5 -22.5t146 -68.5t117 -127t57.5 -187h-170q-11 71 -39 123t-69.5 81.5t-90.5 43.5t-106 14q-88 0 -157 -30.5t-111 -84t-63.5 -122t-21.5 -148.5
q0 -81 21.5 -150t63.5 -122.5t111 -84t157 -30.5z" />
    <glyph glyph-name="egrave" unicode="&#xe8;" horiz-adv-x="1220" 
d="M944 1315l-33 -131l-628 162l34 131zM109 522q0 241 136 378.5t357 137.5q218 0 346.5 -131.5t128.5 -363.5v-66h-805q4 -76 25 -138t61.5 -113t109 -79t159.5 -28q127 0 208 60.5t109 176.5h168q-13 -52 -34 -100t-60.5 -100t-90.5 -89.5t-129 -62t-171 -24.5
q-133 0 -234.5 43t-162 118.5t-91 171.5t-30.5 209zM272 604h641q0 128 -82 210.5t-229 82.5q-148 0 -239 -83.5t-91 -209.5z" />
    <glyph glyph-name="eacute" unicode="&#xe9;" horiz-adv-x="1220" 
d="M276 1315l629 162l33 -131l-627 -162zM109 522q0 241 136 378.5t357 137.5q218 0 346.5 -131.5t128.5 -363.5v-66h-805q4 -76 25 -138t61.5 -113t109 -79t159.5 -28q127 0 208 60.5t109 176.5h168q-13 -52 -34 -100t-60.5 -100t-90.5 -89.5t-129 -62t-171 -24.5
q-133 0 -234.5 43t-162 118.5t-91 171.5t-30.5 209zM272 604h641q0 128 -82 210.5t-229 82.5q-148 0 -239 -83.5t-91 -209.5z" />
    <glyph glyph-name="ecircumflex" unicode="&#xea;" horiz-adv-x="1220" 
d="M942 1243l-96 -94l-236 192l-233 -192l-98 94l331 268zM109 522q0 241 136 378.5t357 137.5q218 0 346.5 -131.5t128.5 -363.5v-66h-805q4 -76 25 -138t61.5 -113t109 -79t159.5 -28q127 0 208 60.5t109 176.5h168q-13 -52 -34 -100t-60.5 -100t-90.5 -89.5t-129 -62
t-171 -24.5q-133 0 -234.5 43t-162 118.5t-91 171.5t-30.5 209zM272 604h641q0 128 -82 210.5t-229 82.5q-148 0 -239 -83.5t-91 -209.5z" />
    <glyph glyph-name="edieresis" unicode="&#xeb;" horiz-adv-x="1220" 
d="M399 1180q-64 0 -106.5 40.5t-42.5 102.5q0 59 42.5 100t106.5 41q63 0 106.5 -41t43.5 -100q0 -61 -43.5 -102t-106.5 -41zM821 1180q-64 0 -106.5 40.5t-42.5 102.5q0 59 42.5 100t106.5 41q63 0 106.5 -41t43.5 -100q0 -61 -43.5 -102t-106.5 -41zM109 522
q0 241 136 378.5t357 137.5q218 0 346.5 -131.5t128.5 -363.5v-66h-805q4 -76 25 -138t61.5 -113t109 -79t159.5 -28q127 0 208 60.5t109 176.5h168q-13 -52 -34 -100t-60.5 -100t-90.5 -89.5t-129 -62t-171 -24.5q-133 0 -234.5 43t-162 118.5t-91 171.5t-30.5 209z
M272 604h641q0 128 -82 210.5t-229 82.5q-148 0 -239 -83.5t-91 -209.5z" />
    <glyph glyph-name="igrave" unicode="&#xec;" horiz-adv-x="907" 
d="M735 1315l-33 -131l-628 162l35 131zM109 0v143h290v750l-215 -19v144l232 20q70 6 102.5 -30t32.5 -109v-756h289v-143h-731z" />
    <glyph glyph-name="iacute" unicode="&#xed;" horiz-adv-x="915" 
d="M78 1315l629 162l32 -131l-626 -162zM117 0v143h289v750l-216 -19v144l234 20q69 6 101 -30t32 -109v-756h289v-143h-729z" />
    <glyph glyph-name="icircumflex" unicode="&#xee;" horiz-adv-x="913" 
d="M739 1243l-96 -94l-235 192l-234 -192l-96 94l330 268zM115 0v143h288v750l-213 -19v144l232 20q70 6 101.5 -30t31.5 -109v-756h291v-143h-731z" />
    <glyph glyph-name="idieresis" unicode="&#xef;" horiz-adv-x="915" 
d="M201 1180q-63 0 -105.5 41t-42.5 102q0 59 42.5 100t105.5 41q64 0 107.5 -41t43.5 -100q0 -61 -43 -102t-108 -41zM623 1180q-64 0 -106 40.5t-42 102.5q0 59 42 100t106 41q63 0 106 -41t43 -100q0 -61 -43 -102t-106 -41zM117 0v143h289v750l-216 -19v144l234 20
q69 6 101 -30t32 -109v-756h289v-143h-729z" />
    <glyph glyph-name="eth" unicode="&#xf0;" horiz-adv-x="1333" 
d="M879 1319q165 -114 255.5 -282.5t90.5 -383.5q0 -315 -152.5 -494t-413.5 -179q-259 0 -404.5 148t-145.5 388q0 228 143.5 375t382.5 147q183 0 305.5 -107.5t153.5 -293.5h49l-29 117q-20 161 -117 285.5t-258 205.5l-258 -135l-98 98l199 105q-116 40 -273 63v144
q238 -27 434 -121l224 117l98 -99zM662 123q95 0 171 32t124.5 87t74 125t25.5 149q0 173 -111.5 276t-300.5 103q-175 0 -272 -102.5t-97 -276.5q0 -187 98.5 -290t287.5 -103z" />
    <glyph glyph-name="ntilde" unicode="&#xf1;" horiz-adv-x="1239" 
d="M299 1212q0 145 56.5 213t152.5 68q48 0 89 -17t69.5 -41t53 -48t50 -41t49.5 -17q40 0 62 30t22 114h137q0 -146 -56.5 -213.5t-152.5 -67.5q-48 0 -89 17t-69.5 41t-53 48t-50 41t-49.5 17q-40 0 -62 -30t-22 -114h-137zM684 895q-163 0 -265 -120.5t-102 -323.5v-451
h-167v1018h167v-176l-26 -117h47q32 144 131.5 228.5t259.5 84.5q177 0 278 -104.5t101 -310.5v-623h-166v600q0 157 -62.5 226t-195.5 69z" />
    <glyph glyph-name="ograve" unicode="&#xf2;" horiz-adv-x="1292" 
d="M981 1315l-33 -131l-629 162l35 131zM109 510q0 147 65.5 267t189.5 190.5t283 70.5q158 0 281 -70.5t188.5 -190.5t65.5 -267q0 -148 -65.5 -268.5t-188.5 -191t-281 -70.5q-240 0 -389 151.5t-149 378.5zM276 510q0 -167 98 -277t273 -110q174 0 271.5 110t97.5 277
q0 166 -98 275.5t-271 109.5q-175 0 -273 -109.5t-98 -275.5z" />
    <glyph glyph-name="oacute" unicode="&#xf3;" horiz-adv-x="1292" 
d="M311 1315l629 162l33 -131l-627 -162zM109 510q0 147 65.5 267t189.5 190.5t283 70.5q158 0 281 -70.5t188.5 -190.5t65.5 -267q0 -148 -65.5 -268.5t-188.5 -191t-281 -70.5q-240 0 -389 151.5t-149 378.5zM276 510q0 -167 98 -277t273 -110q174 0 271.5 110t97.5 277
q0 166 -98 275.5t-271 109.5q-175 0 -273 -109.5t-98 -275.5z" />
    <glyph glyph-name="ocircumflex" unicode="&#xf4;" horiz-adv-x="1292" 
d="M979 1243l-96 -94l-236 192l-233 -192l-99 94l332 268zM109 510q0 147 65.5 267t189.5 190.5t283 70.5q158 0 281 -70.5t188.5 -190.5t65.5 -267q0 -148 -65.5 -268.5t-188.5 -191t-281 -70.5q-240 0 -389 151.5t-149 378.5zM276 510q0 -167 98 -277t273 -110
q174 0 271.5 110t97.5 277q0 166 -98 275.5t-271 109.5q-175 0 -273 -109.5t-98 -275.5z" />
    <glyph glyph-name="otilde" unicode="&#xf5;" horiz-adv-x="1292" 
d="M276 1212q0 145 56.5 213t152.5 68q48 0 89.5 -17t69.5 -41t53 -48t50.5 -41t49.5 -17q40 0 62 30t22 114h137q0 -146 -56.5 -213.5t-152.5 -67.5q-48 0 -89 17t-69.5 41t-53 48t-50 41t-49.5 17q-40 0 -62 -30t-22 -114h-138zM109 510q0 147 65.5 267t189.5 190.5
t283 70.5q158 0 281 -70.5t188.5 -190.5t65.5 -267q0 -148 -65.5 -268.5t-188.5 -191t-281 -70.5q-240 0 -389 151.5t-149 378.5zM276 510q0 -167 98 -277t273 -110q174 0 271.5 110t97.5 277q0 166 -98 275.5t-271 109.5q-175 0 -273 -109.5t-98 -275.5z" />
    <glyph glyph-name="odieresis" unicode="&#xf6;" horiz-adv-x="1292" 
d="M436 1180q-64 0 -106.5 40.5t-42.5 102.5q0 59 42.5 100t106.5 41q63 0 106.5 -41t43.5 -100q0 -61 -43.5 -102t-106.5 -41zM858 1180q-64 0 -106.5 40.5t-42.5 102.5q0 59 42.5 100t106.5 41q63 0 106.5 -41t43.5 -100q0 -61 -43.5 -102t-106.5 -41zM109 510
q0 147 65.5 267t189.5 190.5t283 70.5q158 0 281 -70.5t188.5 -190.5t65.5 -267q0 -148 -65.5 -268.5t-188.5 -191t-281 -70.5q-240 0 -389 151.5t-149 378.5zM276 510q0 -167 98 -277t273 -110q174 0 271.5 110t97.5 277q0 166 -98 275.5t-271 109.5q-175 0 -273 -109.5
t-98 -275.5z" />
    <glyph glyph-name="divide" unicode="&#xf7;" horiz-adv-x="1316" 
d="M659 725q-73 0 -121.5 49.5t-48.5 122.5q0 71 48.5 119.5t121.5 48.5q71 0 120.5 -49t49.5 -119q0 -72 -49.5 -122t-120.5 -50zM170 584h977v-138h-977v138zM659 -35q-73 0 -121.5 49.5t-48.5 122.5q0 71 48.5 119.5t121.5 48.5q71 0 120.5 -49t49.5 -119
q0 -72 -49.5 -122t-120.5 -50z" />
    <glyph glyph-name="oslash" unicode="&#xf8;" horiz-adv-x="1292" 
d="M971 940q100 -72 155.5 -184.5t55.5 -245.5q0 -148 -65.5 -268.5t-188.5 -191t-281 -70.5q-120 0 -211 36l-71 -122l-111 63l70 119q-102 72 -158.5 186t-56.5 248q0 147 65.5 267t189.5 190.5t283 70.5q118 0 211 -37l70 121l112 -63zM276 510q0 -190 123 -301l385 663
q-67 23 -137 23q-175 0 -273 -109.5t-98 -275.5zM647 123q174 0 271.5 110t97.5 277q0 190 -121 299l-385 -664q64 -22 137 -22z" />
    <glyph glyph-name="ugrave" unicode="&#xf9;" horiz-adv-x="1218" 
d="M961 1315l-33 -131l-629 162l35 131zM555 123q163 0 265 120t102 322v453h165v-1018h-165v176l26 117h-47q-32 -144 -131.5 -228.5t-259.5 -84.5q-179 0 -280 104t-101 311v623h168v-600q0 -158 62 -226.5t196 -68.5z" />
    <glyph glyph-name="uacute" unicode="&#xfa;" horiz-adv-x="1218" 
d="M291 1315l629 162l32 -131l-626 -162zM555 123q163 0 265 120t102 322v453h165v-1018h-165v176l26 117h-47q-32 -144 -131.5 -228.5t-259.5 -84.5q-179 0 -280 104t-101 311v623h168v-600q0 -158 62 -226.5t196 -68.5z" />
    <glyph glyph-name="ucircumflex" unicode="&#xfb;" horiz-adv-x="1218" 
d="M958 1243l-96 -94l-235 192l-234 -192l-98 94l332 268zM555 123q163 0 265 120t102 322v453h165v-1018h-165v176l26 117h-47q-32 -144 -131.5 -228.5t-259.5 -84.5q-179 0 -280 104t-101 311v623h168v-600q0 -158 62 -226.5t196 -68.5z" />
    <glyph glyph-name="udieresis" unicode="&#xfc;" horiz-adv-x="1218" 
d="M416 1180q-65 0 -107.5 41t-42.5 102q0 59 43 100t107 41q63 0 106 -41t43 -100q0 -61 -43 -102t-106 -41zM838 1180q-65 0 -107.5 41t-42.5 102q0 59 43 100t107 41q63 0 106 -41t43 -100q0 -61 -43 -102t-106 -41zM555 123q163 0 265 120t102 322v453h165v-1018h-165
v176l26 117h-47q-32 -144 -131.5 -228.5t-259.5 -84.5q-179 0 -280 104t-101 311v623h168v-600q0 -158 62 -226.5t196 -68.5z" />
    <glyph glyph-name="yacute" unicode="&#xfd;" horiz-adv-x="1210" 
d="M944 1346l-627 -162l-34 131l628 162zM961 1018h182l-443 -1008v-284q0 -60 -35.5 -92t-105.5 -29l-393 18v144l366 -19v262l-444 1008h184l320 -793v-78h49v78z" />
    <glyph glyph-name="thorn" unicode="&#xfe;" horiz-adv-x="1343" 
d="M750 1038q218 0 351.5 -149.5t133.5 -380.5q0 -229 -133.5 -378.5t-351.5 -149.5q-167 0 -272.5 79t-139.5 205h-47l26 -114v-523h-167v1878h167v-637l-26 -116h47q34 127 139.5 206.5t272.5 79.5zM700 123q166 0 266.5 96.5t100.5 288.5q0 193 -100 290t-267 97
q-80 0 -148 -22.5t-121.5 -68.5t-83.5 -121.5t-30 -174.5q0 -192 107.5 -288.5t275.5 -96.5z" />
    <glyph glyph-name="ydieresis" unicode="&#xff;" horiz-adv-x="1210" 
d="M406 1180q-65 0 -107.5 41t-42.5 102q0 59 43 100t107 41q63 0 106 -41t43 -100q0 -61 -43 -102t-106 -41zM827 1180q-64 0 -106.5 40.5t-42.5 102.5q0 59 42.5 100t106.5 41q63 0 106.5 -41t43.5 -100q0 -61 -43.5 -102t-106.5 -41zM961 1018h182l-443 -1008v-284
q0 -60 -35.5 -92t-105.5 -29l-393 18v144l366 -19v262l-444 1008h184l320 -793v-78h49v78z" />
    <glyph glyph-name="Amacron" unicode="&#x100;" horiz-adv-x="1413" 
d="M1038 1825v-133l-661 -2v135h661zM1178 0l-183 565h-579l-180 -565h-168l467 1444h344l464 -1444h-165zM463 709h487l-221 688h-47z" />
    <glyph glyph-name="amacron" unicode="&#x101;" horiz-adv-x="1212" 
d="M252 1399h661v-133l-661 -2v135zM109 283q0 262 333 297l406 38q-7 138 -80.5 208.5t-206.5 70.5q-58 0 -107 -13.5t-90 -42.5t-64.5 -80.5t-23.5 -121.5h-163q0 80 30 151.5t85 127t141.5 88t191.5 32.5q211 0 333 -126.5t122 -333.5v-435h149v-143h-180q-58 0 -89.5 31
t-31.5 88v55l27 107h-49q-16 -62 -44 -113.5t-74 -95t-116 -68t-159 -24.5q-84 0 -148 22t-99.5 54t-57.5 75.5t-28.5 79t-6.5 72.5zM276 303q0 -87 51.5 -133.5t141.5 -46.5q171 0 275 105t104 266l-377 -39q-100 -9 -147.5 -44t-47.5 -108z" />
    <glyph glyph-name="Abreve" unicode="&#x102;" horiz-adv-x="1413" 
d="M707 1579q-149 0 -235.5 96.5t-86.5 255.5h137q0 -113 44 -166t141 -53t139.5 52.5t42.5 166.5h137q0 -159 -85.5 -255.5t-233.5 -96.5zM1178 0l-183 565h-579l-180 -565h-168l467 1444h344l464 -1444h-165zM463 709h487l-221 688h-47z" />
    <glyph glyph-name="abreve" unicode="&#x103;" horiz-adv-x="1212" 
d="M903 1505q0 -159 -85.5 -255.5t-233.5 -96.5q-149 0 -235.5 96.5t-86.5 255.5h137q0 -113 44 -166t141 -53t139.5 52.5t42.5 166.5h137zM109 283q0 262 333 297l406 38q-7 138 -80.5 208.5t-206.5 70.5q-58 0 -107 -13.5t-90 -42.5t-64.5 -80.5t-23.5 -121.5h-163
q0 80 30 151.5t85 127t141.5 88t191.5 32.5q211 0 333 -126.5t122 -333.5v-435h149v-143h-180q-58 0 -89.5 31t-31.5 88v55l27 107h-49q-16 -62 -44 -113.5t-74 -95t-116 -68t-159 -24.5q-84 0 -148 22t-99.5 54t-57.5 75.5t-28.5 79t-6.5 72.5zM276 303q0 -87 51.5 -133.5
t141.5 -46.5q171 0 275 105t104 266l-377 -39q-100 -9 -147.5 -44t-47.5 -108z" />
    <glyph glyph-name="Aogonek" unicode="&#x104;" horiz-adv-x="1413" 
d="M1208 -256l381 39v-137l-403 -37q-78 -6 -113 46.5t0 115.5l123 229h-18l-183 565h-579l-180 -565h-168l467 1444h344l464 -1442v-2h-2zM463 709h487l-221 688h-47z" />
    <glyph glyph-name="aogonek" unicode="&#x105;" horiz-adv-x="1212" 
d="M1030 -256l381 39v-137l-403 -37q-78 -6 -113 46.5t0 115.5l123 229h-33q-58 0 -89.5 31t-31.5 88v55l27 107h-49q-16 -62 -44 -113.5t-74 -95t-116 -68t-159 -24.5q-84 0 -148 22t-99.5 54t-57.5 75.5t-28.5 79t-6.5 72.5q0 262 333 297l406 38q-7 138 -80.5 208.5
t-206.5 70.5q-58 0 -107 -13.5t-90 -42.5t-64.5 -80.5t-23.5 -121.5h-163q0 80 30 151.5t85 127t141.5 88t191.5 32.5q211 0 333 -126.5t122 -333.5v-435h149v-143h-2zM469 123q171 0 275 105t104 266l-377 -39q-100 -9 -147.5 -44t-47.5 -108q0 -87 51.5 -133.5
t141.5 -46.5z" />
    <glyph glyph-name="Cacute" unicode="&#x106;" horiz-adv-x="1587" 
d="M469 1741l629 162l32 -131l-626 -162zM129 723q0 211 79.5 378t234.5 265t362 98q275 0 448 -154t205 -423h-168q-25 208 -149.5 321t-335.5 113q-164 0 -280 -77.5t-172 -211t-56 -309.5q0 -177 56 -311t172 -211.5t280 -77.5q211 0 335.5 113.5t149.5 322.5h168
q-32 -270 -205 -424.5t-448 -154.5q-207 0 -362 98t-234.5 265.5t-79.5 379.5z" />
    <glyph glyph-name="cacute" unicode="&#x107;" horiz-adv-x="1212" 
d="M293 1315l629 162l32 -131l-626 -162zM109 510q0 148 60 266.5t180 190t280 71.5q78 0 154.5 -22.5t146 -68.5t117 -127t57.5 -187h-170q-11 71 -39 123t-69.5 81.5t-90.5 43.5t-106 14q-88 0 -157 -30.5t-111 -84t-63.5 -122t-21.5 -148.5q0 -81 21.5 -150t63.5 -122.5
t111 -84t157 -30.5q57 0 106 14t90.5 43.5t69.5 81.5t39 123h170q-10 -106 -57.5 -187t-117 -127t-146 -68.5t-154.5 -22.5q-160 0 -280 71.5t-180 190.5t-60 268z" />
    <glyph glyph-name="Cdotaccent" unicode="&#x10a;" horiz-adv-x="1587" 
d="M803 1606q-65 0 -107.5 41t-42.5 102q0 59 43 100t107 41q63 0 106 -41t43 -100q0 -61 -43 -102t-106 -41zM129 723q0 211 79.5 378t234.5 265t362 98q275 0 448 -154t205 -423h-168q-25 208 -149.5 321t-335.5 113q-164 0 -280 -77.5t-172 -211t-56 -309.5
q0 -177 56 -311t172 -211.5t280 -77.5q211 0 335.5 113.5t149.5 322.5h168q-32 -270 -205 -424.5t-448 -154.5q-207 0 -362 98t-234.5 265.5t-79.5 379.5z" />
    <glyph glyph-name="cdotaccent" unicode="&#x10b;" horiz-adv-x="1212" 
d="M627 1180q-65 0 -107.5 41t-42.5 102q0 59 43 100t107 41q63 0 106 -41t43 -100q0 -61 -43 -102t-106 -41zM109 510q0 148 60 266.5t180 190t280 71.5q78 0 154.5 -22.5t146 -68.5t117 -127t57.5 -187h-170q-11 71 -39 123t-69.5 81.5t-90.5 43.5t-106 14
q-88 0 -157 -30.5t-111 -84t-63.5 -122t-21.5 -148.5q0 -81 21.5 -150t63.5 -122.5t111 -84t157 -30.5q57 0 106 14t90.5 43.5t69.5 81.5t39 123h170q-10 -106 -57.5 -187t-117 -127t-146 -68.5t-154.5 -22.5q-160 0 -280 71.5t-180 190.5t-60 268z" />
    <glyph glyph-name="Ccaron" unicode="&#x10c;" horiz-adv-x="1587" 
d="M1135 1845l-332 -268l-332 268l98 94l234 -192l235 192zM129 723q0 211 79.5 378t234.5 265t362 98q275 0 448 -154t205 -423h-168q-25 208 -149.5 321t-335.5 113q-164 0 -280 -77.5t-172 -211t-56 -309.5q0 -177 56 -311t172 -211.5t280 -77.5q211 0 335.5 113.5
t149.5 322.5h168q-32 -270 -205 -424.5t-448 -154.5q-207 0 -362 98t-234.5 265.5t-79.5 379.5z" />
    <glyph glyph-name="ccaron" unicode="&#x10d;" horiz-adv-x="1212" 
d="M961 1419l-332 -268l-332 268l98 94l234 -192l235 192zM109 510q0 148 60 266.5t180 190t280 71.5q78 0 154.5 -22.5t146 -68.5t117 -127t57.5 -187h-170q-11 71 -39 123t-69.5 81.5t-90.5 43.5t-106 14q-88 0 -157 -30.5t-111 -84t-63.5 -122t-21.5 -148.5
q0 -81 21.5 -150t63.5 -122.5t111 -84t157 -30.5q57 0 106 14t90.5 43.5t69.5 81.5t39 123h170q-10 -106 -57.5 -187t-117 -127t-146 -68.5t-154.5 -22.5q-160 0 -280 71.5t-180 190.5t-60 268z" />
    <glyph glyph-name="Dcaron" unicode="&#x10e;" horiz-adv-x="1460" 
d="M942 1845l-332 -268l-331 268l98 94l233 -192l236 192zM608 1444q81 0 150.5 -7t145.5 -27.5t136 -53.5t116 -88.5t93.5 -129.5t59.5 -179.5t22 -235.5t-22 -236t-59.5 -180t-93.5 -130t-116 -89t-136 -53.5t-145.5 -27.5t-150.5 -7h-458v1444h458zM608 143q48 0 87 2
t86 9.5t85 20t78.5 34.5t71.5 52t59.5 74t47 99t29.5 128.5t11 160.5q0 111 -18 199.5t-46.5 148t-74 103t-90 67.5t-105 37.5t-109.5 17.5t-112 4h-291v-1157h291z" />
    <glyph glyph-name="dcaron" unicode="&#x10f;" horiz-adv-x="1568" 
d="M1327 1520h154v-521h-154v521zM1194 0h-168v150l29 114h-49q-34 -126 -140.5 -205t-271.5 -79q-218 0 -351.5 149.5t-133.5 380.5q0 229 133.5 378.5t351.5 149.5q166 0 272 -79.5t140 -206.5h49l-29 116v637h168v-1505zM1026 510q0 98 -30 173.5t-83 121t-121 68
t-149 22.5q-167 0 -267 -95.5t-100 -289.5q0 -195 100 -291t267 -96q81 0 149 22.5t121 68.5t83 121.5t30 174.5z" />
    <glyph glyph-name="Dcroat" unicode="&#x110;" horiz-adv-x="1591" 
d="M737 1444q81 0 150.5 -7t145.5 -27.5t136 -53.5t116 -88.5t93.5 -129.5t59.5 -179.5t22 -235.5t-22 -236t-59.5 -180t-93.5 -130t-116 -89t-136 -53.5t-145.5 -27.5t-150.5 -7h-456v680h-152v135h152v629h456zM737 143q48 0 87 2t86.5 9.5t85 20t78.5 34.5t72 52t60 74
t47.5 99t29.5 128.5t11 160.5q0 111 -18 199.5t-47 148t-74.5 103t-90.5 67.5t-105.5 37.5t-109.5 17.5t-112 4h-291v-485h396v-135h-396v-537h291z" />
    <glyph glyph-name="dcroat" unicode="&#x111;" horiz-adv-x="1404" 
d="M1317 1386v-137h-123v-1249h-168v150l29 114h-49q-34 -126 -140.5 -205t-271.5 -79q-218 0 -351.5 149.5t-133.5 380.5q0 229 133.5 378.5t351.5 149.5q166 0 272 -79.5t140 -206.5h49l-29 116v381h-285v137h285v119h168v-119h123zM643 123q81 0 149 22.5t121 68.5
t83 121.5t30 174.5q0 98 -30 173.5t-83 121t-121 68t-149 22.5q-167 0 -267 -95.5t-100 -289.5q0 -195 100 -291t267 -96z" />
    <glyph glyph-name="Emacron" unicode="&#x112;" horiz-adv-x="1153" 
d="M268 1825h662v-133l-662 -2v135zM150 0v1444h894v-144h-727v-505h625v-144h-625v-508h727v-143h-894z" />
    <glyph glyph-name="emacron" unicode="&#x113;" horiz-adv-x="1220" 
d="M281 1399h661v-133l-661 -2v135zM109 522q0 241 136 378.5t357 137.5q218 0 346.5 -131.5t128.5 -363.5v-66h-805q4 -76 25 -138t61.5 -113t109 -79t159.5 -28q127 0 208 60.5t109 176.5h168q-13 -52 -34 -100t-60.5 -100t-90.5 -89.5t-129 -62t-171 -24.5
q-133 0 -234.5 43t-162 118.5t-91 171.5t-30.5 209zM272 604h641q0 128 -82 210.5t-229 82.5q-148 0 -239 -83.5t-91 -209.5z" />
    <glyph glyph-name="Edotaccent" unicode="&#x116;" horiz-adv-x="1153" 
d="M596 1606q-65 0 -107.5 41t-42.5 102q0 59 43 100t107 41q63 0 106 -41t43 -100q0 -61 -43 -102t-106 -41zM150 0v1444h894v-144h-727v-505h625v-144h-625v-508h727v-143h-894z" />
    <glyph glyph-name="edotaccent" unicode="&#x117;" horiz-adv-x="1220" 
d="M610 1180q-64 0 -106.5 40.5t-42.5 102.5q0 59 42.5 100t106.5 41q63 0 106.5 -41t43.5 -100q0 -61 -43.5 -102t-106.5 -41zM109 522q0 241 136 378.5t357 137.5q218 0 346.5 -131.5t128.5 -363.5v-66h-805q4 -76 25 -138t61.5 -113t109 -79t159.5 -28q127 0 208 60.5
t109 176.5h168q-13 -52 -34 -100t-60.5 -100t-90.5 -89.5t-129 -62t-171 -24.5q-133 0 -234.5 43t-162 118.5t-91 171.5t-30.5 209zM272 604h641q0 128 -82 210.5t-229 82.5q-148 0 -239 -83.5t-91 -209.5z" />
    <glyph glyph-name="Eogonek" unicode="&#x118;" horiz-adv-x="1153" 
d="M1044 1300h-727v-505h625v-144h-625v-508h727v-143h-266l-133 -256l381 39v-137l-403 -37q-78 -6 -113 46.5t0 115.5l123 229h-483v1444h894v-144z" />
    <glyph glyph-name="eogonek" unicode="&#x119;" horiz-adv-x="1220" 
d="M770 -4l-131 -252l381 39v-137l-404 -37q-78 -6 -112.5 46.5t0.5 115.5l112 209q-104 1 -189 30t-143.5 78.5t-98.5 118t-58 147.5t-18 168q0 241 136 378.5t357 137.5q218 0 346.5 -131.5t128.5 -363.5v-66h-805q4 -76 25 -138t61.5 -113t109 -79t159.5 -28
q127 0 208 60.5t109 176.5h168q-14 -55 -37.5 -105t-63 -102.5t-101.5 -92.5t-140 -60zM602 897q-148 0 -239 -83.5t-91 -209.5h641q0 128 -82 210.5t-229 82.5z" />
    <glyph glyph-name="Ecaron" unicode="&#x11a;" horiz-adv-x="1153" 
d="M930 1845l-332 -268l-332 268l99 94l233 -192l236 192zM150 0v1444h894v-144h-727v-505h625v-144h-625v-508h727v-143h-894z" />
    <glyph glyph-name="ecaron" unicode="&#x11b;" horiz-adv-x="1220" 
d="M942 1419l-332 -268l-331 268l98 94l233 -192l236 192zM109 522q0 241 136 378.5t357 137.5q218 0 346.5 -131.5t128.5 -363.5v-66h-805q4 -76 25 -138t61.5 -113t109 -79t159.5 -28q127 0 208 60.5t109 176.5h168q-13 -52 -34 -100t-60.5 -100t-90.5 -89.5t-129 -62
t-171 -24.5q-133 0 -234.5 43t-162 118.5t-91 171.5t-30.5 209zM272 604h641q0 128 -82 210.5t-229 82.5q-148 0 -239 -83.5t-91 -209.5z" />
    <glyph glyph-name="Gbreve" unicode="&#x11e;" horiz-adv-x="1669" 
d="M1120 1931q0 -159 -85.5 -255.5t-233.5 -96.5q-149 0 -235.5 96.5t-86.5 255.5h137q0 -113 44 -166t141 -53t139.5 52.5t42.5 166.5h137zM129 723q0 212 82.5 379.5t238.5 264.5t361 97q263 0 417.5 -145t188.5 -391h-168q-26 189 -130 291t-308 102q-247 0 -380.5 -163
t-133.5 -435q0 -136 26 -243.5t80.5 -188.5t145.5 -124.5t215 -43.5q214 0 316 126.5t98 385.5h-494v135h713q123 0 123 -113v-657h-168v539l26 184h-47q-3 -743 -569 -743q-155 0 -277 56t-199 156t-117 234.5t-40 296.5z" />
    <glyph glyph-name="gbreve" unicode="&#x11f;" horiz-adv-x="1351" 
d="M635 1153q-149 0 -235.5 96.5t-86.5 255.5h138q0 -114 43.5 -166.5t140.5 -52.5t139.5 52.5t42.5 166.5h137q0 -159 -85.5 -255.5t-233.5 -96.5zM1214 1018h91v-144h-86q-80 0 -134 -40q70 -86 70 -216q0 -158 -119 -268.5t-360 -199.5q75 12 140.5 14t126.5 -10
t104.5 -38t69.5 -73.5t26 -112.5q0 -58 -18.5 -102t-52 -76.5t-94 -55t-131 -36.5t-178 -21.5t-218.5 -10.5t-269 -3v144q121 0 202.5 1t167 4t139 8t106 14t82 21.5t53.5 30.5t33.5 41.5t9.5 53.5q0 54 -33.5 86.5t-93.5 41t-128 6t-153 -19.5t-152.5 -34t-140.5 -39
l-34 116q218 60 483 142v47q-99 -25 -190 -27.5t-168 19.5t-134 66t-89.5 116t-32.5 164q0 136 70.5 230.5t185.5 137.5t266 43q208 0 346 -98q78 50 122 64t115 14zM633 348q354 0 354 275q0 272 -354 272q-357 0 -357 -272q0 -275 357 -275z" />
    <glyph glyph-name="Gdotaccent" unicode="&#x120;" horiz-adv-x="1669" 
d="M799 1606q-65 0 -107.5 41t-42.5 102q0 59 43 100t107 41q63 0 106 -41t43 -100q0 -61 -43 -102t-106 -41zM129 723q0 212 82.5 379.5t238.5 264.5t361 97q263 0 417.5 -145t188.5 -391h-168q-26 189 -130 291t-308 102q-247 0 -380.5 -163t-133.5 -435q0 -136 26 -243.5
t80.5 -188.5t145.5 -124.5t215 -43.5q214 0 316 126.5t98 385.5h-494v135h713q123 0 123 -113v-657h-168v539l26 184h-47q-3 -743 -569 -743q-155 0 -277 56t-199 156t-117 234.5t-40 296.5z" />
    <glyph glyph-name="gdotaccent" unicode="&#x121;" horiz-adv-x="1351" 
d="M633 1180q-65 0 -107.5 41t-42.5 102q0 59 43 100t107 41q63 0 106 -41t43 -100q0 -61 -43 -102t-106 -41zM1214 1018h91v-144h-86q-80 0 -134 -40q70 -86 70 -216q0 -158 -119 -268.5t-360 -199.5q75 12 140.5 14t126.5 -10t104.5 -38t69.5 -73.5t26 -112.5
q0 -58 -18.5 -102t-52 -76.5t-94 -55t-131 -36.5t-178 -21.5t-218.5 -10.5t-269 -3v144q121 0 202.5 1t167 4t139 8t106 14t82 21.5t53.5 30.5t33.5 41.5t9.5 53.5q0 54 -33.5 86.5t-93.5 41t-128 6t-153 -19.5t-152.5 -34t-140.5 -39l-34 116q218 60 483 142v47
q-99 -25 -190 -27.5t-168 19.5t-134 66t-89.5 116t-32.5 164q0 136 70.5 230.5t185.5 137.5t266 43q208 0 346 -98q78 50 122 64t115 14zM633 348q354 0 354 275q0 272 -354 272q-357 0 -357 -272q0 -275 357 -275z" />
    <glyph glyph-name="uni0122" unicode="&#x122;" horiz-adv-x="1669" 
d="M129 723q0 212 82.5 379.5t238.5 264.5t361 97q263 0 417.5 -145t188.5 -391h-168q-26 189 -130 291t-308 102q-247 0 -380.5 -163t-133.5 -435q0 -136 26 -243.5t80.5 -188.5t145.5 -124.5t215 -43.5q214 0 316 126.5t98 385.5h-494v135h713q123 0 123 -113v-657h-168
v539l26 184h-47q-3 -743 -569 -743q-155 0 -277 56t-199 156t-117 234.5t-40 296.5zM672 -100l149 -41l-108 -340l-150 43z" />
    <glyph glyph-name="uni0123" unicode="&#x123;" horiz-adv-x="1351" 
d="M819 1550l-104 -370l-150 39l107 370zM1214 1018h91v-144h-86q-80 0 -134 -40q70 -86 70 -216q0 -158 -119 -268.5t-360 -199.5q75 12 140.5 14t126.5 -10t104.5 -38t69.5 -73.5t26 -112.5q0 -58 -18.5 -102t-52 -76.5t-94 -55t-131 -36.5t-178 -21.5t-218.5 -10.5
t-269 -3v144q121 0 202.5 1t167 4t139 8t106 14t82 21.5t53.5 30.5t33.5 41.5t9.5 53.5q0 54 -33.5 86.5t-93.5 41t-128 6t-153 -19.5t-152.5 -34t-140.5 -39l-34 116q218 60 483 142v47q-99 -25 -190 -27.5t-168 19.5t-134 66t-89.5 116t-32.5 164q0 136 70.5 230.5
t185.5 137.5t266 43q208 0 346 -98q78 50 122 64t115 14zM633 348q354 0 354 275q0 272 -354 272q-357 0 -357 -272q0 -275 357 -275z" />
    <glyph glyph-name="Hbar" unicode="&#x126;" horiz-adv-x="1609" 
d="M1520 1241v-137h-123v-1104h-166v641h-852v-641h-168v1104h-123v137h123v203h168v-203h852v203h166v-203h123zM1231 784v320h-852v-320h852z" />
    <glyph glyph-name="hbar" unicode="&#x127;" horiz-adv-x="1302" 
d="M795 1038q177 0 278 -104.5t101 -310.5v-623h-168v600q0 157 -61.5 226t-194.5 69q-164 0 -265.5 -120.5t-101.5 -323.5v-451h-168v1249h-106v137h106v119h168v-119h301v-137h-301v-407l-29 -117h49q32 144 132 228.5t260 84.5z" />
    <glyph glyph-name="Imacron" unicode="&#x12a;" horiz-adv-x="1071" 
d="M868 1825v-133l-661 -2v135h661zM942 1300h-321v-1157h321v-143h-813v143h324v1157h-324v144h813v-144z" />
    <glyph glyph-name="imacron" unicode="&#x12b;" horiz-adv-x="913" 
d="M82 1399h661v-133l-661 -2v135zM115 0v143h288v750l-213 -19v144l232 20q70 6 101.5 -30t31.5 -109v-756h291v-143h-731z" />
    <glyph glyph-name="Iogonek" unicode="&#x12e;" horiz-adv-x="1071" 
d="M590 -256l381 39v-137l-404 -37q-78 -6 -112.5 46.5t0.5 115.5l123 229h-449v143h324v1157h-324v144h813v-144h-321v-1157h321v-143h-219z" />
    <glyph glyph-name="iogonek" unicode="&#x12f;" horiz-adv-x="907" 
d="M401 1180q-64 0 -106.5 40.5t-42.5 102.5q0 59 42.5 100t106.5 41q63 0 106.5 -41t43.5 -100q0 -61 -43.5 -102t-106.5 -41zM840 0h-269l-133 -256l381 39v-137l-403 -37q-78 -6 -113 46.5t0 115.5l123 229h-317v143h290v750l-215 -19v144l232 20q70 6 102.5 -30
t32.5 -109v-756h289v-143z" />
    <glyph glyph-name="Idotaccent" unicode="&#x130;" horiz-adv-x="1071" 
d="M535 1606q-65 0 -107.5 41t-42.5 102q0 59 43 100t107 41q63 0 106 -41t43 -100q0 -61 -43 -102t-106 -41zM942 1300h-321v-1157h321v-143h-813v143h324v1157h-324v144h813v-144z" />
    <glyph glyph-name="dotlessi" unicode="&#x131;" horiz-adv-x="907" 
d="M109 0v143h290v750l-215 -19v144l232 20q70 6 102.5 -30t32.5 -109v-756h289v-143h-731z" />
    <glyph glyph-name="uni0136" unicode="&#x136;" horiz-adv-x="1374" 
d="M1305 1444l-881 -721l881 -723h-242l-746 614v-614h-167v1444h167v-615l746 615h242zM473 -438l109 338l149 -41l-108 -340z" />
    <glyph glyph-name="uni0137" unicode="&#x137;" horiz-adv-x="1150" 
d="M668 547l393 -547h-191l-340 473l-213 -117v-356h-167v1505h167v-973l519 283l-21 203h168l16 -187q9 -98 -81 -147zM401 -438l109 338l149 -41l-108 -340z" />
    <glyph glyph-name="Lacute" unicode="&#x139;" horiz-adv-x="1114" 
d="M152 1741l628 162l33 -131l-629 -162zM276 -20q-59 -1 -90.5 31t-31.5 91v1342h165v-1321l728 20v-143z" />
    <glyph glyph-name="lacute" unicode="&#x13a;" horiz-adv-x="901" 
d="M84 1802l629 162l32 -131l-626 -162zM96 0v143h285v1237l-209 -18v143l236 21q71 6 106 -31t35 -111v-1241h285v-143h-738z" />
    <glyph glyph-name="uni013B" unicode="&#x13b;" horiz-adv-x="1112" 
d="M274 -20q-60 -1 -92 31t-32 91v1342h167v-1321l727 20v-143zM561 -100l150 -41l-109 -340l-149 43z" />
    <glyph glyph-name="uni013C" unicode="&#x13c;" horiz-adv-x="894" 
d="M88 0v143h287v1237l-211 -18v143l237 21q69 6 104.5 -31.5t35.5 -110.5v-1241h284v-143h-737zM369 -100l149 -41l-108 -340l-150 43z" />
    <glyph glyph-name="Lcaron" unicode="&#x13d;" horiz-adv-x="1132" 
d="M535 1520h153v-521h-153v521zM274 -20q-60 -1 -92 31t-32 91v1342h167v-1321l727 20v-143z" />
    <glyph glyph-name="lcaron" unicode="&#x13e;" horiz-adv-x="923" 
d="M88 0v143h287v1237l-211 -18v143l237 21q69 6 104.5 -31.5t35.5 -110.5v-1241h284v-143h-737zM702 1520h154v-521h-154v521z" />
    <glyph glyph-name="Lslash" unicode="&#x141;" horiz-adv-x="1247" 
d="M432 123l725 20v-143l-770 -20q-58 -1 -90.5 31t-32.5 91v529l-121 -33l-34 131l155 41v674h168v-627l383 103l33 -132l-416 -112v-553z" />
    <glyph glyph-name="lslash" unicode="&#x142;" horiz-adv-x="894" 
d="M541 143h284v-143h-737v143h287v512l-244 -65l-35 131l279 76v583l-211 -18v143l237 21q69 6 104.5 -31.5t35.5 -110.5v-542l243 65l35 -133l-278 -74v-557z" />
    <glyph glyph-name="Nacute" unicode="&#x143;" horiz-adv-x="1546" 
d="M479 1741l629 162l33 -131l-627 -162zM150 0v1444h337l721 -1397h47l-26 121v1276h166v-1444h-338l-719 1397h-47l26 -121v-1276h-167z" />
    <glyph glyph-name="nacute" unicode="&#x144;" horiz-adv-x="1239" 
d="M334 1315l629 162l32 -131l-626 -162zM684 895q-163 0 -265 -120.5t-102 -323.5v-451h-167v1018h167v-176l-26 -117h47q32 144 131.5 228.5t259.5 84.5q177 0 278 -104.5t101 -310.5v-623h-166v600q0 157 -62.5 226t-195.5 69z" />
    <glyph glyph-name="uni0145" unicode="&#x145;" horiz-adv-x="1546" 
d="M150 0v1444h337l721 -1397h47l-26 121v1276h166v-1444h-338l-719 1397h-47l26 -121v-1276h-167zM686 -100l150 -41l-109 -340l-149 43z" />
    <glyph glyph-name="uni0146" unicode="&#x146;" horiz-adv-x="1239" 
d="M684 895q-163 0 -265 -120.5t-102 -323.5v-451h-167v1018h167v-176l-26 -117h47q32 144 131.5 228.5t259.5 84.5q177 0 278 -104.5t101 -310.5v-623h-166v600q0 157 -62.5 226t-195.5 69zM545 -100l149 -41l-108 -340l-150 43z" />
    <glyph glyph-name="Ncaron" unicode="&#x147;" horiz-adv-x="1546" 
d="M1145 1845l-332 -268l-332 268l99 94l233 -192l236 192zM150 0v1444h337l721 -1397h47l-26 121v1276h166v-1444h-338l-719 1397h-47l26 -121v-1276h-167z" />
    <glyph glyph-name="ncaron" unicode="&#x148;" horiz-adv-x="1239" 
d="M999 1419l-331 -268l-332 268l98 94l234 -192l235 192zM684 895q-163 0 -265 -120.5t-102 -323.5v-451h-167v1018h167v-176l-26 -117h47q32 144 131.5 228.5t259.5 84.5q177 0 278 -104.5t101 -310.5v-623h-166v600q0 157 -62.5 226t-195.5 69z" />
    <glyph glyph-name="Eng" unicode="&#x14a;" horiz-adv-x="1546" 
d="M1229 1444h166v-1714q0 -60 -35 -93t-105 -30l-393 20v144l367 -21v250h-172l-719 1397h-47l26 -121v-1276h-167v1444h337l721 -1397h47l-26 121v1276z" />
    <glyph glyph-name="eng" unicode="&#x14b;" horiz-adv-x="1239" 
d="M729 1038q177 0 278 -104.5t101 -310.5v-893q0 -61 -34.5 -93.5t-104.5 -29.5l-394 20v144l367 -21v850q0 157 -62.5 226t-195.5 69q-163 0 -265 -120.5t-102 -323.5v-451h-167v1018h167v-176l-26 -117h47q32 144 131.5 228.5t259.5 84.5z" />
    <glyph glyph-name="Omacron" unicode="&#x14c;" horiz-adv-x="1605" 
d="M473 1825h662v-133l-662 -2v135zM129 723q0 211 79 378t234 265t363 98q206 0 360 -98t233 -265t79 -378q0 -212 -79 -379.5t-233 -265.5t-360 -98q-156 0 -284.5 56.5t-213.5 156.5t-131.5 236t-46.5 294zM297 723q0 -131 32 -240t93.5 -189.5t159.5 -125.5t223 -45
t222 45t158 125.5t92.5 189.5t31.5 240t-31.5 239t-92.5 188.5t-158 125.5t-222 45q-166 0 -282.5 -78.5t-171 -211.5t-54.5 -308z" />
    <glyph glyph-name="omacron" unicode="&#x14d;" horiz-adv-x="1292" 
d="M317 1399h662v-133l-662 -2v135zM109 510q0 147 65.5 267t189.5 190.5t283 70.5q158 0 281 -70.5t188.5 -190.5t65.5 -267q0 -148 -65.5 -268.5t-188.5 -191t-281 -70.5q-240 0 -389 151.5t-149 378.5zM276 510q0 -167 98 -277t273 -110q174 0 271.5 110t97.5 277
q0 166 -98 275.5t-271 109.5q-175 0 -273 -109.5t-98 -275.5z" />
    <glyph glyph-name="Ohungarumlaut" unicode="&#x150;" horiz-adv-x="1605" 
d="M520 1671l293 283l94 -94l-291 -281zM858 1671l293 283l94 -94l-291 -281zM129 723q0 211 79 378t234 265t363 98q206 0 360 -98t233 -265t79 -378q0 -212 -79 -379.5t-233 -265.5t-360 -98q-156 0 -284.5 56.5t-213.5 156.5t-131.5 236t-46.5 294zM297 723
q0 -131 32 -240t93.5 -189.5t159.5 -125.5t223 -45t222 45t158 125.5t92.5 189.5t31.5 240t-31.5 239t-92.5 188.5t-158 125.5t-222 45q-166 0 -282.5 -78.5t-171 -211.5t-54.5 -308z" />
    <glyph glyph-name="ohungarumlaut" unicode="&#x151;" horiz-adv-x="1292" 
d="M365 1245l292 283l95 -94l-291 -281zM702 1245l293 283l95 -94l-291 -281zM109 510q0 147 65.5 267t189.5 190.5t283 70.5q158 0 281 -70.5t188.5 -190.5t65.5 -267q0 -148 -65.5 -268.5t-188.5 -191t-281 -70.5q-240 0 -389 151.5t-149 378.5zM276 510q0 -167 98 -277
t273 -110q174 0 271.5 110t97.5 277q0 166 -98 275.5t-271 109.5q-175 0 -273 -109.5t-98 -275.5z" />
    <glyph glyph-name="OE" unicode="&#x152;" horiz-adv-x="2332" 
d="M2222 1300h-725v-505h623v-144h-623v-508h725v-143h-893v231q-88 -120 -222 -185.5t-302 -65.5q-156 0 -284.5 56.5t-213.5 156.5t-131.5 236t-46.5 294q0 211 79 378t234 265t363 98q168 0 302 -66t222 -186v232h893v-144zM805 123q125 0 222 45t158 125.5t92.5 189.5
t31.5 240t-31.5 239t-92.5 188.5t-158 125.5t-222 45q-166 0 -282.5 -78.5t-171 -211.5t-54.5 -308q0 -131 32 -240t93.5 -189.5t159.5 -125.5t223 -45z" />
    <glyph glyph-name="oe" unicode="&#x153;" horiz-adv-x="2156" 
d="M1880 356h168q-12 -52 -33 -100.5t-60.5 -100t-91 -89t-129.5 -62t-171 -24.5q-167 0 -280 66.5t-173 184.5q-68 -117 -188 -184t-275 -67q-240 0 -389 151.5t-149 378.5q0 147 65.5 267t189.5 190.5t283 70.5q153 0 272 -65t187 -178q60 118 172.5 180.5t259.5 62.5
q218 0 346.5 -131.5t128.5 -363.5v-66h-803q3 -60 16 -111.5t40 -97.5t66.5 -78.5t98 -51.5t132.5 -19q128 0 208.5 60t108.5 177zM1538 897q-147 0 -237.5 -84t-90.5 -209h639q0 128 -81.5 210.5t-229.5 82.5zM647 123q174 0 271.5 110t97.5 277q0 166 -98 275.5
t-271 109.5q-175 0 -273 -109.5t-98 -275.5q0 -167 98 -277t273 -110z" />
    <glyph glyph-name="Racute" unicode="&#x154;" horiz-adv-x="1359" 
d="M315 1741l629 162l33 -131l-627 -162zM150 0v1444h479q137 0 234.5 -18t174.5 -62t115.5 -124.5t38.5 -199.5q0 -294 -268 -340v-49h172q61 0 87.5 -25.5t26.5 -82.5v-543h-168v580h-725v-580h-167zM317 723h312q59 0 100 2t85.5 9t74 19.5t57 34t43.5 52t25.5 73.5
t9.5 99t-9.5 99.5t-25 74t-44 51.5t-57.5 33.5t-74 19t-85.5 8.5t-99.5 2h-312v-577z" />
    <glyph glyph-name="racute" unicode="&#x155;" horiz-adv-x="907" 
d="M190 1315l627 162l33 -131l-627 -162zM154 0v897q0 145 141 139l565 -18v-144l-538 19v-893h-168z" />
    <glyph glyph-name="uni0156" unicode="&#x156;" horiz-adv-x="1359" 
d="M150 0v1444h479q137 0 234.5 -18t174.5 -62t115.5 -124.5t38.5 -199.5q0 -294 -268 -340v-49h172q61 0 87.5 -25.5t26.5 -82.5v-543h-168v580h-725v-580h-167zM317 723h312q59 0 100 2t85.5 9t74 19.5t57 34t43.5 52t25.5 73.5t9.5 99t-9.5 99.5t-25 74t-44 51.5
t-57.5 33.5t-74 19t-85.5 8.5t-99.5 2h-312v-577zM625 -100l149 -41l-108 -340l-150 43z" />
    <glyph glyph-name="uni0157" unicode="&#x157;" horiz-adv-x="899" 
d="M147 0v897q0 145 140 139l565 -18v-144l-539 19v-893h-166zM145 -100l150 -41l-109 -340l-149 43z" />
    <glyph glyph-name="Rcaron" unicode="&#x158;" horiz-adv-x="1359" 
d="M981 1845l-332 -268l-332 268l99 94l233 -192l236 192zM150 0v1444h479q137 0 234.5 -18t174.5 -62t115.5 -124.5t38.5 -199.5q0 -294 -268 -340v-49h172q61 0 87.5 -25.5t26.5 -82.5v-543h-168v580h-725v-580h-167zM317 723h312q59 0 100 2t85.5 9t74 19.5t57 34
t43.5 52t25.5 73.5t9.5 99t-9.5 99.5t-25 74t-44 51.5t-57.5 33.5t-74 19t-85.5 8.5t-99.5 2h-312v-577z" />
    <glyph glyph-name="rcaron" unicode="&#x159;" horiz-adv-x="909" 
d="M854 1419l-332 -268l-332 268l99 94l233 -192l236 192zM154 0v897q0 145 139 139l565 -18v-144l-536 19v-893h-168z" />
    <glyph glyph-name="Sacute" unicode="&#x15a;" horiz-adv-x="1384" 
d="M358 1741l629 162l33 -131l-627 -162zM1296 365q0 -385 -555 -385q-148 0 -261 26.5t-187 73.5t-120 118t-65.5 154.5t-19.5 188.5h168q0 -101 22 -174.5t61 -120.5t101 -74.5t133.5 -38t167.5 -10.5q193 0 290 53.5t97 179.5q0 36 -8 66.5t-27 56t-38.5 45.5t-53.5 38.5
t-59.5 31t-70.5 27t-72 23t-78 23t-76 21.5q-71 21 -118 37t-103.5 39t-92.5 45t-73 53t-57.5 66t-33.5 80.5t-13 99.5q0 171 126 263.5t386 92.5q123 0 222.5 -29t163 -77t106.5 -113t61 -133.5t18 -142.5h-168q0 175 -113 263.5t-290 88.5q-344 0 -344 -209q0 -45 16 -81
t42.5 -62t75.5 -51t99.5 -43.5t130.5 -43.5q216 -67 266 -86q216 -82 292 -198q52 -79 52 -182z" />
    <glyph glyph-name="sacute" unicode="&#x15b;" horiz-adv-x="1021" 
d="M188 1315l629 162l33 -131l-627 -162zM954 264q0 -61 -20.5 -110t-65 -89.5t-124.5 -62.5t-191 -22q-239 0 -352 103t-113 292h168q0 -258 299 -258q121 0 176 32t55 109q0 24 -7 45t-16 36t-30 29.5t-35.5 23.5t-46.5 20.5t-49.5 17t-58.5 17.5t-60 18q-69 22 -112 38
t-93 42.5t-77.5 55.5t-46.5 72t-19 97q0 123 99 195.5t272 72.5q114 0 197.5 -29t129 -79.5t66.5 -108.5t21 -125h-168q0 205 -246 205q-92 0 -147.5 -30t-55.5 -95q0 -69 49.5 -103.5t184.5 -78.5q19 -6 60 -19t61.5 -20t56.5 -20t56 -22.5t49.5 -26t45.5 -31t35.5 -36
t29 -44t16.5 -51t7 -60.5z" />
    <glyph glyph-name="Scedilla" unicode="&#x15e;" horiz-adv-x="1384" 
d="M1296 365q0 -382 -546 -385l-93 -97q64 31 134 31q57 0 95 -28.5t38 -86.5q0 -39 -13 -68t-41 -48.5t-62.5 -32t-86.5 -18.5t-103 -8.5t-122 -2.5v127q185 0 231 10q60 14 61 54q0 41 -47 41q-54 0 -143 -54l-72 95l78 92q-144 14 -246 59.5t-160 119.5t-84 165.5
t-26 210.5h168q0 -101 22 -174.5t61 -120.5t101 -74.5t133.5 -38t167.5 -10.5q193 0 290 53.5t97 179.5q0 36 -8 66.5t-27 56t-38.5 45.5t-53.5 38.5t-59.5 31t-70.5 27t-72 23t-78 23t-76 21.5q-71 21 -118 37t-103.5 39t-92.5 45t-73 53t-57.5 66t-33.5 80.5t-13 99.5
q0 171 126 263.5t386 92.5q123 0 222.5 -29t163 -77t106.5 -113t61 -133.5t18 -142.5h-168q0 175 -113 263.5t-290 88.5q-344 0 -344 -209q0 -45 16 -81t42.5 -62t75.5 -51t99.5 -43.5t130.5 -43.5q216 -67 266 -86q216 -82 292 -198q52 -79 52 -182z" />
    <glyph glyph-name="scedilla" unicode="&#x15f;" horiz-adv-x="1021" 
d="M954 264q0 -59 -19 -107t-60.5 -88t-116.5 -63t-178 -26l-93 -97q64 31 134 31q57 0 95 -28.5t38 -86.5q0 -39 -13 -68t-41 -48.5t-62.5 -32t-86.5 -18.5t-103 -8.5t-122 -2.5v127q185 0 231 10q60 14 61 54q0 41 -47 41q-54 0 -143 -54l-72 95l80 94q-348 47 -348 387
h168q0 -258 299 -258q121 0 176 32t55 109q0 24 -7 45t-16 36t-30 29.5t-35.5 23.5t-46.5 20.5t-49.5 17t-58.5 17.5t-60 18q-69 22 -112 38t-93 42.5t-77.5 55.5t-46.5 72t-19 97q0 123 99 195.5t272 72.5q114 0 197.5 -29t129 -79.5t66.5 -108.5t21 -125h-168
q0 205 -246 205q-92 0 -147.5 -30t-55.5 -95q0 -69 49.5 -103.5t184.5 -78.5q19 -6 60 -19t61.5 -20t56.5 -20t56 -22.5t49.5 -26t45.5 -31t35.5 -36t29 -44t16.5 -51t7 -60.5z" />
    <glyph glyph-name="Scaron" unicode="&#x160;" horiz-adv-x="1384" 
d="M1024 1845l-332 -268l-332 268l99 94l233 -192l236 192zM1296 365q0 -385 -555 -385q-148 0 -261 26.5t-187 73.5t-120 118t-65.5 154.5t-19.5 188.5h168q0 -101 22 -174.5t61 -120.5t101 -74.5t133.5 -38t167.5 -10.5q193 0 290 53.5t97 179.5q0 36 -8 66.5t-27 56
t-38.5 45.5t-53.5 38.5t-59.5 31t-70.5 27t-72 23t-78 23t-76 21.5q-71 21 -118 37t-103.5 39t-92.5 45t-73 53t-57.5 66t-33.5 80.5t-13 99.5q0 171 126 263.5t386 92.5q123 0 222.5 -29t163 -77t106.5 -113t61 -133.5t18 -142.5h-168q0 175 -113 263.5t-290 88.5
q-344 0 -344 -209q0 -45 16 -81t42.5 -62t75.5 -51t99.5 -43.5t130.5 -43.5q216 -67 266 -86q216 -82 292 -198q52 -79 52 -182z" />
    <glyph glyph-name="scaron" unicode="&#x161;" horiz-adv-x="1021" 
d="M854 1419l-332 -268l-332 268l99 94l233 -192l236 192zM954 264q0 -61 -20.5 -110t-65 -89.5t-124.5 -62.5t-191 -22q-239 0 -352 103t-113 292h168q0 -258 299 -258q121 0 176 32t55 109q0 24 -7 45t-16 36t-30 29.5t-35.5 23.5t-46.5 20.5t-49.5 17t-58.5 17.5t-60 18
q-69 22 -112 38t-93 42.5t-77.5 55.5t-46.5 72t-19 97q0 123 99 195.5t272 72.5q114 0 197.5 -29t129 -79.5t66.5 -108.5t21 -125h-168q0 205 -246 205q-92 0 -147.5 -30t-55.5 -95q0 -69 49.5 -103.5t184.5 -78.5q19 -6 60 -19t61.5 -20t56.5 -20t56 -22.5t49.5 -26
t45.5 -31t35.5 -36t29 -44t16.5 -51t7 -60.5z" />
    <glyph glyph-name="uni0162" unicode="&#x162;" horiz-adv-x="1347" 
d="M758 0h-6l-113 -117q64 31 133 31q57 0 95 -28.5t38 -86.5q0 -39 -13 -68t-41 -48.5t-62.5 -32t-86.5 -18.5t-103 -8.5t-122 -2.5v127q185 0 232 10q60 15 61 54q0 41 -47 41q-54 0 -143 -54l-72 95l90 106h-6v1300h-504v144h1169v-144h-499v-1300z" />
    <glyph glyph-name="uni0163" unicode="&#x163;" horiz-adv-x="886" 
d="M797 0l-185 -10l-102 -107q64 31 133 31q57 0 95 -28.5t38 -86.5q0 -39 -13 -68t-41 -48.5t-62.5 -32t-86.5 -18.5t-103 -8.5t-122 -2.5v127q185 0 232 10q60 15 61 54q0 41 -47 41q-54 0 -143 -54l-72 95l74 88l-41 -2q-140 -9 -140 139v755h-225v144h225v262l166 51
v-313h318v-144h-318v-753l359 22v-143z" />
    <glyph glyph-name="Tcaron" unicode="&#x164;" horiz-adv-x="1347" 
d="M1006 1845l-332 -268l-332 268l98 94l234 -192l235 192zM1257 1444v-144h-499v-1300h-166v1300h-504v144h1169z" />
    <glyph glyph-name="tcaron" unicode="&#x165;" horiz-adv-x="886" 
d="M717 1505v-368h-154v368h154zM438 121l359 22v-143l-385 -20q-140 -9 -140 139v755h-225v144h225v262l166 51v-313h318v-144h-318v-753z" />
    <glyph glyph-name="Tbar" unicode="&#x166;" horiz-adv-x="1347" 
d="M1257 1300h-499v-495h317v-135h-317v-670h-166v670h-320v135h320v495h-504v144h1169v-144z" />
    <glyph glyph-name="tbar" unicode="&#x167;" horiz-adv-x="886" 
d="M438 121l359 22v-143l-385 -20q-140 -9 -140 139v403h-184v137h184v215h-225v144h225v262l166 51v-313h318v-144h-318v-215h258v-137h-258v-401z" />
    <glyph glyph-name="Umacron" unicode="&#x16a;" horiz-adv-x="1361" 
d="M350 1825h662v-133l-662 -2v135zM109 537v907h167v-881q0 -227 92 -333.5t312 -106.5t312.5 106.5t92.5 333.5v881h168v-907q0 -557 -573 -557q-571 0 -571 557z" />
    <glyph glyph-name="umacron" unicode="&#x16b;" horiz-adv-x="1218" 
d="M297 1399h661v-133l-661 -2v135zM555 123q163 0 265 120t102 322v453h165v-1018h-165v176l26 117h-47q-32 -144 -131.5 -228.5t-259.5 -84.5q-179 0 -280 104t-101 311v623h168v-600q0 -158 62 -226.5t196 -68.5z" />
    <glyph glyph-name="Uring" unicode="&#x16e;" horiz-adv-x="1361" 
d="M678 1571q-112 0 -177 64.5t-65 158.5q0 92 65 156.5t177 64.5t178 -64.5t66 -156.5t-66 -157.5t-178 -65.5zM678 1698q53 0 79.5 25.5t26.5 70.5q0 44 -27.5 69t-78.5 25q-50 0 -77.5 -25.5t-27.5 -68.5q0 -45 27.5 -70.5t77.5 -25.5zM109 537v907h167v-881
q0 -227 92 -333.5t312 -106.5t312.5 106.5t92.5 333.5v881h168v-907q0 -557 -573 -557q-571 0 -571 557z" />
    <glyph glyph-name="uring" unicode="&#x16f;" horiz-adv-x="1218" 
d="M625 1145q-112 0 -177 64.5t-65 158.5q0 92 65 156.5t177 64.5t177.5 -64.5t65.5 -156.5q0 -93 -65.5 -158t-177.5 -65zM625 1272q53 0 79.5 25.5t26.5 70.5q0 44 -27.5 69t-78.5 25q-50 0 -77.5 -25.5t-27.5 -68.5q0 -45 27.5 -70.5t77.5 -25.5zM555 123q163 0 265 120
t102 322v453h165v-1018h-165v176l26 117h-47q-32 -144 -131.5 -228.5t-259.5 -84.5q-179 0 -280 104t-101 311v623h168v-600q0 -158 62 -226.5t196 -68.5z" />
    <glyph glyph-name="Uhungarumlaut" unicode="&#x170;" horiz-adv-x="1361" 
d="M397 1671l293 283l94 -94l-290 -281zM735 1671l293 283l94 -94l-291 -281zM109 537v907h167v-881q0 -227 92 -333.5t312 -106.5t312.5 106.5t92.5 333.5v881h168v-907q0 -557 -573 -557q-571 0 -571 557z" />
    <glyph glyph-name="uhungarumlaut" unicode="&#x171;" horiz-adv-x="1218" 
d="M344 1245l293 283l94 -94l-291 -281zM682 1245l293 283l94 -94l-291 -281zM555 123q163 0 265 120t102 322v453h165v-1018h-165v176l26 117h-47q-32 -144 -131.5 -228.5t-259.5 -84.5q-179 0 -280 104t-101 311v623h168v-600q0 -158 62 -226.5t196 -68.5z" />
    <glyph glyph-name="Uogonek" unicode="&#x172;" horiz-adv-x="1361" 
d="M1253 537q0 -451 -374 -537l-134 -256l381 39v-137l-403 -37q-78 -6 -113 46.5t0 115.5l113 209h-43q-571 0 -571 557v907h167v-881q0 -227 92 -333.5t312 -106.5t312.5 106.5t92.5 333.5v881h168v-907z" />
    <glyph glyph-name="uogonek" unicode="&#x173;" horiz-adv-x="1218" 
d="M952 -256l381 39v-137l-403 -37q-78 -6 -113 46.5t0 115.5l123 229h-18v176l26 117h-47q-32 -144 -131.5 -228.5t-259.5 -84.5q-179 0 -280 104t-101 311v623h168v-600q0 -158 62 -226.5t196 -68.5q163 0 265 120t102 322v453h165v-1018h-2z" />
    <glyph glyph-name="Wcircumflex" unicode="&#x174;" horiz-adv-x="2074" 
d="M1368 1669l-96 -94l-236 192l-233 -192l-98 94l331 268zM68 1444h159l295 -1397h49l293 1397h346l293 -1397h49l295 1397h160l-307 -1444h-342l-297 1397h-47l-295 -1397h-342z" />
    <glyph glyph-name="wcircumflex" unicode="&#x175;" horiz-adv-x="1761" 
d="M1212 1243l-96 -94l-235 192l-234 -192l-98 94l332 268zM47 1018h160l246 -971h49l205 971h346l207 -971h47l247 971h158l-258 -1018h-342l-207 969h-49l-207 -969h-344z" />
    <glyph glyph-name="Ycircumflex" unicode="&#x176;" horiz-adv-x="1349" 
d="M1006 1669l-97 -94l-235 192l-234 -192l-98 94l332 268zM1102 1444h180l-524 -905v-539h-166v539l-524 905h180l403 -705v-116h47v116z" />
    <glyph glyph-name="ycircumflex" unicode="&#x177;" horiz-adv-x="1210" 
d="M616 1341l-233 -192l-98 94l331 268l332 -268l-96 -94zM961 1018h182l-443 -1008v-284q0 -60 -35.5 -92t-105.5 -29l-393 18v144l366 -19v262l-444 1008h184l320 -793v-78h49v78z" />
    <glyph glyph-name="Ydieresis" unicode="&#x178;" horiz-adv-x="1349" 
d="M463 1606q-65 0 -107.5 41t-42.5 102q0 59 43 100t107 41q63 0 106 -41t43 -100q0 -61 -43 -102t-106 -41zM885 1606q-65 0 -107.5 41t-42.5 102q0 59 43 100t107 41q63 0 106 -41t43 -100q0 -61 -43 -102t-106 -41zM1102 1444h180l-524 -905v-539h-166v539l-524 905h180
l403 -705v-116h47v116z" />
    <glyph glyph-name="Zacute" unicode="&#x179;" horiz-adv-x="1335" 
d="M334 1741l629 162l32 -131l-626 -162zM109 0v324l1069 956v47l-115 -27h-954v144h1118v-324l-1069 -956v-47l114 26h955v-143h-1118z" />
    <glyph glyph-name="zacute" unicode="&#x17a;" horiz-adv-x="1150" 
d="M242 1315l628 162l33 -131l-627 -162zM109 0v307l884 547v47l-114 -27h-770v144h933v-307l-884 -547v-47l114 26h770v-143h-933z" />
    <glyph glyph-name="Zdotaccent" unicode="&#x17b;" horiz-adv-x="1335" 
d="M668 1606q-65 0 -107.5 41t-42.5 102q0 59 43 100t107 41q63 0 106 -41t43 -100q0 -61 -43 -102t-106 -41zM109 0v324l1069 956v47l-115 -27h-954v144h1118v-324l-1069 -956v-47l114 26h955v-143h-1118z" />
    <glyph glyph-name="zdotaccent" unicode="&#x17c;" horiz-adv-x="1150" 
d="M575 1180q-64 0 -106.5 40.5t-42.5 102.5q0 59 42.5 100t106.5 41q63 0 106.5 -41t43.5 -100q0 -61 -43.5 -102t-106.5 -41zM109 0v307l884 547v47l-114 -27h-770v144h933v-307l-884 -547v-47l114 26h770v-143h-933z" />
    <glyph glyph-name="Zcaron" unicode="&#x17d;" horiz-adv-x="1335" 
d="M999 1845l-331 -268l-332 268l98 94l234 -192l235 192zM109 0v324l1069 956v47l-115 -27h-954v144h1118v-324l-1069 -956v-47l114 26h955v-143h-1118z" />
    <glyph glyph-name="zcaron" unicode="&#x17e;" horiz-adv-x="1150" 
d="M907 1419l-332 -268l-331 268l98 94l233 -192l236 192zM109 0v307l884 547v47l-114 -27h-770v144h933v-307l-884 -547v-47l114 26h770v-143h-933z" />
    <glyph glyph-name="uni0218" unicode="&#x218;" horiz-adv-x="1384" 
d="M1296 365q0 -385 -555 -385q-148 0 -261 26.5t-187 73.5t-120 118t-65.5 154.5t-19.5 188.5h168q0 -101 22 -174.5t61 -120.5t101 -74.5t133.5 -38t167.5 -10.5q193 0 290 53.5t97 179.5q0 36 -8 66.5t-27 56t-38.5 45.5t-53.5 38.5t-59.5 31t-70.5 27t-72 23t-78 23
t-76 21.5q-71 21 -118 37t-103.5 39t-92.5 45t-73 53t-57.5 66t-33.5 80.5t-13 99.5q0 171 126 263.5t386 92.5q123 0 222.5 -29t163 -77t106.5 -113t61 -133.5t18 -142.5h-168q0 175 -113 263.5t-290 88.5q-344 0 -344 -209q0 -45 16 -81t42.5 -62t75.5 -51t99.5 -43.5
t130.5 -43.5q216 -67 266 -86q216 -82 292 -198q52 -79 52 -182zM606 -100l150 -41l-109 -340l-149 43z" />
    <glyph glyph-name="uni0219" unicode="&#x219;" horiz-adv-x="1021" 
d="M954 264q0 -61 -20.5 -110t-65 -89.5t-124.5 -62.5t-191 -22q-239 0 -352 103t-113 292h168q0 -258 299 -258q121 0 176 32t55 109q0 24 -7 45t-16 36t-30 29.5t-35.5 23.5t-46.5 20.5t-49.5 17t-58.5 17.5t-60 18q-69 22 -112 38t-93 42.5t-77.5 55.5t-46.5 72t-19 97
q0 123 99 195.5t272 72.5q114 0 197.5 -29t129 -79.5t66.5 -108.5t21 -125h-168q0 205 -246 205q-92 0 -147.5 -30t-55.5 -95q0 -69 49.5 -103.5t184.5 -78.5q19 -6 60 -19t61.5 -20t56.5 -20t56 -22.5t49.5 -26t45.5 -31t35.5 -36t29 -44t16.5 -51t7 -60.5zM436 -100
l150 -41l-109 -340l-149 43z" />
    <glyph glyph-name="uni021A" unicode="&#x21a;" horiz-adv-x="1347" 
d="M1257 1444v-144h-499v-1300h-166v1300h-504v144h1169zM479 -438l109 338l149 -41l-108 -340z" />
    <glyph glyph-name="uni021B" unicode="&#x21b;" horiz-adv-x="886" 
d="M438 121l359 22v-143l-385 -20q-140 -9 -140 139v755h-225v144h225v262l166 51v-313h318v-144h-318v-753zM350 -438l109 338l149 -41l-108 -340z" />
    <glyph glyph-name="circumflex" unicode="&#x2c6;" horiz-adv-x="1003" 
d="M834 1243l-97 -94l-235 192l-234 -192l-98 94l332 268z" />
    <glyph glyph-name="caron" unicode="&#x2c7;" horiz-adv-x="1003" 
d="M834 1419l-332 -268l-332 268l98 94l234 -192l235 192z" />
    <glyph glyph-name="breve" unicode="&#x2d8;" horiz-adv-x="980" 
d="M811 1505q0 -159 -85.5 -255.5t-233.5 -96.5q-149 0 -235.5 96.5t-86.5 255.5h137q0 -113 44 -166t141 -53t139.5 52.5t42.5 166.5h137z" />
    <glyph glyph-name="dotaccent" unicode="&#x2d9;" horiz-adv-x="641" 
d="M319 1180q-64 0 -106.5 40.5t-42.5 102.5q0 59 42.5 100t106.5 41q63 0 106.5 -41t43.5 -100q0 -61 -43.5 -102t-106.5 -41z" />
    <glyph glyph-name="ring" unicode="&#x2da;" horiz-adv-x="768" 
d="M412 1145q-112 0 -177 64.5t-65 158.5q0 92 65 156.5t177 64.5t177.5 -64.5t65.5 -156.5q0 -93 -65.5 -158t-177.5 -65zM412 1272q53 0 79.5 25.5t26.5 70.5q0 44 -27.5 69t-78.5 25q-50 0 -77.5 -25.5t-27.5 -68.5q0 -45 27.5 -70.5t77.5 -25.5z" />
    <glyph glyph-name="ogonek" unicode="&#x2db;" horiz-adv-x="876" 
d="M705 -217v-137l-404 -37q-78 -6 -113 46.5t0 115.5l125 231h146l-135 -258z" />
    <glyph glyph-name="tilde" unicode="&#x2dc;" horiz-adv-x="1081" 
d="M170 1208q0 145 56.5 213t152.5 68q48 0 89 -17t69.5 -41t53 -48t50 -41t49.5 -17q40 0 62 29.5t22 113.5h137q0 -146 -56.5 -213t-152.5 -67q-48 0 -89 17t-69.5 41t-53 48t-50 41t-49.5 17q-40 0 -62 -30t-22 -114h-137z" />
    <glyph glyph-name="hungarumlaut" unicode="&#x2dd;" horiz-adv-x="1067" 
d="M170 1245l293 283l94 -94l-291 -281zM508 1245l293 283l94 -94l-291 -281z" />
    <glyph glyph-name="gravecomb" unicode="&#x300;" horiz-adv-x="0" 
d="M-172 1315l-33 -131l-629 162l35 131z" />
    <glyph glyph-name="acutecomb" unicode="&#x301;" horiz-adv-x="0" 
d="M-834 1315l629 162l33 -131l-627 -162z" />
    <glyph glyph-name="uni0302" unicode="&#x302;" horiz-adv-x="0" 
d="M-170 1243l-96 -94l-236 192l-233 -192l-99 94l332 268z" />
    <glyph glyph-name="tildecomb" unicode="&#x303;" horiz-adv-x="0" 
d="M-911 1208q0 145 56.5 213t152.5 68q48 0 89 -17t69.5 -41t53 -48t50 -41t49.5 -17q40 0 62 29.5t22 113.5h137q0 -146 -56.5 -213t-152.5 -67q-48 0 -89 17t-69.5 41t-53 48t-50 41t-49.5 17q-40 0 -62 -30t-22 -114h-137z" />
    <glyph glyph-name="uni0304" unicode="&#x304;" horiz-adv-x="0" 
d="M-831 1399h661v-133l-661 -2v135z" />
    <glyph glyph-name="uni0306" unicode="&#x306;" horiz-adv-x="0" 
d="M-170 1505q0 -159 -85.5 -255.5t-233.5 -96.5q-149 0 -235.5 96.5t-86.5 255.5h137q0 -113 44 -166t141 -53t139.5 52.5t42.5 166.5h137z" />
    <glyph glyph-name="uni0307" unicode="&#x307;" horiz-adv-x="0" 
d="M-322 1180q-64 0 -106.5 40.5t-42.5 102.5q0 59 42.5 100t106.5 41q63 0 106.5 -41t43.5 -100q0 -61 -43.5 -102t-106.5 -41z" />
    <glyph glyph-name="uni0308" unicode="&#x308;" horiz-adv-x="0" 
d="M-741 1180q-65 0 -107.5 41t-42.5 102q0 59 43 100t107 41q63 0 106 -41t43 -100q0 -61 -43 -102t-106 -41zM-319 1180q-65 0 -107.5 41t-42.5 102q0 59 43 100t107 41q63 0 106 -41t43 -100q0 -61 -43 -102t-106 -41z" />
    <glyph glyph-name="uni030A" unicode="&#x30a;" horiz-adv-x="0" 
d="M-414 1145q-112 0 -176.5 64.5t-64.5 158.5q0 93 64.5 157t176.5 64t178 -64.5t66 -156.5t-66 -157.5t-178 -65.5zM-414 1272q53 0 80 25.5t27 70.5q0 44 -27.5 69t-79.5 25q-50 0 -77 -25t-27 -69q0 -45 27 -70.5t77 -25.5z" />
    <glyph glyph-name="uni030B" unicode="&#x30b;" horiz-adv-x="0" 
d="M-897 1245l293 283l94 -94l-291 -281zM-559 1245l293 283l94 -94l-291 -281z" />
    <glyph glyph-name="uni030C" unicode="&#x30c;" horiz-adv-x="0" 
d="M-170 1419l-332 -268l-332 268l99 94l233 -192l236 192z" />
    <glyph glyph-name="uni0312" unicode="&#x312;" horiz-adv-x="0" 
d="M-319 1589l147 -39l-104 -370l-150 39z" />
    <glyph glyph-name="uni0326" unicode="&#x326;" horiz-adv-x="0" 
d="M-330 -100l150 -41l-109 -340l-149 43z" />
    <glyph glyph-name="uni0327" unicode="&#x327;" horiz-adv-x="0" 
d="M-305 -86q57 0 95 -28.5t38 -86.5q0 -39 -13 -68t-41 -48.5t-62.5 -32t-86.5 -18.5t-103 -8.5t-122 -2.5v127q185 0 232 10q60 15 61 54q0 41 -47 41q-55 0 -144 -54l-71 95l90 106h153l-112 -117q64 31 133 31z" />
    <glyph glyph-name="uni0328" unicode="&#x328;" horiz-adv-x="0" 
d="M-172 -217v-137l-403 -37q-78 -6 -113 46.5t0 115.5l125 231h145l-135 -258z" />
    <glyph glyph-name="uni0400" unicode="&#x400;" horiz-adv-x="1153" 
d="M932 1741l-33 -131l-629 162l35 131zM150 0v1444h894v-144h-727v-505h625v-144h-625v-508h727v-143h-894z" />
    <glyph glyph-name="uni0401" unicode="&#x401;" horiz-adv-x="1153" 
d="M387 1606q-64 0 -106.5 40.5t-42.5 102.5q0 59 42.5 100t106.5 41q63 0 106.5 -41t43.5 -100q0 -61 -43.5 -102t-106.5 -41zM809 1606q-65 0 -107.5 41t-42.5 102q0 59 43 100t107 41q63 0 106 -41t43 -100q0 -61 -43 -102t-106 -41zM150 0v1444h894v-144h-727v-505h625
v-144h-625v-508h727v-143h-894z" />
    <glyph glyph-name="uni0402" unicode="&#x402;" horiz-adv-x="1652" 
d="M1016 891q137 17 239.5 -4.5t165 -78t93 -138t30.5 -189.5q0 -94 -20 -169.5t-58 -127.5t-87 -88.5t-112.5 -57t-129 -29.5t-142.5 -9v143q111 0 187.5 23.5t118 69.5t58.5 104t17 137q0 170 -90 235.5t-276 37.5l-277 -39v-711h-168v1300h-497v144h1161v-144h-496v-446z
" />
    <glyph glyph-name="uni0403" unicode="&#x403;" horiz-adv-x="1107" 
d="M272 1741l629 162l33 -131l-627 -162zM150 0v1444h870v-144h-703v-1300h-167z" />
    <glyph glyph-name="uni0404" unicode="&#x404;" horiz-adv-x="1587" 
d="M805 123q211 0 335.5 113.5t149.5 322.5h168q-32 -270 -205 -424.5t-448 -154.5q-207 0 -362 98t-234.5 265.5t-79.5 379.5q0 211 79.5 378t234.5 265t362 98q275 0 448 -154t205 -423h-168q-25 208 -149.5 321t-335.5 113q-228 0 -358 -143t-148 -383h610v-144h-610
q18 -241 148 -384.5t358 -143.5z" />
    <glyph glyph-name="uni0405" unicode="&#x405;" horiz-adv-x="1384" 
d="M1296 365q0 -385 -555 -385q-148 0 -261 26.5t-187 73.5t-120 118t-65.5 154.5t-19.5 188.5h168q0 -101 22 -174.5t61 -120.5t101 -74.5t133.5 -38t167.5 -10.5q193 0 290 53.5t97 179.5q0 36 -8 66.5t-27 56t-38.5 45.5t-53.5 38.5t-59.5 31t-70.5 27t-72 23t-78 23
t-76 21.5q-71 21 -118 37t-103.5 39t-92.5 45t-73 53t-57.5 66t-33.5 80.5t-13 99.5q0 171 126 263.5t386 92.5q123 0 222.5 -29t163 -77t106.5 -113t61 -133.5t18 -142.5h-168q0 175 -113 263.5t-290 88.5q-344 0 -344 -209q0 -45 16 -81t42.5 -62t75.5 -51t99.5 -43.5
t130.5 -43.5q216 -67 266 -86q216 -82 292 -198q52 -79 52 -182z" />
    <glyph glyph-name="uni0406" unicode="&#x406;" horiz-adv-x="1071" 
d="M942 1300h-321v-1157h321v-143h-813v143h324v1157h-324v144h813v-144z" />
    <glyph glyph-name="uni0407" unicode="&#x407;" horiz-adv-x="1071" 
d="M326 1606q-65 0 -107.5 41t-42.5 102q0 59 43 100t107 41q63 0 106 -41t43 -100q0 -61 -43 -102t-106 -41zM748 1606q-65 0 -107.5 41t-42.5 102q0 59 43 100t107 41q63 0 106 -41t43 -100q0 -61 -43 -102t-106 -41zM942 1300h-321v-1157h321v-143h-813v143h324v1157
h-324v144h813v-144z" />
    <glyph glyph-name="uni0408" unicode="&#x408;" horiz-adv-x="968" 
d="M401 -20l-333 20v143l333 -20q60 -4 103.5 6t73.5 38.5t48.5 67.5t28.5 106t13.5 140t3.5 183v657l-379 -21v144l422 20q59 3 91 -30t32 -93v-696q0 -98 -3.5 -169.5t-14.5 -147t-30 -127.5t-52 -99.5t-78.5 -74t-110.5 -39.5t-148 -8z" />
    <glyph glyph-name="uni0409" unicode="&#x409;" horiz-adv-x="2205" 
d="M1534 905q108 0 191.5 -12.5t155 -44t118 -82.5t72.5 -130t26 -185q0 -105 -26 -183.5t-72.5 -129t-118.5 -82t-155 -44t-191 -12.5h-438v1300h-545q-1 -174 -3.5 -293t-14 -267t-31 -246t-55 -199.5t-86 -160.5t-124.5 -96.5t-169 -37.5v143q172 0 245 245
q61 205 68 678q2 104 2 378h881v-539h270zM1534 143q102 0 169 11.5t121.5 44t79.5 94.5t25 158q0 78 -17.5 133.5t-48 90t-82 54t-109 26.5t-138.5 7h-270v-619h270z" />
    <glyph glyph-name="uni040A" unicode="&#x40a;" horiz-adv-x="2279" 
d="M1608 905q108 0 191 -12.5t154.5 -44t117.5 -83t72 -130t26 -184.5q0 -105 -26 -183.5t-72 -129t-117.5 -82t-154.5 -44t-191 -12.5h-439v641h-852v-641h-167v1444h167v-660h852v660h166v-539h273zM1608 143q102 0 169 11.5t121.5 44t79.5 94.5t25 158q0 78 -17.5 133.5
t-48 90t-82 54t-109 26.5t-138.5 7h-273v-619h273z" />
    <glyph glyph-name="uni040B" unicode="&#x40b;" horiz-adv-x="1685" 
d="M1395 946q141 6 141 -139v-807h-168v801l-795 -39v-762h-167v1300h-338v144h1146v-144h-641v-395z" />
    <glyph glyph-name="uni040C" unicode="&#x40c;" horiz-adv-x="1280" 
d="M965 1772l-627 -162l-35 131l629 162zM1212 0h-202l-590 659q-24 -8 -58 -8h-45v-651h-167v1444h167v-645h54l442 567q57 78 148 78h245v-144h-248l-421 -538z" />
    <glyph glyph-name="uni040D" unicode="&#x40d;" horiz-adv-x="1546" 
d="M1085 1741l-32 -131l-629 162l35 131zM1397 0h-168v1276l26 121h-47l-719 -1397h-337v1444h165v-1276l-26 -121h47l721 1397h338v-1444z" />
    <glyph glyph-name="uni040F" unicode="&#x40f;" horiz-adv-x="1404" 
d="M1087 1444h166v-1444h-467v-270h-168v270h-468v1444h167v-1301h770v1301z" />
    <glyph glyph-name="uni0410" unicode="&#x410;" horiz-adv-x="1413" 
d="M1178 0l-183 565h-579l-180 -565h-168l467 1444h344l464 -1444h-165zM463 709h487l-221 688h-47z" />
    <glyph glyph-name="uni0411" unicode="&#x411;" horiz-adv-x="1280" 
d="M588 905q108 0 191.5 -12.5t155 -44t118 -82.5t72.5 -130t26 -185q0 -105 -26 -183.5t-72.5 -129t-118.5 -82t-155 -44t-191 -12.5h-438v1444h849v-144h-682v-395h271zM588 143q82 0 139.5 7t108.5 26t81.5 53t48 89t17.5 133t-17.5 133.5t-48 90t-81.5 54t-108.5 26.5
t-139.5 7h-271v-619h271z" />
    <glyph glyph-name="uni0412" unicode="&#x412;" horiz-adv-x="1323" 
d="M150 0v1444h382q111 0 193.5 -9.5t153 -33t115 -63.5t69 -102t24.5 -146q0 -76 -23.5 -134.5t-64.5 -94t-91 -54.5t-109 -23v-49q86 -2 155.5 -21t124.5 -59t85 -109t30 -163q0 -107 -39 -182.5t-115.5 -118.5t-177.5 -62.5t-237 -19.5h-475zM317 823h222q77 0 131 5
t104 20.5t80.5 41.5t48 69.5t17.5 103.5q0 47 -9.5 83t-24.5 61.5t-42.5 42.5t-55 27t-71.5 15t-82 6.5t-96 1.5h-222v-477zM317 143h314q100 0 167 10.5t121.5 38.5t80.5 82.5t26 137.5q0 150 -98.5 209t-296.5 59h-314v-537z" />
    <glyph glyph-name="uni0413" unicode="&#x413;" horiz-adv-x="1107" 
d="M150 0v1444h870v-144h-703v-1300h-167z" />
    <glyph glyph-name="uni0414" unicode="&#x414;" horiz-adv-x="1478" 
d="M1276 143h135v-413h-168v270h-1007v-270h-168v413h135q98 245 139 544.5t41 756.5h893v-1301zM371 143h737v1157h-559q-6 -395 -47 -664t-131 -493z" />
    <glyph glyph-name="uni0415" unicode="&#x415;" horiz-adv-x="1153" 
d="M150 0v1444h894v-144h-727v-505h625v-144h-625v-508h727v-143h-894z" />
    <glyph glyph-name="uni0416" unicode="&#x416;" horiz-adv-x="2078" 
d="M2011 1300h-248l-428 -546l676 -754h-205l-589 657q-21 -6 -50 -6h-43v-651h-168v651h-45q-26 0 -47 6l-590 -657h-206l675 756l-428 544h-247v144h245q91 0 148 -78l442 -567h53v645h168v-645h52l442 567q60 78 147 78h246v-144z" />
    <glyph glyph-name="uni0417" unicode="&#x417;" horiz-adv-x="1392" 
d="M129 551h168q0 -230 102.5 -329t323.5 -99q193 0 283 76t90 225q0 264 -279 264h-201v143h201q131 0 194.5 55.5t63.5 172.5q0 262 -352 262q-214 0 -310 -85t-96 -265h-167q0 241 147 367t426 126q251 0 385.5 -105.5t134.5 -277.5q0 -130 -69 -202.5t-209 -94.5v-47
q149 -30 224 -105.5t75 -232.5q0 -195 -142 -307t-399 -112q-287 0 -440.5 139.5t-153.5 431.5z" />
    <glyph glyph-name="uni0418" unicode="&#x418;" horiz-adv-x="1546" 
d="M1397 0h-168v1276l26 121h-47l-719 -1397h-337v1444h165v-1276l-26 -121h47l721 1397h338v-1444z" />
    <glyph glyph-name="uni0419" unicode="&#x419;" horiz-adv-x="1546" 
d="M1071 1931q0 -159 -85.5 -255.5t-233.5 -96.5q-149 0 -235.5 96.5t-86.5 255.5h137q0 -113 44 -166t141 -53t139.5 52.5t42.5 166.5h137zM1397 0h-168v1276l26 121h-47l-719 -1397h-337v1444h165v-1276l-26 -121h47l721 1397h338v-1444z" />
    <glyph glyph-name="uni041A" unicode="&#x41a;" horiz-adv-x="1280" 
d="M1212 0h-202l-590 659q-24 -8 -58 -8h-45v-651h-167v1444h167v-645h54l442 567q57 78 148 78h245v-144h-248l-421 -538z" />
    <glyph glyph-name="uni041B" unicode="&#x41b;" horiz-adv-x="1413" 
d="M1264 1444v-1444h-168v1300h-545q-1 -174 -3.5 -293t-14 -267t-31 -246t-55 -199.5t-86 -160.5t-124.5 -96.5t-169 -37.5v143q172 0 245 245q61 205 68 678q2 104 2 378h881z" />
    <glyph glyph-name="uni041C" unicode="&#x41c;" horiz-adv-x="1841" 
d="M150 0v1444h337l410 -1397h47l412 1397h336v-1444h-168v1276l28 121h-49l-413 -1397h-338l-414 1397h-47l26 -121v-1276h-167z" />
    <glyph glyph-name="uni041D" unicode="&#x41d;" horiz-adv-x="1486" 
d="M1169 1444h166v-1444h-166v641h-852v-641h-167v1444h167v-660h852v660z" />
    <glyph glyph-name="uni041E" unicode="&#x41e;" horiz-adv-x="1605" 
d="M129 723q0 211 79 378t234 265t363 98q206 0 360 -98t233 -265t79 -378q0 -212 -79 -379.5t-233 -265.5t-360 -98q-156 0 -284.5 56.5t-213.5 156.5t-131.5 236t-46.5 294zM297 723q0 -131 32 -240t93.5 -189.5t159.5 -125.5t223 -45t222 45t158 125.5t92.5 189.5
t31.5 240t-31.5 239t-92.5 188.5t-158 125.5t-222 45q-166 0 -282.5 -78.5t-171 -211.5t-54.5 -308z" />
    <glyph glyph-name="uni041F" unicode="&#x41f;" horiz-adv-x="1396" 
d="M1247 1444v-1444h-168v1300h-762v-1300h-167v1444h1097z" />
    <glyph glyph-name="uni0420" unicode="&#x420;" horiz-adv-x="1259" 
d="M555 1444q115 0 203 -12.5t164 -44.5t125 -85t76.5 -135.5t27.5 -193.5q0 -112 -27.5 -195t-76.5 -136t-125 -85.5t-164 -45.5t-203 -13h-238v-498h-167v1444h405zM557 641q81 0 139.5 7t115.5 27.5t92.5 56.5t57 96.5t21.5 144.5q0 83 -21.5 142.5t-57 95t-92.5 56
t-115.5 27t-139.5 6.5h-240v-659h240z" />
    <glyph glyph-name="uni0421" unicode="&#x421;" horiz-adv-x="1587" 
d="M129 723q0 211 79.5 378t234.5 265t362 98q275 0 448 -154t205 -423h-168q-25 208 -149.5 321t-335.5 113q-164 0 -280 -77.5t-172 -211t-56 -309.5q0 -177 56 -311t172 -211.5t280 -77.5q211 0 335.5 113.5t149.5 322.5h168q-32 -270 -205 -424.5t-448 -154.5
q-207 0 -362 98t-234.5 265.5t-79.5 379.5z" />
    <glyph glyph-name="uni0422" unicode="&#x422;" horiz-adv-x="1347" 
d="M1257 1444v-144h-499v-1300h-166v1300h-504v144h1169z" />
    <glyph glyph-name="uni0423" unicode="&#x423;" horiz-adv-x="1320" 
d="M1075 1444h176l-495 -1010v-332q0 -61 -35.5 -93t-106.5 -29l-444 18v145l418 -20v311l-500 1010h176l383 -795v-78h47v78z" />
    <glyph glyph-name="uni0424" unicode="&#x424;" horiz-adv-x="1673" 
d="M1585 719q0 -109 -39 -200.5t-117.5 -164t-208.5 -117.5t-302 -53v-184h-160v184q-173 8 -303.5 53t-209.5 117.5t-118 164t-39 200.5q0 108 39 199t118 163.5t209.5 117t303.5 52.5v193h160v-193q172 -8 302 -52.5t208.5 -117t117.5 -163.5t39 -199zM256 719
q0 -365 502 -391v780q-502 -26 -502 -389zM918 328q499 26 499 391q0 363 -499 389v-780z" />
    <glyph glyph-name="uni0425" unicode="&#x425;" horiz-adv-x="1406" 
d="M68 0l501 692v62l-501 690h192l442 -621l445 621h190l-501 -690v-62l501 -692h-190l-445 623l-442 -623h-192z" />
    <glyph glyph-name="uni0426" unicode="&#x426;" horiz-adv-x="1615" 
d="M1405 143q59 0 91 -32.5t32 -90.5v-290h-168v270h-1210v1444h167v-1301h762v1301h168v-1301h158z" />
    <glyph glyph-name="uni0427" unicode="&#x427;" horiz-adv-x="1429" 
d="M1112 1444h168v-1444h-168v539l-821 -41q-141 -6 -141 139v807h167v-801l795 39v762z" />
    <glyph glyph-name="uni0428" unicode="&#x428;" horiz-adv-x="1937" 
d="M1620 1444h168v-1444h-1638v1444h167v-1301h568v1301h168v-1301h567v1301z" />
    <glyph glyph-name="uni0429" unicode="&#x429;" horiz-adv-x="2156" 
d="M1946 143q58 0 90 -32t32 -91v-290h-167v270h-1751v1444h167v-1301h568v1301h168v-1301h567v1301h168v-1301h158z" />
    <glyph glyph-name="uni042A" unicode="&#x42a;" horiz-adv-x="1472" 
d="M801 905q108 0 191 -12.5t154.5 -44t117.5 -83t72 -130t26 -184.5q0 -105 -26 -183.5t-72 -129t-117.5 -82t-154.5 -44t-191 -12.5h-439v1300h-294v144h460v-539h273zM801 143q102 0 169 11.5t121.5 44t79.5 94.5t25 158q0 78 -17.5 133.5t-48 90t-82 54t-109 26.5
t-138.5 7h-273v-619h273z" />
    <glyph glyph-name="uni042B" unicode="&#x42b;" horiz-adv-x="1669" 
d="M317 1444v-539h271q108 0 191.5 -12.5t155 -44t118 -82.5t72.5 -130t26 -185q0 -105 -26 -183.5t-72.5 -129t-118.5 -82t-155 -44t-191 -12.5h-438v1444h167zM1352 1444h168v-1444h-168v1444zM317 143h271q82 0 139.5 7t108.5 26t81.5 53t48 89t17.5 133t-17.5 133.5
t-48 90t-81.5 54t-108.5 26.5t-139.5 7h-271v-619z" />
    <glyph glyph-name="uni042C" unicode="&#x42c;" horiz-adv-x="1259" 
d="M317 1444v-539h271q108 0 191.5 -12.5t155 -44t118 -82.5t72.5 -130t26 -185q0 -105 -26 -183.5t-72.5 -129t-118.5 -82t-155 -44t-191 -12.5h-438v1444h167zM317 143h271q82 0 139.5 7t108.5 26t81.5 53t48 89t17.5 133t-17.5 133.5t-48 90t-81.5 54t-108.5 26.5
t-139.5 7h-271v-619z" />
    <glyph glyph-name="uni042D" unicode="&#x42d;" horiz-adv-x="1587" 
d="M782 1464q208 0 363 -98t234 -265t79 -378q0 -158 -46.5 -294t-131.5 -236t-213.5 -156.5t-284.5 -56.5q-275 0 -448 154.5t-205 424.5h168q25 -209 149.5 -322.5t335.5 -113.5q229 0 358.5 143t147.5 385h-610v144h610q-18 240 -148 383t-358 143q-211 0 -335.5 -113
t-149.5 -321h-168q32 269 205 423t448 154z" />
    <glyph glyph-name="uni042E" unicode="&#x42e;" horiz-adv-x="1910" 
d="M1167 1464q149 0 266.5 -56t192.5 -156t114.5 -234.5t39.5 -294.5q0 -161 -39 -296t-114.5 -235t-193 -156t-266.5 -56q-141 0 -254.5 50t-189 140t-118.5 212t-52 269h-236v-651h-167v1444h167v-649h236q9 147 52 268t118.5 211t189 140t254.5 50zM1167 123
q113 0 199.5 44.5t140 125.5t80.5 189t27 241t-27 241t-80.5 188.5t-140 124.5t-199.5 44q-114 0 -201 -44t-141 -124.5t-81 -188.5t-27 -241t27 -241t81 -189t141 -125.5t201 -44.5z" />
    <glyph glyph-name="uni042F" unicode="&#x42f;" horiz-adv-x="1300" 
d="M1151 1444v-1444h-168v662h-287h-22l-213 -580q-33 -82 -148 -82h-245v143h249l191 529q-182 24 -274.5 113.5t-92.5 269.5q0 91 25 158.5t70.5 111.5t116 70.5t153 37.5t190.5 11h455zM983 805v495h-293q-80 0 -133 -4.5t-104 -19t-80 -41t-46.5 -71t-17.5 -109.5
t17.5 -110.5t46.5 -73t80 -42.5t104.5 -19.5t132.5 -4.5h293z" />
    <glyph glyph-name="uni0430" unicode="&#x430;" horiz-adv-x="1212" 
d="M109 283q0 262 333 297l406 38q-7 138 -80.5 208.5t-206.5 70.5q-58 0 -107 -13.5t-90 -42.5t-64.5 -80.5t-23.5 -121.5h-163q0 80 30 151.5t85 127t141.5 88t191.5 32.5q211 0 333 -126.5t122 -333.5v-435h149v-143h-180q-58 0 -89.5 31t-31.5 88v55l27 107h-49
q-16 -62 -44 -113.5t-74 -95t-116 -68t-159 -24.5q-84 0 -148 22t-99.5 54t-57.5 75.5t-28.5 79t-6.5 72.5zM276 303q0 -87 51.5 -133.5t141.5 -46.5q171 0 275 105t104 266l-377 -39q-100 -9 -147.5 -44t-47.5 -108z" />
    <glyph glyph-name="uni0431" unicode="&#x431;" horiz-adv-x="1314" 
d="M129 670q0 152 32.5 264t102.5 191.5t166.5 132.5t235.5 94q176 50 230 80t67 88h202q-10 -55 -36 -96t-59.5 -68t-90.5 -50t-109.5 -38.5t-135.5 -36.5l-48 -12q-209 -53 -308.5 -150t-117.5 -276l-47 -117h47q34 163 159 262.5t302 99.5q231 0 357 -142t126 -374
q0 -118 -33.5 -216t-98.5 -171.5t-168 -114t-236 -40.5q-261 0 -400 175.5t-139 514.5zM297 500q0 -74 22.5 -140.5t66.5 -120t116.5 -85t165.5 -31.5q186 0 277 103t91 294q0 177 -80.5 276t-248.5 99q-187 0 -298.5 -106t-111.5 -289z" />
    <glyph glyph-name="uni0432" unicode="&#x432;" horiz-adv-x="1091" 
d="M150 0v1018h368q97 0 167.5 -11t127 -37.5t85 -75.5t28.5 -120q0 -60 -18.5 -103t-50 -65.5t-62.5 -33t-66 -13.5v-49q272 -4 272 -242q0 -268 -407 -268h-444zM313 596h205q48 0 76.5 1.5t60 6.5t48.5 14.5t32 26.5t21 42t6 61q0 83 -55 110t-189 27h-205v-289zM313 133
h281q133 0 188.5 30t55.5 126q0 102 -56.5 138t-187.5 36h-281v-330z" />
    <glyph glyph-name="uni0433" unicode="&#x433;" horiz-adv-x="907" 
d="M150 0v1018h710v-144h-543v-874h-167z" />
    <glyph glyph-name="uni0434" unicode="&#x434;" horiz-adv-x="1355" 
d="M1227 143v-413h-168v270h-783v-270h-167v413h135q82 165 116.5 367.5t34.5 507.5h697v-875h135zM412 143h512v731h-363q-8 -241 -42.5 -413.5t-106.5 -317.5z" />
    <glyph glyph-name="uni0435" unicode="&#x435;" horiz-adv-x="1220" 
d="M109 522q0 241 136 378.5t357 137.5q218 0 346.5 -131.5t128.5 -363.5v-66h-805q4 -76 25 -138t61.5 -113t109 -79t159.5 -28q127 0 208 60.5t109 176.5h168q-13 -52 -34 -100t-60.5 -100t-90.5 -89.5t-129 -62t-171 -24.5q-133 0 -234.5 43t-162 118.5t-91 171.5
t-30.5 209zM272 604h641q0 128 -82 210.5t-229 82.5q-148 0 -239 -83.5t-91 -209.5z" />
    <glyph glyph-name="uni0436" unicode="&#x436;" horiz-adv-x="1617" 
d="M1550 874h-166l-262 -350l428 -524h-196l-361 438q-8 -2 -28 -2h-72v-436h-168v436h-72q-20 0 -28 2l-361 -438h-196l428 524l-263 350h-165v144h161q93 0 148 -76l266 -356h82v432h168v-432h82l266 356q55 76 148 76h161v-144z" />
    <glyph glyph-name="uni0437" unicode="&#x437;" horiz-adv-x="1093" 
d="M129 397h164q0 -160 60.5 -222t211.5 -62q129 0 182.5 46.5t53.5 143.5q0 87 -44.5 127.5t-138.5 40.5h-137v135h137q90 0 126 36.5t36 111.5q0 74 -48 112.5t-175 38.5q-143 0 -193.5 -48t-50.5 -157h-163q0 162 102.5 250t304.5 88q185 0 286 -74.5t101 -191.5
q0 -183 -205 -209v-47q103 -15 164.5 -71.5t61.5 -159.5q0 -141 -105 -223t-295 -82q-436 0 -436 417z" />
    <glyph glyph-name="uni0438" unicode="&#x438;" horiz-adv-x="1236" 
d="M1126 0h-165v872l26 97h-47l-453 -969h-337v1018h167v-871l-26 -100h47l453 971h335v-1018z" />
    <glyph glyph-name="uni0439" unicode="&#x439;" horiz-adv-x="1236" 
d="M961 1505q0 -159 -86 -255.5t-234 -96.5q-149 0 -235.5 96.5t-86.5 255.5h138q0 -114 43.5 -166.5t140.5 -52.5t139.5 52.5t42.5 166.5h138zM1126 0h-165v872l26 97h-47l-453 -969h-337v1018h167v-871l-26 -100h47l453 971h335v-1018z" />
    <glyph glyph-name="uni043A" unicode="&#x43a;" horiz-adv-x="1067" 
d="M999 0h-196l-363 442q-24 -6 -51 -6h-72v-436h-167v1018h167v-432h84l265 356q55 76 149 76h160v-144h-166l-250 -335z" />
    <glyph glyph-name="uni043B" unicode="&#x43b;" horiz-adv-x="1187" 
d="M1038 1018v-1018h-168v874h-397q0 -93 -1.5 -161t-5 -144t-10 -130.5t-16.5 -113t-24.5 -98.5t-34.5 -79.5t-46.5 -64.5t-59.5 -45t-74.5 -29t-91.5 -9v143q135 0 165.5 178.5t30.5 671.5v25h733z" />
    <glyph glyph-name="uni043C" unicode="&#x43c;" horiz-adv-x="1499" 
d="M150 0v1018h335l240 -971h47l240 971h338v-1018h-168v870l28 99h-49l-243 -969h-336l-244 969h-47l26 -99v-870h-167z" />
    <glyph glyph-name="uni043D" unicode="&#x43d;" horiz-adv-x="1208" 
d="M891 1018h166v-1018h-166v438h-574v-438h-167v1018h167v-436h574v436z" />
    <glyph glyph-name="uni043E" unicode="&#x43e;" horiz-adv-x="1292" 
d="M109 510q0 147 65.5 267t189.5 190.5t283 70.5q158 0 281 -70.5t188.5 -190.5t65.5 -267q0 -148 -65.5 -268.5t-188.5 -191t-281 -70.5q-240 0 -389 151.5t-149 378.5zM276 510q0 -167 98 -277t273 -110q174 0 271.5 110t97.5 277q0 166 -98 275.5t-271 109.5
q-175 0 -273 -109.5t-98 -275.5z" />
    <glyph glyph-name="uni043F" unicode="&#x43f;" horiz-adv-x="1140" 
d="M991 1018v-1018h-168v874h-506v-874h-167v1018h841z" />
    <glyph glyph-name="uni0440" unicode="&#x440;" horiz-adv-x="1343" 
d="M150 1018h167v-150l-26 -116h47q34 127 139.5 206.5t272.5 79.5q218 0 351.5 -149.5t133.5 -380.5q0 -229 -133.5 -378.5t-351.5 -149.5q-167 0 -272.5 79t-139.5 205h-47l26 -114v-523h-167v1391zM317 508q0 -192 107.5 -288.5t275.5 -96.5q166 0 266.5 96.5
t100.5 288.5q0 193 -100 290t-267 97q-80 0 -148 -22.5t-121.5 -68.5t-83.5 -121.5t-30 -174.5z" />
    <glyph glyph-name="uni0441" unicode="&#x441;" horiz-adv-x="1212" 
d="M109 510q0 148 60 266.5t180 190t280 71.5q78 0 154.5 -22.5t146 -68.5t117 -127t57.5 -187h-170q-11 71 -39 123t-69.5 81.5t-90.5 43.5t-106 14q-88 0 -157 -30.5t-111 -84t-63.5 -122t-21.5 -148.5q0 -81 21.5 -150t63.5 -122.5t111 -84t157 -30.5q57 0 106 14
t90.5 43.5t69.5 81.5t39 123h170q-10 -106 -57.5 -187t-117 -127t-146 -68.5t-154.5 -22.5q-160 0 -280 71.5t-180 190.5t-60 268z" />
    <glyph glyph-name="uni0442" unicode="&#x442;" horiz-adv-x="1112" 
d="M1024 1018v-144h-383v-874h-168v874h-385v144h936z" />
    <glyph glyph-name="uni0443" unicode="&#x443;" horiz-adv-x="1210" 
d="M961 1018h182l-443 -1008v-284q0 -60 -35.5 -92t-105.5 -29l-393 18v144l366 -19v262l-444 1008h184l320 -793v-78h49v78z" />
    <glyph glyph-name="uni0444" unicode="&#x444;" horiz-adv-x="1517" 
d="M1407 510q0 -217 -146.5 -362t-420.5 -166v-351h-160v351q-275 21 -423 166t-148 362q0 215 148 360t423 166v346h160v-346q138 -11 247 -55.5t178.5 -115t105.5 -160.5t36 -195zM276 510q0 -159 99.5 -262t304.5 -121v764q-205 -18 -304.5 -121t-99.5 -260zM840 127
q204 18 302.5 121t98.5 262q0 156 -99 259.5t-302 121.5v-764z" />
    <glyph glyph-name="uni0445" unicode="&#x445;" horiz-adv-x="1191" 
d="M88 0l383 485v50l-383 483h199l309 -410l309 410h199l-383 -483v-50l383 -485h-199l-309 412l-309 -412h-199z" />
    <glyph glyph-name="uni0446" unicode="&#x446;" horiz-adv-x="1333" 
d="M1141 143q60 0 91.5 -32t31.5 -91v-290h-166v270h-948v1018h167v-875h506v875h168v-875h150z" />
    <glyph glyph-name="uni0447" unicode="&#x447;" horiz-adv-x="1245" 
d="M928 1018h168v-1018h-168v369l-637 -41q-141 -9 -141 139v551h167v-547l611 41v506z" />
    <glyph glyph-name="uni0448" unicode="&#x448;" horiz-adv-x="1568" 
d="M1251 1018h168v-1018h-1269v1018h167v-875h383v875h168v-875h383v875z" />
    <glyph glyph-name="uni0449" unicode="&#x449;" horiz-adv-x="1761" 
d="M1569 143q60 0 91.5 -32t31.5 -91v-290h-166v270h-1376v1018h167v-875h383v875h168v-875h383v875h168v-875h150z" />
    <glyph glyph-name="uni044A" unicode="&#x44a;" horiz-adv-x="1245" 
d="M700 725q96 0 171 -17t137 -57t95.5 -113t33.5 -176t-33.5 -176t-95.5 -112.5t-137 -56.5t-171 -17h-378v874h-254v144h421v-293h211zM680 143q58 0 96.5 3.5t78 16.5t62.5 36t37.5 64t14.5 99t-14.5 99t-37.5 64.5t-62.5 36.5t-78 16.5t-96.5 3.5h-191v-439h191z" />
    <glyph glyph-name="uni044B" unicode="&#x44b;" horiz-adv-x="1425" 
d="M528 725q96 0 171 -17t137 -57t95.5 -113t33.5 -176t-33.5 -176t-95.5 -112.5t-137 -56.5t-171 -17h-378v1018h167v-293h211zM1108 0v1018h166v-1018h-166zM317 143h191q58 0 96.5 3.5t78.5 16.5t62.5 36t37 64t14.5 99t-14.5 99t-37 64.5t-62 36.5t-78.5 16.5t-97 3.5
h-191v-439z" />
    <glyph glyph-name="uni044C" unicode="&#x44c;" horiz-adv-x="1073" 
d="M528 725q96 0 171 -17t137 -57t95.5 -113t33.5 -176t-33.5 -176t-95.5 -112.5t-137 -56.5t-171 -17h-378v1018h167v-293h211zM317 143h191q58 0 96.5 3.5t78.5 16.5t62.5 36t37 64t14.5 99t-14.5 99t-37 64.5t-62 36.5t-78.5 16.5t-97 3.5h-191v-439z" />
    <glyph glyph-name="uni044D" unicode="&#x44d;" horiz-adv-x="1212" 
d="M584 1038q160 0 280 -71.5t180 -190t60 -266.5q0 -149 -60 -268t-180 -190.5t-280 -71.5q-78 0 -154.5 22.5t-146 68.5t-117 127t-57.5 187h170q11 -71 39 -123t69.5 -81.5t90.5 -43.5t106 -14q155 0 243.5 89t104.5 232h-445v131h445q-16 142 -105 231t-243 89
q-57 0 -106 -14t-90.5 -43.5t-69.5 -81.5t-39 -123h-170q10 106 57.5 187t117 127t146 68.5t154.5 22.5z" />
    <glyph glyph-name="uni044E" unicode="&#x44e;" horiz-adv-x="1646" 
d="M1047 1038q120 0 215 -42t154.5 -115t90.5 -167.5t31 -203.5q0 -111 -31 -206t-91 -168t-154.5 -114.5t-214.5 -41.5q-218 0 -344 127t-146 331h-240v-438h-167v1018h167v-436h240q10 97 45.5 179t95.5 144t149.5 97.5t199.5 35.5zM1047 123q86 0 149.5 30t101 84t55 122
t17.5 151q0 82 -17.5 149.5t-55 121.5t-101 84t-149.5 30t-150.5 -30t-102 -84t-55.5 -121.5t-18 -149.5q0 -173 79 -280t247 -107z" />
    <glyph glyph-name="uni044F" unicode="&#x44f;" horiz-adv-x="997" 
d="M846 1018v-1018h-166v444h-127l-207 -364q-52 -80 -147 -80h-152v139h166l176 314q-133 20 -200.5 85.5t-67.5 192.5q0 150 102.5 218.5t298.5 68.5h324zM680 578v307h-143q-130 0 -189 -33t-59 -121t59 -120.5t189 -32.5h143z" />
    <glyph glyph-name="uni0450" unicode="&#x450;" horiz-adv-x="1220" 
d="M944 1315l-33 -131l-628 162l34 131zM109 522q0 241 136 378.5t357 137.5q218 0 346.5 -131.5t128.5 -363.5v-66h-805q4 -76 25 -138t61.5 -113t109 -79t159.5 -28q127 0 208 60.5t109 176.5h168q-13 -52 -34 -100t-60.5 -100t-90.5 -89.5t-129 -62t-171 -24.5
q-133 0 -234.5 43t-162 118.5t-91 171.5t-30.5 209zM272 604h641q0 128 -82 210.5t-229 82.5q-148 0 -239 -83.5t-91 -209.5z" />
    <glyph glyph-name="uni0451" unicode="&#x451;" horiz-adv-x="1220" 
d="M399 1180q-64 0 -106.5 40.5t-42.5 102.5q0 59 42.5 100t106.5 41q63 0 106.5 -41t43.5 -100q0 -61 -43.5 -102t-106.5 -41zM821 1180q-64 0 -106.5 40.5t-42.5 102.5q0 59 42.5 100t106.5 41q63 0 106.5 -41t43.5 -100q0 -61 -43.5 -102t-106.5 -41zM109 522
q0 241 136 378.5t357 137.5q218 0 346.5 -131.5t128.5 -363.5v-66h-805q4 -76 25 -138t61.5 -113t109 -79t159.5 -28q127 0 208 60.5t109 176.5h168q-13 -52 -34 -100t-60.5 -100t-90.5 -89.5t-129 -62t-171 -24.5q-133 0 -234.5 43t-162 118.5t-91 171.5t-30.5 209z
M272 604h641q0 128 -82 210.5t-229 82.5q-148 0 -239 -83.5t-91 -209.5z" />
    <glyph glyph-name="uni0452" unicode="&#x452;" horiz-adv-x="1306" 
d="M797 1038q179 0 280 -104t101 -311v-893q0 -60 -36 -93t-106 -30l-393 20v144l367 -21v850q0 158 -62 226.5t-196 68.5q-163 0 -265 -120.5t-102 -323.5v-451h-166v1249h-106v137h106v119h166v-119h303v-137h-303v-407l-27 -117h48q32 144 131.5 228.5t259.5 84.5z" />
    <glyph glyph-name="uni0453" unicode="&#x453;" horiz-adv-x="909" 
d="M156 1315l628 162l33 -131l-629 -162zM154 0v1018h708v-144h-543v-874h-165z" />
    <glyph glyph-name="uni0454" unicode="&#x454;" horiz-adv-x="1212" 
d="M629 123q57 0 106 14t90.5 43.5t69.5 81.5t39 123h170q-10 -106 -57.5 -187t-117 -127t-146 -68.5t-154.5 -22.5q-160 0 -280 71.5t-180 190.5t-60 268q0 148 60 266.5t180 190t280 71.5q78 0 154.5 -22.5t146 -68.5t117 -127t57.5 -187h-170q-11 71 -39 123t-69.5 81.5
t-90.5 43.5t-106 14q-154 0 -243 -89t-105 -231h444v-131h-444q16 -143 104.5 -232t243.5 -89z" />
    <glyph glyph-name="uni0455" unicode="&#x455;" horiz-adv-x="1021" 
d="M954 264q0 -61 -20.5 -110t-65 -89.5t-124.5 -62.5t-191 -22q-239 0 -352 103t-113 292h168q0 -258 299 -258q121 0 176 32t55 109q0 24 -7 45t-16 36t-30 29.5t-35.5 23.5t-46.5 20.5t-49.5 17t-58.5 17.5t-60 18q-69 22 -112 38t-93 42.5t-77.5 55.5t-46.5 72t-19 97
q0 123 99 195.5t272 72.5q114 0 197.5 -29t129 -79.5t66.5 -108.5t21 -125h-168q0 205 -246 205q-92 0 -147.5 -30t-55.5 -95q0 -69 49.5 -103.5t184.5 -78.5q19 -6 60 -19t61.5 -20t56.5 -20t56 -22.5t49.5 -26t45.5 -31t35.5 -36t29 -44t16.5 -51t7 -60.5z" />
    <glyph glyph-name="uni0456" unicode="&#x456;" horiz-adv-x="907" 
d="M449 1180q-63 0 -105.5 41t-42.5 102q0 59 42.5 100t105.5 41q61 0 104 -41t43 -100q0 -61 -42.5 -102t-104.5 -41zM109 0v143h286v750l-211 -19v144l236 20q69 6 101 -27.5t32 -95.5v-772h287v-143h-731z" />
    <glyph glyph-name="uni0457" unicode="&#x457;" horiz-adv-x="915" 
d="M201 1180q-63 0 -105.5 41t-42.5 102q0 59 42.5 100t105.5 41q64 0 107.5 -41t43.5 -100q0 -61 -43 -102t-108 -41zM623 1180q-64 0 -106 40.5t-42 102.5q0 59 42 100t106 41q63 0 106 -41t43 -100q0 -61 -43 -102t-106 -41zM117 0v143h289v750l-216 -19v144l234 20
q69 6 101 -30t32 -109v-756h289v-143h-729z" />
    <glyph glyph-name="uni0458" unicode="&#x458;" horiz-adv-x="583" 
d="M322 1180q-63 0 -105.5 41t-42.5 102q0 59 42.5 100t105.5 41t106 -41t43 -100q0 -61 -43 -102t-106 -41zM47 -375l184 322q35 61 35 139v807l-219 -19v144l248 18q69 6 104 -27t35 -94v-854q0 -78 -35 -139l-168 -297h-184z" />
    <glyph glyph-name="uni0459" unicode="&#x459;" horiz-adv-x="1794" 
d="M1249 725q96 0 171 -17t137 -57t95.5 -113t33.5 -176t-33.5 -176t-95.5 -112.5t-137 -56.5t-171 -17h-379v874h-397q0 -93 -1.5 -161t-5 -144t-10 -130.5t-16.5 -113t-24.5 -98.5t-34.5 -79.5t-46.5 -64.5t-59.5 -45t-74.5 -29t-91.5 -9v143q135 0 165.5 178.5
t30.5 671.5v25h733v-293h211zM1229 143q58 0 96.5 3.5t78 16.5t62.5 36t37.5 64t14.5 99t-14.5 99t-37.5 64.5t-62.5 36.5t-78 16.5t-96.5 3.5h-191v-439h191z" />
    <glyph glyph-name="uni045A" unicode="&#x45a;" horiz-adv-x="1814" 
d="M1268 725q76 0 138.5 -10t119 -35.5t95 -66t61 -104.5t22.5 -147t-22.5 -146.5t-61 -104t-95 -66t-119 -35.5t-138.5 -10h-377v438h-574v-438h-167v1018h167v-436h574v436h166v-293h211zM1247 143q58 0 97 3.5t79 16.5t63 36t37.5 64t14.5 99t-14.5 99t-37.5 64.5
t-63 36.5t-79 16.5t-97 3.5h-190v-439h190z" />
    <glyph glyph-name="uni045B" unicode="&#x45b;" horiz-adv-x="1302" 
d="M795 1038q177 0 278 -104.5t101 -310.5v-623h-168v600q0 157 -61.5 226t-194.5 69q-164 0 -265.5 -120.5t-101.5 -323.5v-451h-168v1249h-106v137h106v119h168v-119h301v-137h-301v-407l-29 -117h49q32 144 132 228.5t260 84.5z" />
    <glyph glyph-name="uni045C" unicode="&#x45c;" horiz-adv-x="1067" 
d="M858 1346l-627 -162l-34 131l628 162zM999 0h-196l-363 442q-24 -6 -51 -6h-72v-436h-167v1018h167v-432h84l265 356q55 76 149 76h160v-144h-166l-250 -335z" />
    <glyph glyph-name="uni045F" unicode="&#x45f;" horiz-adv-x="1206" 
d="M889 1014h168v-1014h-371v-270h-166v270h-370v1014h167v-871h572v871z" />
    <glyph glyph-name="uni0490" unicode="&#x490;" horiz-adv-x="1067" 
d="M852 1634h168v-334h-703v-1300h-167v1444h702v190z" />
    <glyph glyph-name="uni0491" unicode="&#x491;" horiz-adv-x="907" 
d="M692 1298h168v-424h-543v-874h-167v1018h542v280z" />
    <glyph glyph-name="Wgrave" unicode="&#x1e80;" horiz-adv-x="2074" 
d="M1370 1741l-33 -131l-628 162l34 131zM68 1444h159l295 -1397h49l293 1397h346l293 -1397h49l295 1397h160l-307 -1444h-342l-297 1397h-47l-295 -1397h-342z" />
    <glyph glyph-name="wgrave" unicode="&#x1e81;" horiz-adv-x="1761" 
d="M1214 1315l-32 -131l-629 162l35 131zM47 1018h160l246 -971h49l205 971h346l207 -971h47l247 971h158l-258 -1018h-342l-207 969h-49l-207 -969h-344z" />
    <glyph glyph-name="Wacute" unicode="&#x1e82;" horiz-adv-x="2074" 
d="M702 1741l629 162l33 -131l-627 -162zM68 1444h159l295 -1397h49l293 1397h346l293 -1397h49l295 1397h160l-307 -1444h-342l-297 1397h-47l-295 -1397h-342z" />
    <glyph glyph-name="wacute" unicode="&#x1e83;" horiz-adv-x="1761" 
d="M545 1315l629 162l32 -131l-626 -162zM47 1018h160l246 -971h49l205 971h346l207 -971h47l247 971h158l-258 -1018h-342l-207 969h-49l-207 -969h-344z" />
    <glyph glyph-name="Wdieresis" unicode="&#x1e84;" horiz-adv-x="2074" 
d="M825 1606q-64 0 -106.5 40.5t-42.5 102.5q0 59 42.5 100t106.5 41q63 0 106.5 -41t43.5 -100q0 -61 -43.5 -102t-106.5 -41zM1247 1606q-64 0 -106.5 40.5t-42.5 102.5q0 59 42.5 100t106.5 41q63 0 106.5 -41t43.5 -100q0 -61 -43.5 -102t-106.5 -41zM68 1444h159
l295 -1397h49l293 1397h346l293 -1397h49l295 1397h160l-307 -1444h-342l-297 1397h-47l-295 -1397h-342z" />
    <glyph glyph-name="wdieresis" unicode="&#x1e85;" horiz-adv-x="1761" 
d="M670 1180q-65 0 -107.5 41t-42.5 102q0 59 43 100t107 41q63 0 106 -41t43 -100q0 -61 -43 -102t-106 -41zM1092 1180q-65 0 -107.5 41t-42.5 102q0 59 43 100t107 41q63 0 106 -41t43 -100q0 -61 -43 -102t-106 -41zM47 1018h160l246 -971h49l205 971h346l207 -971h47
l247 971h158l-258 -1018h-342l-207 969h-49l-207 -969h-344z" />
    <glyph glyph-name="uni1E9E" unicode="&#x1e9e;" horiz-adv-x="1275" 
d="M432 0v143l322 -18q131 -8 198.5 60.5t67.5 213.5q0 86 -27 146t-69.5 87t-96.5 34.5t-107 -3.5t-102 -34l-69 276l285 221q0 95 -51.5 145t-174.5 50q-75 0 -126 -13.5t-90 -47.5t-57 -95t-18 -153v-1012h-167v1036q0 112 35 196t98.5 134t144.5 74t180 24
q192 0 292.5 -104t100.5 -287l-372 -282l10 -48q82 30 160.5 36.5t148.5 -14t123 -65.5t84 -124.5t31 -184.5q0 -224 -116.5 -324.5t-315.5 -86.5z" />
    <glyph glyph-name="Ygrave" unicode="&#x1ef2;" horiz-adv-x="1349" 
d="M1008 1741l-33 -131l-629 162l35 131zM1102 1444h180l-524 -905v-539h-166v539l-524 905h180l403 -705v-116h47v116z" />
    <glyph glyph-name="ygrave" unicode="&#x1ef3;" horiz-adv-x="1210" 
d="M950 1315l-32 -131l-629 162l35 131zM961 1018h182l-443 -1008v-284q0 -60 -35.5 -92t-105.5 -29l-393 18v144l366 -19v262l-444 1008h184l320 -793v-78h49v78z" />
    <glyph glyph-name="endash" unicode="&#x2013;" horiz-adv-x="1730" 
d="M170 584h1391v-138h-1391v138z" />
    <glyph glyph-name="emdash" unicode="&#x2014;" horiz-adv-x="2140" 
d="M170 584h1800v-138h-1800v138z" />
    <glyph glyph-name="quoteleft" unicode="&#x2018;" horiz-adv-x="624" 
d="M319 1528l134 -502l-148 -39l-135 502z" />
    <glyph glyph-name="quoteright" unicode="&#x2019;" horiz-adv-x="624" 
d="M305 1528l150 -39l-136 -502l-147 39z" />
    <glyph glyph-name="quotesinglbase" unicode="&#x201a;" horiz-adv-x="649" 
d="M330 334l149 -39l-160 -594l-149 41z" />
    <glyph glyph-name="quotedblleft" unicode="&#x201c;" horiz-adv-x="909" 
d="M319 1528l134 -502l-148 -39l-135 502zM604 1528l133 -502l-147 -39l-135 502z" />
    <glyph glyph-name="quotedblright" unicode="&#x201d;" horiz-adv-x="909" 
d="M305 1528l150 -39l-136 -502l-147 39zM590 1528l149 -39l-135 -502l-147 39z" />
    <glyph glyph-name="quotedblbase" unicode="&#x201e;" horiz-adv-x="935" 
d="M330 334l149 -39l-160 -594l-149 41zM616 334l150 -39l-160 -594l-149 41z" />
    <glyph glyph-name="dagger" unicode="&#x2020;" horiz-adv-x="1140" 
d="M969 1350v-136h-330v-905h-137v905h-332v136h332v397h137v-397h330z" />
    <glyph glyph-name="daggerdbl" unicode="&#x2021;" horiz-adv-x="1140" 
d="M969 1214h-330v-372h330v-135h-330v-398h-137v398h-332v135h332v372h-332v136h332v397h137v-397h330v-136z" />
    <glyph glyph-name="bullet" unicode="&#x2022;" horiz-adv-x="1333" 
d="M664 12q-139 0 -252.5 65.5t-177.5 180t-64 254.5q0 208 141.5 351t352.5 143q206 0 352.5 -144t146.5 -350q0 -139 -67.5 -254t-182 -180.5t-249.5 -65.5z" />
    <glyph glyph-name="ellipsis" unicode="&#x2026;" horiz-adv-x="1671" 
d="M340 -20q-72 0 -121 49.5t-49 122.5q0 71 49 119t121 48q71 0 120.5 -48.5t49.5 -118.5q0 -73 -49.5 -122.5t-120.5 -49.5zM834 -20q-72 0 -120 49t-48 123q0 71 48 119t120 48q71 0 121.5 -48.5t50.5 -118.5q0 -73 -50.5 -122.5t-121.5 -49.5zM1329 -20q-72 0 -120 49
t-48 123q0 71 48 119t120 48q71 0 121.5 -48.5t50.5 -118.5q0 -73 -50.5 -122.5t-121.5 -49.5z" />
    <glyph glyph-name="perthousand" unicode="&#x2030;" horiz-adv-x="3397" 
d="M1442 1663l129 -45l-625 -1845l-129 47zM594 678q-187 0 -305.5 123t-118.5 301t118.5 301t305.5 123t305.5 -123t118.5 -301t-118.5 -301t-305.5 -123zM594 815q125 0 207 84t82 203t-82 203t-207 84q-124 0 -205.5 -84t-81.5 -203t81.5 -203t205.5 -84zM1804 -41
q-187 0 -305.5 123t-118.5 301t118.5 301t305.5 123t305.5 -123t118.5 -301t-118.5 -301t-305.5 -123zM2804 -41q-187 0 -305.5 123t-118.5 301t118.5 301t305.5 123t305.5 -123t118.5 -301t-118.5 -301t-305.5 -123zM1804 96q125 0 206 84t81 203t-81 203t-206 84
t-205.5 -83.5t-80.5 -203.5t80.5 -203.5t205.5 -83.5zM2804 96q125 0 205.5 83.5t80.5 203.5t-80.5 203.5t-205.5 83.5t-206 -84t-81 -203t81 -203t206 -84z" />
    <glyph glyph-name="guilsinglleft" unicode="&#x2039;" horiz-adv-x="1017" 
d="M848 37l-109 -94l-569 565l569 563l109 -94l-473 -469z" />
    <glyph glyph-name="guilsinglright" unicode="&#x203a;" horiz-adv-x="1017" 
d="M170 37l473 471l-473 469l109 94l569 -563l-569 -565z" />
    <glyph glyph-name="fraction" unicode="&#x2044;" horiz-adv-x="765" 
d="M631 1667l129 -45l-625 -1845l-129 45z" />
    <glyph glyph-name="Euro" unicode="&#x20ac;" horiz-adv-x="1662" 
d="M952 123q163 0 258 87t119 245h164q-35 -219 -175 -347t-366 -128q-248 0 -395.5 148.5t-187.5 401.5h-199v129h186q-2 20 -2 64q0 39 2 59h-186v129h199q19 124 64.5 223.5t116.5 174t173.5 115t228.5 40.5q227 0 366.5 -127t174.5 -346h-166q-22 157 -116.5 243.5
t-258.5 86.5q-354 0 -417 -410h475v-129h-486q-2 -18 -2 -59q0 -44 2 -64h486v-129h-473q60 -407 415 -407z" />
    <glyph glyph-name="trademark" unicode="&#x2122;" horiz-adv-x="1824" 
d="M727 1444v-109h-213v-575h-127v575h-217v109h557zM1393 1444h260v-684h-129v569l16 68h-27l-149 -637h-264l-152 637h-26l16 -68v-569h-131v684h262l150 -637h22z" />
    <glyph glyph-name="oneeighth" unicode="&#x215b;" 
d="M1223 1667l129 -45l-625 -1845l-129 45zM88 1130q96 64 132.5 133.5t37.5 200.5h303v-870h-153v749l16 74h-31q-6 -98 -28.5 -171.5t-77 -139.5t-142.5 -107zM1249 233q0 104 62.5 160.5t167.5 71.5v27q-79 10 -131 57t-52 131q0 98 87 154.5t237 56.5q149 0 236.5 -56.5
t87.5 -154.5q0 -83 -52.5 -130.5t-130.5 -57.5v-27q105 -15 168.5 -71.5t63.5 -160.5q0 -113 -98 -183t-275 -70q-176 0 -273.5 70t-97.5 183zM1450 655q0 -50 41.5 -81t128.5 -31q88 0 129 31t41 81q0 48 -41 77.5t-129 29.5q-87 0 -128.5 -29.5t-41.5 -77.5zM1403 260
q0 -65 51 -108t166 -43q114 0 166.5 43.5t52.5 107.5q0 65 -52.5 109.5t-166.5 44.5q-115 0 -166 -44.5t-51 -109.5z" />
    <glyph glyph-name="threeeighths" unicode="&#x215c;" horiz-adv-x="2326" 
d="M1413 1667l129 -45l-624 -1845l-130 45zM88 932h154q0 -125 56.5 -173t176.5 -48q102 0 150.5 34.5t48.5 110.5q0 139 -166 139h-100v131h100q64 0 109 26t45 91q0 60 -44 90.5t-143 30.5q-115 0 -168 -40.5t-53 -131.5h-154q0 142 100 221.5t275 79.5q158 0 249 -66.5
t91 -166.5q0 -78 -53 -124.5t-144 -60.5v-31q98 -20 153.5 -66.5t55.5 -137.5q0 -118 -94.5 -188t-257.5 -70q-181 0 -284 87t-103 263zM1495 233q0 104 62 160.5t167 71.5v27q-79 10 -130.5 57t-51.5 131q0 98 87 154.5t237 56.5q148 0 235.5 -56.5t87.5 -154.5
q0 -84 -52 -131t-130 -57v-27q105 -15 168 -71.5t63 -160.5q0 -114 -97.5 -183.5t-274.5 -69.5q-176 0 -273.5 70t-97.5 183zM1696 655q0 -50 41.5 -81t128.5 -31t128.5 31t41.5 81q0 48 -41.5 77.5t-128.5 29.5t-128.5 -29.5t-41.5 -77.5zM1649 260q0 -65 51 -108t166 -43
q114 0 166.5 43.5t52.5 107.5q0 65 -52.5 109.5t-166.5 44.5q-115 0 -166 -44.5t-51 -109.5z" />
    <glyph glyph-name="fiveeighths" unicode="&#x215d;" horiz-adv-x="2312" 
d="M1399 1667l129 -45l-625 -1845l-129 45zM88 897h154q0 -186 227 -186q223 0 223 202q0 96 -45 135t-123 39q-143 0 -215 -112l-182 94v397h639v-131h-485v-176l-15 -63l23 -15q36 58 104 97t158 39q143 0 219 -83t76 -223q0 -151 -100 -240t-275 -89q-184 0 -283.5 82.5
t-99.5 232.5zM1481 233q0 104 62 160.5t167 71.5v27q-79 10 -130.5 57t-51.5 131q0 98 86.5 154.5t236.5 56.5q149 0 236.5 -56.5t87.5 -154.5q0 -84 -52 -131t-130 -57v-27q105 -15 168 -71.5t63 -160.5q0 -113 -98 -183t-275 -70q-176 0 -273 70t-97 183zM1681 655
q0 -50 41.5 -81t128.5 -31t128.5 31t41.5 81q0 48 -41.5 77.5t-128.5 29.5t-128.5 -29.5t-41.5 -77.5zM1634 260q0 -65 51 -108t166 -43q114 0 167 43.5t53 107.5q0 65 -53 109.5t-167 44.5q-115 0 -166 -44.5t-51 -109.5z" />
    <glyph glyph-name="seveneighths" unicode="&#x215e;" horiz-adv-x="2217" 
d="M1270 1667l129 -45l-623 -1845l-129 45zM215 594q0 186 52.5 321t151.5 225.5t259 162.5v32h-590v129h637v-272q-194 -82 -275 -221.5t-81 -376.5h-154zM1386 233q0 104 62.5 160.5t167.5 71.5v27q-79 10 -130.5 57t-51.5 131q0 98 86.5 154.5t236.5 56.5
q149 0 236.5 -56.5t87.5 -154.5q0 -83 -52.5 -130.5t-130.5 -57.5v-27q105 -15 168.5 -71.5t63.5 -160.5q0 -113 -98 -183t-275 -70q-176 0 -273.5 70t-97.5 183zM1587 655q0 -50 41.5 -81t128.5 -31q88 0 129 31t41 81q0 48 -41 77.5t-129 29.5q-87 0 -128.5 -29.5
t-41.5 -77.5zM1540 260q0 -65 51 -108t166 -43q114 0 166.5 43.5t52.5 107.5q0 65 -52.5 109.5t-166.5 44.5q-115 0 -166 -44.5t-51 -109.5z" />
    <glyph glyph-name="arrowleft" unicode="&#x2190;" horiz-adv-x="1525" 
d="M1356 582v-146h-910l402 -399l-109 -94l-569 565l569 563l109 -94l-399 -395h907z" />
    <glyph glyph-name="arrowup" unicode="&#x2191;" horiz-adv-x="1470" 
d="M1300 537l-96 -109l-397 399v-907h-145v905l-396 -397l-96 109l565 567z" />
    <glyph glyph-name="arrowright" unicode="&#x2192;" horiz-adv-x="1525" 
d="M786 1071l570 -563l-570 -565l-108 94l401 399h-909v146h907l-399 395z" />
    <glyph glyph-name="arrowdown" unicode="&#x2193;" horiz-adv-x="1470" 
d="M1204 596l96 -109l-565 -569l-565 569l96 109l396 -399v907h145v-909z" />
    <glyph glyph-name="arrowboth" unicode="&#x2194;" horiz-adv-x="2342" 
d="M1604 1239l567 -563l-567 -567l-109 96l399 399h-907v146h905l-397 393zM848 809l-399 -395h907v-146h-910l402 -397l-109 -96l-569 565l569 565z" />
    <glyph glyph-name="arrowupdn" unicode="&#x2195;" horiz-adv-x="1771" 
d="M641 307v907l-395 -399l-96 109l565 569l565 -569l-96 -109l-398 402v-910h-145zM1526 170l96 -109l-567 -569l-563 569l96 109l395 -401v909h143v-909z" />
    <glyph glyph-name="uni2196" unicode="&#x2196;" horiz-adv-x="1226" 
d="M1061 156l-103 -103l-643 641l2 -563l-145 8l-2 803l801 -4l10 -143l-563 2z" />
    <glyph glyph-name="uni2197" unicode="&#x2197;" horiz-adv-x="1226" 
d="M256 938l799 4v-803l-146 -8l2 563l-643 -641l-102 103l641 641l-561 -2z" />
    <glyph glyph-name="uni2198" unicode="&#x2198;" horiz-adv-x="1226" 
d="M909 856l146 -8v-803l-799 4l-10 144l561 -3l-641 641l102 103l643 -641z" />
    <glyph glyph-name="uni2199" unicode="&#x2199;" horiz-adv-x="1226" 
d="M1061 831l-643 -641l563 3l-10 -144l-801 -4l2 803l145 8l-2 -563l643 641z" />
    <glyph glyph-name="partialdiff" unicode="&#x2202;" horiz-adv-x="1456" 
d="M1286 653q0 -315 -152 -494t-413 -179q-259 0 -405 148.5t-146 387.5q0 228 143.5 375t382.5 147q183 0 305.5 -107.5t153.5 -293.5h49l-28 117q-20 170 -131 302t-282.5 210.5t-391.5 109.5v144q197 -23 362.5 -90.5t289.5 -174.5t193.5 -261.5t69.5 -340.5zM1118 516
q0 173 -111 276t-300 103q-175 0 -272 -102.5t-97 -276.5q0 -187 98 -290t287 -103q95 0 171 32t124.5 87t74 125t25.5 149z" />
    <glyph glyph-name="emptyset" unicode="&#x2205;" horiz-adv-x="2009" 
d="M1485 1270q167 -113 260.5 -295.5t93.5 -399.5q0 -172 -60.5 -324.5t-168 -265t-264.5 -178t-340 -65.5q-194 0 -361 74l-123 -213l-119 69l121 209q-167 113 -260.5 295.5t-93.5 398.5q0 230 103.5 419.5t296 302t436.5 112.5q191 0 358 -74l123 213l119 -69zM307 575
q0 -173 77 -324.5t212 -246.5l698 1210q-132 60 -288 60q-152 0 -283.5 -56.5t-222 -151.5t-142 -223t-51.5 -268zM1006 -123q201 0 361.5 96t247.5 255t87 347q0 173 -77 325t-212 247l-698 -1210q132 -60 291 -60z" />
    <glyph glyph-name="product" unicode="&#x220f;" horiz-adv-x="1558" 
d="M1389 1444v-137h-273v-1676h-153v1676h-367v-1676h-154v1676h-272v137h1219z" />
    <glyph glyph-name="summation" unicode="&#x2211;" horiz-adv-x="1220" 
d="M170 -369v228l610 655v49l-610 654v227h881v-137h-645l-117 28v-49l641 -672v-151l-641 -674v-49l117 29h645v-138h-881z" />
    <glyph glyph-name="minus" unicode="&#x2212;" horiz-adv-x="1316" 
d="M170 584h977v-138h-977v138z" />
    <glyph glyph-name="radical" unicode="&#x221a;" horiz-adv-x="1644" 
d="M961 1337q23 107 135 107h379v-137h-377l-381 -1676h-316l-231 789h149l216 -742h49z" />
    <glyph glyph-name="infinity" unicode="&#x221e;" horiz-adv-x="2082" 
d="M170 614q0 174 115 284t293 110q66 0 126.5 -18.5t103.5 -43.5t90.5 -69.5t74 -75.5t67.5 -84q41 52 68 83.5t74 76t90 69.5t104 43.5t127 18.5q178 0 293 -110t115 -284t-115 -283.5t-293 -109.5q-66 0 -127 18.5t-104 43.5t-90 69.5t-74 76t-68 83.5q-41 -53 -67.5 -84
t-74 -75.5t-90.5 -69.5t-103.5 -43.5t-126.5 -18.5q-178 0 -293 109.5t-115 283.5zM324 614q0 -117 71.5 -186.5t192.5 -69.5q60 0 111.5 18.5t99 58.5t81.5 78t83 101q-49 63 -83 101t-81.5 78t-99 58.5t-111.5 18.5q-121 0 -192.5 -69.5t-71.5 -186.5zM1120 614
q49 -64 82.5 -101.5t80.5 -77.5t98.5 -58.5t111.5 -18.5q121 0 192.5 69.5t71.5 186.5t-71.5 186.5t-192.5 69.5q-60 0 -111.5 -18.5t-98.5 -58.5t-80.5 -77.5t-82.5 -101.5z" />
    <glyph glyph-name="integral" unicode="&#x222b;" horiz-adv-x="1398" 
d="M170 -369v138h295l342 1566q24 109 135 109h287v-137h-281l-342 -1567q-21 -109 -133 -109h-303z" />
    <glyph glyph-name="approxequal" unicode="&#x2248;" horiz-adv-x="1312" 
d="M170 590q0 74 21.5 131t57.5 89t77 48t86 16q66 0 137.5 -25.5t122 -56t112 -56t109.5 -25.5q50 0 81.5 30.5t31.5 114.5h137q0 -143 -72 -213t-170 -70q-66 0 -137 25.5t-121.5 56.5t-111.5 56.5t-111 25.5q-113 0 -113 -147h-137zM170 168q0 74 21.5 131t57.5 89
t77 47.5t86 15.5q66 0 137.5 -25.5t122 -56.5t112 -56.5t109.5 -25.5q113 0 113 147h137q0 -143 -72 -213.5t-170 -70.5q-66 0 -137 25.5t-121.5 56t-111.5 56t-111 25.5t-81.5 -30.5t-31.5 -114.5h-137z" />
    <glyph glyph-name="notequal" unicode="&#x2260;" horiz-adv-x="1316" 
d="M1147 655h-334l-162 -280h496v-135h-574l-174 -303l-112 63l139 240h-256v135h334l162 280h-496v138h575l175 303l110 -66l-137 -237h254v-138z" />
    <glyph glyph-name="lessequal" unicode="&#x2264;" horiz-adv-x="1320" 
d="M170 616v162l926 326l53 -131l-807 -277l807 -268l-53 -131zM1149 188v-137h-975v137h975z" />
    <glyph glyph-name="greaterequal" unicode="&#x2265;" horiz-adv-x="1320" 
d="M1149 616l-924 -319l-55 131l809 268l-809 277l55 131l924 -326v-162zM170 188h977v-137h-977v137z" />
    <glyph glyph-name="uni2460" unicode="&#x2460;" 
d="M1040 -287q-201 0 -373 72t-289 195t-183 289.5t-66 353.5q0 188 66 355t183 290t289 194.5t373 71.5t373 -71.5t289.5 -194.5t183.5 -290t66 -355q0 -187 -66 -353.5t-183.5 -289.5t-289.5 -195t-373 -72zM1040 -158q171 0 318.5 63t248 170t157.5 249t57 299t-57 300
t-157.5 249.5t-248 169.5t-318.5 63t-318 -63t-247.5 -169.5t-157.5 -249.5t-57 -300t57 -299t157 -249t247.5 -170t318.5 -63zM723 725q96 64 132.5 133.5t37.5 200.5h303v-871h-154v750l17 74h-31q-6 -98 -28.5 -171.5t-77 -139.5t-142.5 -107z" />
    <glyph glyph-name="uni2461" unicode="&#x2461;" 
d="M1040 -287q-201 0 -373 72t-289 195t-183 289.5t-66 353.5q0 188 66 355t183 290t289 194.5t373 71.5t373 -71.5t289.5 -194.5t183.5 -290t66 -355q0 -187 -66 -353.5t-183.5 -289.5t-289.5 -195t-373 -72zM1040 -158q171 0 318.5 63t248 170t157.5 249t57 299t-57 300
t-157.5 249.5t-248 169.5t-318.5 63t-318 -63t-247.5 -169.5t-157.5 -249.5t-57 -300t57 -299t157 -249t247.5 -170t318.5 -63zM676 668q0 108 31 191.5t85.5 134.5t124.5 76.5t152 25.5q157 0 245.5 -79t88.5 -216q0 -81 -33.5 -147.5t-90 -114t-140 -85.5t-174 -62
t-201.5 -42v-31l76 15h538v-129h-661v252q25 3 57.5 9.5t86 20.5t103.5 31.5t103 46t92 61t64.5 78.5t25.5 97q0 164 -180 164q-121 0 -180.5 -69.5t-59.5 -227.5h-153z" />
    <glyph glyph-name="uni2462" unicode="&#x2462;" 
d="M1040 -287q-201 0 -373 72t-289 195t-183 289.5t-66 353.5q0 188 66 355t183 290t289 194.5t373 71.5t373 -71.5t289.5 -194.5t183.5 -290t66 -355q0 -187 -66 -353.5t-183.5 -289.5t-289.5 -195t-373 -72zM1040 -158q171 0 318.5 63t248 170t157.5 249t57 299t-57 300
t-157.5 249.5t-248 169.5t-318.5 63t-318 -63t-247.5 -169.5t-157.5 -249.5t-57 -300t57 -299t157 -249t247.5 -170t318.5 -63zM672 518h153q0 -124 56 -171.5t176 -47.5q102 0 151 34.5t49 108.5q0 140 -165 140h-103v131h103q153 0 153 116q0 60 -44.5 90.5t-143.5 30.5
q-115 0 -168 -40.5t-53 -131.5h-154q0 142 100.5 221.5t274.5 79.5q160 0 251 -66.5t91 -166.5q0 -78 -53.5 -124t-143.5 -60v-31q97 -20 152 -66.5t55 -138.5q0 -118 -94 -188t-258 -70q-180 0 -282.5 87.5t-102.5 262.5z" />
    <glyph glyph-name="uni2463" unicode="&#x2463;" 
d="M1040 -287q-201 0 -373 72t-289 195t-183 289.5t-66 353.5q0 188 66 355t183 290t289 194.5t373 71.5t373 -71.5t289.5 -194.5t183.5 -290t66 -355q0 -187 -66 -353.5t-183.5 -289.5t-289.5 -195t-373 -72zM1040 -158q171 0 318.5 63t248 170t157.5 249t57 299t-57 300
t-157.5 249.5t-248 169.5t-318.5 63t-318 -63t-247.5 -169.5t-157.5 -249.5t-57 -300t57 -299t157 -249t247.5 -170t318.5 -63zM680 365v284q147 62 234 165.5t116 256.5h154q-22 -179 -136 -327t-327 -230v-31l74 19h329v284h154v-284h111v-137h-111v-164h-154v164h-444z
" />
    <glyph glyph-name="uni2464" unicode="&#x2464;" 
d="M1040 -287q-201 0 -373 72t-289 195t-183 289.5t-66 353.5q0 188 66 355t183 290t289 194.5t373 71.5t373 -71.5t289.5 -194.5t183.5 -290t66 -355q0 -187 -66 -353.5t-183.5 -289.5t-289.5 -195t-373 -72zM1040 -158q171 0 318.5 63t248 170t157.5 249t57 299t-57 300
t-157.5 249.5t-248 169.5t-318.5 63t-318 -63t-247.5 -169.5t-157.5 -249.5t-57 -300t57 -299t157 -249t247.5 -170t318.5 -63zM672 459h153q0 -187 228 -187q99 0 161 46.5t62 156.5q0 174 -168 174q-143 0 -215 -112l-182 94v397h637v-131h-484v-176l-16 -64l24 -14
q35 58 103.5 96.5t157.5 38.5q143 0 220 -82.5t77 -222.5q0 -151 -101 -240.5t-276 -89.5q-182 0 -281.5 83t-99.5 233z" />
    <glyph glyph-name="uni2465" unicode="&#x2465;" 
d="M1040 -287q-201 0 -373 72t-289 195t-183 289.5t-66 353.5q0 188 66 355t183 290t289 194.5t373 71.5t373 -71.5t289.5 -194.5t183.5 -290t66 -355q0 -187 -66 -353.5t-183.5 -289.5t-289.5 -195t-373 -72zM1040 -158q171 0 318.5 63t248 170t157.5 249t57 299t-57 300
t-157.5 249.5t-248 169.5t-318.5 63t-318 -63t-247.5 -169.5t-157.5 -249.5t-57 -300t57 -299t157 -249t247.5 -170t318.5 -63zM668 582q0 116 27 210t81 163t142 101.5t202 20.5l199 -20v-129l-219 20q-82 8 -146 -12.5t-102.5 -63t-58 -96.5t-19.5 -117l-31 -75h31
q22 96 106.5 163.5t211.5 67.5q148 0 229.5 -87.5t81.5 -231.5q0 -147 -99.5 -238.5t-265.5 -91.5q-174 0 -272 105.5t-98 310.5zM821 494q0 -90 53 -143.5t162 -53.5q110 0 161.5 50t51.5 149q0 188 -192 188q-109 0 -172.5 -52.5t-63.5 -137.5z" />
    <glyph glyph-name="uni2466" unicode="&#x2466;" 
d="M1040 -287q-201 0 -373 72t-289 195t-183 289.5t-66 353.5q0 188 66 355t183 290t289 194.5t373 71.5t373 -71.5t289.5 -194.5t183.5 -290t66 -355q0 -187 -66 -353.5t-183.5 -289.5t-289.5 -195t-373 -72zM1040 -158q171 0 318.5 63t248 170t157.5 249t57 299t-57 300
t-157.5 249.5t-248 169.5t-318.5 63t-318 -63t-247.5 -169.5t-157.5 -249.5t-57 -300t57 -299t157 -249t247.5 -170t318.5 -63zM870 147q0 186 52 321t151.5 225.5t259.5 162.5v33h-590v129h637v-273q-194 -82 -275 -221.5t-81 -376.5h-154z" />
    <glyph glyph-name="uni2467" unicode="&#x2467;" 
d="M1040 -287q-201 0 -373 72t-289 195t-183 289.5t-66 353.5q0 188 66 355t183 290t289 194.5t373 71.5t373 -71.5t289.5 -194.5t183.5 -290t66 -355q0 -187 -66 -353.5t-183.5 -289.5t-289.5 -195t-373 -72zM1040 -158q171 0 318.5 63t248 170t157.5 249t57 299t-57 300
t-157.5 249.5t-248 169.5t-318.5 63t-318 -63t-247.5 -169.5t-157.5 -249.5t-57 -300t57 -299t157 -249t247.5 -170t318.5 -63zM670 422q0 199 229 231v27q-78 10 -130 57.5t-52 130.5q0 99 86.5 155t236.5 56q149 0 236.5 -56t87.5 -155q0 -82 -52.5 -130t-129.5 -58v-27
q231 -32 231 -231q0 -114 -98 -184t-275 -70q-175 0 -272.5 70t-97.5 184zM870 844q0 -50 41.5 -81.5t128.5 -31.5t128.5 31.5t41.5 81.5q0 106 -170 106t-170 -106zM823 451q0 -65 51 -108.5t166 -43.5q114 0 167 44t53 108t-53 107.5t-167 43.5q-115 0 -166 -43t-51 -108z
" />
    <glyph glyph-name="uni2468" unicode="&#x2468;" 
d="M1040 -287q-201 0 -373 72t-289 195t-183 289.5t-66 353.5q0 188 66 355t183 290t289 194.5t373 71.5t373 -71.5t289.5 -194.5t183.5 -290t66 -355q0 -187 -66 -353.5t-183.5 -289.5t-289.5 -195t-373 -72zM1040 -158q171 0 318.5 63t248 170t157.5 249t57 299t-57 300
t-157.5 249.5t-248 169.5t-318.5 63t-318 -63t-247.5 -169.5t-157.5 -249.5t-57 -300t57 -299t157 -249t247.5 -170t318.5 -63zM1438 662q0 -92 -16.5 -171t-52 -144t-88 -108t-127.5 -63t-167 -10l-201 20v129l222 -20q81 -7 144.5 14t101.5 62.5t57.5 95.5t19.5 117l31 75
h-31q-22 -96 -105.5 -162.5t-211.5 -66.5q-146 0 -229 87.5t-83 230.5q0 147 100 238t265 91q174 0 272.5 -105t98.5 -310zM1284 752q0 88 -53 142t-160 54q-112 0 -163.5 -49.5t-51.5 -148.5q0 -191 193 -191q109 0 172 53.5t63 139.5z" />
    <glyph glyph-name="uni24EA" unicode="&#x24ea;" 
d="M1040 1534q201 0 373 -71.5t289.5 -194.5t183.5 -290t66 -355q0 -187 -66 -353.5t-183.5 -289.5t-289.5 -195t-373 -72t-373 72t-289 195t-183 289.5t-66 353.5q0 188 66 355t183 290t289 194.5t373 71.5zM1040 -158q171 0 318.5 63t248 170t157.5 249t57 299t-57 300
t-157.5 249.5t-248 169.5t-318.5 63t-318 -63t-247.5 -169.5t-157.5 -249.5t-57 -300t57 -299t157 -249t247.5 -170t318.5 -63zM1042 1079q176 0 271.5 -126t95.5 -328q0 -204 -95.5 -330.5t-271.5 -126.5q-177 0 -272.5 126.5t-95.5 330.5q0 203 95.5 328.5t272.5 125.5z
M1042 944q-101 0 -158 -82t-57 -237q0 -102 25 -172l338 424q-52 67 -148 67zM1042 305q103 0 158 82t55 238q0 103 -24 174l-338 -424q58 -70 149 -70z" />
    <glyph glyph-name="uni24FF" unicode="&#x24ff;" 
d="M1040 -287q-201 0 -373 72t-289 195t-183 289.5t-66 353.5q0 188 66 355t183 290t289 194.5t373 71.5t373 -71.5t289.5 -194.5t183.5 -290t66 -355q0 -187 -66 -353.5t-183.5 -289.5t-289.5 -195t-373 -72zM674 625q0 -204 95.5 -330.5t272.5 -126.5q176 0 271.5 126.5
t95.5 330.5q0 202 -95.5 328t-271.5 126q-177 0 -272.5 -125.5t-95.5 -328.5zM827 625q0 155 57 237t158 82q98 0 150 -61l-338 -432q-27 70 -27 174zM895 375l340 426q20 -64 20 -176q0 -161 -50 -240.5t-163 -79.5q-92 0 -147 70z" />
    <glyph glyph-name="lozenge" unicode="&#x25ca;" horiz-adv-x="1114" 
d="M715 1444l229 -660l-229 -661h-312l-233 661l233 660h312zM582 172l206 612l-206 613h-47l-207 -613l207 -612h47z" />
    <glyph glyph-name="uni2776" unicode="&#x2776;" 
d="M1040 -287q201 0 373 72t289.5 195t183.5 289.5t66 353.5q0 188 -66 355t-183.5 290t-289.5 194.5t-373 71.5t-373 -71.5t-289 -194.5t-183 -290t-66 -355q0 -187 66 -353.5t183 -289.5t289 -195t373 -72zM723 725q96 64 132.5 133.5t37.5 200.5h303v-871h-154v750l17 74
h-31q-6 -98 -28.5 -171.5t-77 -139.5t-142.5 -107z" />
    <glyph glyph-name="uni2777" unicode="&#x2777;" 
d="M1040 -287q201 0 373 72t289.5 195t183.5 289.5t66 353.5q0 188 -66 355t-183.5 290t-289.5 194.5t-373 71.5t-373 -71.5t-289 -194.5t-183 -290t-66 -355q0 -187 66 -353.5t183 -289.5t289 -195t373 -72zM676 668q0 108 31 191.5t85.5 134.5t124.5 76.5t152 25.5
q157 0 245.5 -79t88.5 -216q0 -81 -33.5 -147.5t-90 -114t-140 -85.5t-174 -62t-201.5 -42v-31l76 15h538v-129h-661v252q25 3 57.5 9.5t86 20.5t103.5 31.5t103 46t92 61t64.5 78.5t25.5 97q0 164 -180 164q-121 0 -180.5 -69.5t-59.5 -227.5h-153z" />
    <glyph glyph-name="uni2778" unicode="&#x2778;" 
d="M1040 -287q201 0 373 72t289.5 195t183.5 289.5t66 353.5q0 188 -66 355t-183.5 290t-289.5 194.5t-373 71.5t-373 -71.5t-289 -194.5t-183 -290t-66 -355q0 -187 66 -353.5t183 -289.5t289 -195t373 -72zM672 518h153q0 -124 56 -171.5t176 -47.5q102 0 151 34.5
t49 108.5q0 140 -165 140h-103v131h103q153 0 153 116q0 60 -44.5 90.5t-143.5 30.5q-115 0 -168 -40.5t-53 -131.5h-154q0 142 100.5 221.5t274.5 79.5q160 0 251 -66.5t91 -166.5q0 -78 -53.5 -124t-143.5 -60v-31q97 -20 152 -66.5t55 -138.5q0 -118 -94 -188t-258 -70
q-180 0 -282.5 87.5t-102.5 262.5z" />
    <glyph glyph-name="uni2779" unicode="&#x2779;" 
d="M1040 -287q201 0 373 72t289.5 195t183.5 289.5t66 353.5q0 188 -66 355t-183.5 290t-289.5 194.5t-373 71.5t-373 -71.5t-289 -194.5t-183 -290t-66 -355q0 -187 66 -353.5t183 -289.5t289 -195t373 -72zM672 365v282q148 64 234.5 167t115.5 257h154
q-14 -117 -63.5 -218.5t-151.5 -193t-248 -145.5v-31l73 17h330v284h154v-284h110v-135h-110v-164h-154v164h-444z" />
    <glyph glyph-name="uni277A" unicode="&#x277a;" 
d="M1040 -287q201 0 373 72t289.5 195t183.5 289.5t66 353.5q0 188 -66 355t-183.5 290t-289.5 194.5t-373 71.5t-373 -71.5t-289 -194.5t-183 -290t-66 -355q0 -187 66 -353.5t183 -289.5t289 -195t373 -72zM672 459h153q0 -187 228 -187q99 0 161 46.5t62 156.5
q0 174 -168 174q-143 0 -215 -112l-182 94v397h637v-131h-484v-176l-16 -64l24 -14q35 58 103.5 96.5t157.5 38.5q143 0 220 -82.5t77 -222.5q0 -151 -101 -240.5t-276 -89.5q-182 0 -281.5 83t-99.5 233z" />
    <glyph glyph-name="uni277B" unicode="&#x277b;" 
d="M1040 -287q201 0 373 72t289.5 195t183.5 289.5t66 353.5q0 188 -66 355t-183.5 290t-289.5 194.5t-373 71.5t-373 -71.5t-289 -194.5t-183 -290t-66 -355q0 -187 66 -353.5t183 -289.5t289 -195t373 -72zM668 582q0 116 27 210t81 163t142 101.5t202 20.5l199 -20v-129
l-219 20q-82 8 -146 -12.5t-102.5 -63t-58 -96.5t-19.5 -117l-31 -75h31q22 96 106.5 163.5t211.5 67.5q148 0 229.5 -87.5t81.5 -231.5q0 -147 -99.5 -238.5t-265.5 -91.5q-174 0 -272 105.5t-98 310.5zM821 494q0 -90 53 -143.5t162 -53.5q110 0 161.5 50t51.5 149
q0 188 -192 188q-109 0 -172.5 -52.5t-63.5 -137.5z" />
    <glyph glyph-name="uni277C" unicode="&#x277c;" 
d="M1040 -287q201 0 373 72t289.5 195t183.5 289.5t66 353.5q0 188 -66 355t-183.5 290t-289.5 194.5t-373 71.5t-373 -71.5t-289 -194.5t-183 -290t-66 -355q0 -187 66 -353.5t183 -289.5t289 -195t373 -72zM870 147q0 186 52 321t151.5 225.5t259.5 162.5v33h-590v129h637
v-273q-194 -82 -275 -221.5t-81 -376.5h-154z" />
    <glyph glyph-name="uni277D" unicode="&#x277d;" 
d="M1040 -287q201 0 373 72t289.5 195t183.5 289.5t66 353.5q0 188 -66 355t-183.5 290t-289.5 194.5t-373 71.5t-373 -71.5t-289 -194.5t-183 -290t-66 -355q0 -187 66 -353.5t183 -289.5t289 -195t373 -72zM670 422q0 199 229 231v27q-78 10 -130 57.5t-52 130.5
q0 99 86.5 155t236.5 56q149 0 236.5 -56t87.5 -155q0 -82 -52.5 -130t-129.5 -58v-27q231 -32 231 -231q0 -114 -98 -184t-275 -70q-175 0 -272.5 70t-97.5 184zM870 844q0 -50 41.5 -81.5t128.5 -31.5t128.5 31.5t41.5 81.5q0 106 -170 106t-170 -106zM823 451
q0 -65 51 -108.5t166 -43.5q114 0 167 44t53 108t-53 107.5t-167 43.5q-115 0 -166 -43t-51 -108z" />
    <glyph glyph-name="uni277E" unicode="&#x277e;" 
d="M1040 -287q201 0 373 72t289.5 195t183.5 289.5t66 353.5q0 188 -66 355t-183.5 290t-289.5 194.5t-373 71.5t-373 -71.5t-289 -194.5t-183 -290t-66 -355q0 -187 66 -353.5t183 -289.5t289 -195t373 -72zM1438 662q0 -92 -16.5 -171t-52 -144t-88 -108t-127.5 -63
t-167 -10l-201 20v129l222 -20q81 -7 144.5 14t101.5 62.5t57.5 95.5t19.5 117l31 75h-31q-22 -96 -105.5 -162.5t-211.5 -66.5q-146 0 -229 87.5t-83 230.5q0 147 100 238t265 91q174 0 272.5 -105t98.5 -310zM1284 752q0 88 -53 142t-160 54q-112 0 -163.5 -49.5
t-51.5 -148.5q0 -191 193 -191q109 0 172 53.5t63 139.5z" />
    <glyph glyph-name="G.ss01" horiz-adv-x="1587" 
d="M129 723q0 213 79.5 380t233 264t357.5 97q265 0 423 -147t177 -389h-166q-12 182 -124.5 287.5t-309.5 105.5q-245 0 -373.5 -163.5t-128.5 -434.5q0 -135 26 -242t81 -188.5t147.5 -125.5t218.5 -44q256 0 378 123t122 389h-576v135h621q123 0 123 -113v-657h-168v197
l26 122h-47q-15 -66 -49.5 -124t-92 -107.5t-147 -78.5t-200.5 -29q-155 0 -276 56t-198 156t-117 235t-40 296z" />
    <glyph glyph-name="Gbreve.ss01" horiz-adv-x="1587" 
d="M1120 1931q0 -159 -85.5 -255.5t-233.5 -96.5q-149 0 -235.5 96.5t-86.5 255.5h137q0 -113 44 -166t141 -53t139.5 52.5t42.5 166.5h137zM129 723q0 213 79.5 380t233 264t357.5 97q265 0 423 -147t177 -389h-166q-12 182 -124.5 287.5t-309.5 105.5
q-245 0 -373.5 -163.5t-128.5 -434.5q0 -135 26 -242t81 -188.5t147.5 -125.5t218.5 -44q256 0 378 123t122 389h-576v135h621q123 0 123 -113v-657h-168v197l26 122h-47q-15 -66 -49.5 -124t-92 -107.5t-147 -78.5t-200.5 -29q-155 0 -276 56t-198 156t-117 235t-40 296z
" />
    <glyph glyph-name="uni0122.ss01" horiz-adv-x="1587" 
d="M129 723q0 213 79.5 380t233 264t357.5 97q265 0 423 -147t177 -389h-166q-12 182 -124.5 287.5t-309.5 105.5q-245 0 -373.5 -163.5t-128.5 -434.5q0 -135 26 -242t81 -188.5t147.5 -125.5t218.5 -44q256 0 378 123t122 389h-576v135h621q123 0 123 -113v-657h-168v197
l26 122h-47q-15 -66 -49.5 -124t-92 -107.5t-147 -78.5t-200.5 -29q-155 0 -276 56t-198 156t-117 235t-40 296zM672 -100l149 -41l-108 -340l-150 43z" />
    <glyph glyph-name="Gdotaccent.ss01" horiz-adv-x="1587" 
d="M799 1606q-65 0 -107.5 41t-42.5 102q0 59 43 100t107 41q63 0 106 -41t43 -100q0 -61 -43 -102t-106 -41zM129 723q0 213 79.5 380t233 264t357.5 97q265 0 423 -147t177 -389h-166q-12 182 -124.5 287.5t-309.5 105.5q-245 0 -373.5 -163.5t-128.5 -434.5
q0 -135 26 -242t81 -188.5t147.5 -125.5t218.5 -44q256 0 378 123t122 389h-576v135h621q123 0 123 -113v-657h-168v197l26 122h-47q-15 -66 -49.5 -124t-92 -107.5t-147 -78.5t-200.5 -29q-155 0 -276 56t-198 156t-117 235t-40 296z" />
    <glyph glyph-name="i.loclTRK" horiz-adv-x="907" 
d="M401 1180q-64 0 -106.5 40.5t-42.5 102.5q0 59 42.5 100t106.5 41q63 0 106.5 -41t43.5 -100q0 -61 -43.5 -102t-106.5 -41zM109 0v143h290v750l-215 -19v144l232 20q70 6 102.5 -30t32.5 -109v-756h289v-143h-731z" />
    <glyph glyph-name="a.ss01" horiz-adv-x="1351" 
d="M1200 0h-166v150l27 114h-47q-34 -125 -141 -204.5t-271 -79.5q-221 0 -357 149.5t-136 380.5q0 229 136 378.5t357 149.5q165 0 271.5 -79.5t140.5 -206.5h47l-27 116v150h166v-1018zM1034 510q0 99 -30.5 174.5t-85 120.5t-122.5 67.5t-149 22.5q-168 0 -269.5 -95
t-101.5 -290q0 -196 101.5 -291.5t269.5 -95.5q81 0 149 22.5t122.5 67.5t85 121t30.5 176z" />
    <glyph glyph-name="aacute.ss01" horiz-adv-x="1351" 
d="M340 1315l629 162l32 -131l-626 -162zM1200 0h-166v150l27 114h-47q-34 -125 -141 -204.5t-271 -79.5q-221 0 -357 149.5t-136 380.5q0 229 136 378.5t357 149.5q165 0 271.5 -79.5t140.5 -206.5h47l-27 116v150h166v-1018zM1034 510q0 99 -30.5 174.5t-85 120.5
t-122.5 67.5t-149 22.5q-168 0 -269.5 -95t-101.5 -290q0 -196 101.5 -291.5t269.5 -95.5q81 0 149 22.5t122.5 67.5t85 121t30.5 176z" />
    <glyph glyph-name="abreve.ss01" horiz-adv-x="1351" 
d="M995 1505q0 -159 -85.5 -255.5t-233.5 -96.5q-149 0 -235.5 96.5t-86.5 255.5h138q0 -114 43.5 -166.5t140.5 -52.5t139.5 52.5t42.5 166.5h137zM1200 0h-166v150l27 114h-47q-34 -125 -141 -204.5t-271 -79.5q-221 0 -357 149.5t-136 380.5q0 229 136 378.5t357 149.5
q165 0 271.5 -79.5t140.5 -206.5h47l-27 116v150h166v-1018zM1034 510q0 99 -30.5 174.5t-85 120.5t-122.5 67.5t-149 22.5q-168 0 -269.5 -95t-101.5 -290q0 -196 101.5 -291.5t269.5 -95.5q81 0 149 22.5t122.5 67.5t85 121t30.5 176z" />
    <glyph glyph-name="acircumflex.ss01" horiz-adv-x="1351" 
d="M1008 1243l-97 -94l-235 192l-234 -192l-98 94l332 268zM1200 0h-166v150l27 114h-47q-34 -125 -141 -204.5t-271 -79.5q-221 0 -357 149.5t-136 380.5q0 229 136 378.5t357 149.5q165 0 271.5 -79.5t140.5 -206.5h47l-27 116v150h166v-1018zM1034 510q0 99 -30.5 174.5
t-85 120.5t-122.5 67.5t-149 22.5q-168 0 -269.5 -95t-101.5 -290q0 -196 101.5 -291.5t269.5 -95.5q81 0 149 22.5t122.5 67.5t85 121t30.5 176z" />
    <glyph glyph-name="adieresis.ss01" horiz-adv-x="1351" 
d="M465 1180q-65 0 -107.5 41t-42.5 102q0 59 43 100t107 41q63 0 106 -41t43 -100q0 -61 -43 -102t-106 -41zM887 1180q-65 0 -107.5 41t-42.5 102q0 59 43 100t107 41q63 0 106 -41t43 -100q0 -61 -43 -102t-106 -41zM1200 0h-166v150l27 114h-47q-34 -125 -141 -204.5
t-271 -79.5q-221 0 -357 149.5t-136 380.5q0 229 136 378.5t357 149.5q165 0 271.5 -79.5t140.5 -206.5h47l-27 116v150h166v-1018zM1034 510q0 99 -30.5 174.5t-85 120.5t-122.5 67.5t-149 22.5q-168 0 -269.5 -95t-101.5 -290q0 -196 101.5 -291.5t269.5 -95.5
q81 0 149 22.5t122.5 67.5t85 121t30.5 176z" />
    <glyph glyph-name="agrave.ss01" horiz-adv-x="1351" 
d="M1010 1315l-33 -131l-629 162l35 131zM1200 0h-166v150l27 114h-47q-34 -125 -141 -204.5t-271 -79.5q-221 0 -357 149.5t-136 380.5q0 229 136 378.5t357 149.5q165 0 271.5 -79.5t140.5 -206.5h47l-27 116v150h166v-1018zM1034 510q0 99 -30.5 174.5t-85 120.5
t-122.5 67.5t-149 22.5q-168 0 -269.5 -95t-101.5 -290q0 -196 101.5 -291.5t269.5 -95.5q81 0 149 22.5t122.5 67.5t85 121t30.5 176z" />
    <glyph glyph-name="amacron.ss01" horiz-adv-x="1351" 
d="M346 1399h662v-133l-662 -2v135zM1200 0h-166v150l27 114h-47q-34 -125 -141 -204.5t-271 -79.5q-221 0 -357 149.5t-136 380.5q0 229 136 378.5t357 149.5q165 0 271.5 -79.5t140.5 -206.5h47l-27 116v150h166v-1018zM1034 510q0 99 -30.5 174.5t-85 120.5t-122.5 67.5
t-149 22.5q-168 0 -269.5 -95t-101.5 -290q0 -196 101.5 -291.5t269.5 -95.5q81 0 149 22.5t122.5 67.5t85 121t30.5 176z" />
    <glyph glyph-name="aogonek.ss01" horiz-adv-x="1351" 
d="M1065 -256l381 39v-137l-404 -37q-78 -6 -112.5 46.5t0.5 115.5l123 229h-19v150l27 114h-47q-34 -125 -141 -204.5t-271 -79.5q-221 0 -357 149.5t-136 380.5q0 229 136 378.5t357 149.5q165 0 271.5 -79.5t140.5 -206.5h47l-27 116v150h166v-1018h-2zM647 123
q81 0 149 22.5t122.5 67.5t85 121t30.5 176q0 99 -30.5 174.5t-85 120.5t-122.5 67.5t-149 22.5q-168 0 -269.5 -95t-101.5 -290q0 -196 101.5 -291.5t269.5 -95.5z" />
    <glyph glyph-name="aring.ss01" horiz-adv-x="1351" 
d="M674 1145q-112 0 -177 64.5t-65 158.5q0 92 65 156.5t177 64.5t178 -64.5t66 -156.5t-66 -157.5t-178 -65.5zM674 1272q53 0 79.5 25.5t26.5 70.5q0 44 -27.5 69t-78.5 25q-50 0 -77.5 -25.5t-27.5 -68.5q0 -45 27.5 -70.5t77.5 -25.5zM1200 0h-166v150l27 114h-47
q-34 -125 -141 -204.5t-271 -79.5q-221 0 -357 149.5t-136 380.5q0 229 136 378.5t357 149.5q165 0 271.5 -79.5t140.5 -206.5h47l-27 116v150h166v-1018zM1034 510q0 99 -30.5 174.5t-85 120.5t-122.5 67.5t-149 22.5q-168 0 -269.5 -95t-101.5 -290q0 -196 101.5 -291.5
t269.5 -95.5q81 0 149 22.5t122.5 67.5t85 121t30.5 176z" />
    <glyph glyph-name="atilde.ss01" horiz-adv-x="1351" 
d="M305 1212q0 145 56.5 213t152.5 68q48 0 89 -17t69.5 -41t53 -48t50 -41t49.5 -17q40 0 62 30t22 114h138q0 -146 -56.5 -213.5t-152.5 -67.5q-48 0 -89.5 17t-69.5 41t-53 48t-50.5 41t-49.5 17q-40 0 -62 -30t-22 -114h-137zM1200 0h-166v150l27 114h-47
q-34 -125 -141 -204.5t-271 -79.5q-221 0 -357 149.5t-136 380.5q0 229 136 378.5t357 149.5q165 0 271.5 -79.5t140.5 -206.5h47l-27 116v150h166v-1018zM1034 510q0 99 -30.5 174.5t-85 120.5t-122.5 67.5t-149 22.5q-168 0 -269.5 -95t-101.5 -290q0 -196 101.5 -291.5
t269.5 -95.5q81 0 149 22.5t122.5 67.5t85 121t30.5 176z" />
    <glyph glyph-name="g.ss01" horiz-adv-x="1351" 
d="M1034 1018h166v-1288q0 -126 -139 -123l-766 20v144l739 -21v400l27 114h-47q-34 -125 -141 -204.5t-271 -79.5q-221 0 -357 149.5t-136 380.5q0 229 136 378.5t357 149.5q165 0 271.5 -79.5t140.5 -206.5h47l-27 116v150zM647 123q81 0 149 22.5t122.5 67.5t85 121
t30.5 176q0 99 -30.5 174.5t-85 120.5t-122.5 67.5t-149 22.5q-168 0 -269.5 -95t-101.5 -290q0 -196 101.5 -291.5t269.5 -95.5z" />
    <glyph glyph-name="gbreve.ss01" horiz-adv-x="1351" 
d="M668 1153q-149 0 -235.5 96.5t-86.5 255.5h137q0 -113 44 -166t141 -53t139.5 52.5t42.5 166.5h137q0 -159 -85.5 -255.5t-233.5 -96.5zM1034 1018h166v-1288q0 -126 -139 -123l-766 20v144l739 -21v400l27 114h-47q-34 -125 -141 -204.5t-271 -79.5q-221 0 -357 149.5
t-136 380.5q0 229 136 378.5t357 149.5q165 0 271.5 -79.5t140.5 -206.5h47l-27 116v150zM647 123q81 0 149 22.5t122.5 67.5t85 121t30.5 176q0 99 -30.5 174.5t-85 120.5t-122.5 67.5t-149 22.5q-168 0 -269.5 -95t-101.5 -290q0 -196 101.5 -291.5t269.5 -95.5z" />
    <glyph glyph-name="uni0123.ss01" horiz-adv-x="1351" 
d="M852 1550l-104 -370l-150 39l107 370zM1034 1018h166v-1288q0 -126 -139 -123l-766 20v144l739 -21v400l27 114h-47q-34 -125 -141 -204.5t-271 -79.5q-221 0 -357 149.5t-136 380.5q0 229 136 378.5t357 149.5q165 0 271.5 -79.5t140.5 -206.5h47l-27 116v150zM647 123
q81 0 149 22.5t122.5 67.5t85 121t30.5 176q0 99 -30.5 174.5t-85 120.5t-122.5 67.5t-149 22.5q-168 0 -269.5 -95t-101.5 -290q0 -196 101.5 -291.5t269.5 -95.5z" />
    <glyph glyph-name="gdotaccent.ss01" horiz-adv-x="1351" 
d="M666 1180q-65 0 -107.5 41t-42.5 102q0 59 43 100t107 41q63 0 106 -41t43 -100q0 -61 -43 -102t-106 -41zM1034 1018h166v-1288q0 -126 -139 -123l-766 20v144l739 -21v400l27 114h-47q-34 -125 -141 -204.5t-271 -79.5q-221 0 -357 149.5t-136 380.5q0 229 136 378.5
t357 149.5q165 0 271.5 -79.5t140.5 -206.5h47l-27 116v150zM647 123q81 0 149 22.5t122.5 67.5t85 121t30.5 176q0 99 -30.5 174.5t-85 120.5t-122.5 67.5t-149 22.5q-168 0 -269.5 -95t-101.5 -290q0 -196 101.5 -291.5t269.5 -95.5z" />
    <glyph glyph-name="k.ss01" horiz-adv-x="1169" 
d="M1081 1018l-460 -402l460 -616h-194l-383 516l-187 -164v-352h-167v1505h167v-950l525 463h239z" />
    <glyph glyph-name="uni0137.ss01" horiz-adv-x="1169" 
d="M1081 1018l-460 -402l460 -616h-194l-383 516l-187 -164v-352h-167v1505h167v-950l525 463h239zM412 -438l108 338l150 -41l-109 -340z" />
    <glyph glyph-name="uni0438.loclBGR" horiz-adv-x="1236" 
d="M1126 0h-165v872l26 97h-47l-453 -969h-337v1018h167v-871l-26 -100h47l453 971h335v-1018z" />
    <glyph glyph-name="uni0439.loclBGR" horiz-adv-x="1236" 
d="M961 1505q0 -159 -86 -255.5t-234 -96.5q-149 0 -235.5 96.5t-86.5 255.5h138q0 -114 43.5 -166.5t140.5 -52.5t139.5 52.5t42.5 166.5h138zM1126 0h-165v872l26 97h-47l-453 -969h-337v1018h167v-871l-26 -100h47l453 971h335v-1018z" />
    <glyph glyph-name="uni045D.loclBGR" horiz-adv-x="1236" 
d="M975 1315l-33 -131l-629 162l35 131zM1126 0h-165v872l26 97h-47l-453 -969h-337v1018h167v-871l-26 -100h47l453 971h335v-1018z" />
    <glyph glyph-name="zero.dnom" horiz-adv-x="913" 
d="M459 891q118 0 201.5 -60t124 -161.5t40.5 -233.5q0 -205 -95 -330.5t-271 -125.5q-178 0 -274.5 125.5t-96.5 330.5q0 202 97 328.5t274 126.5zM459 754q-102 0 -159.5 -82t-57.5 -236q0 -106 26 -174l336 426q-54 66 -145 66zM459 117q102 0 157.5 81t55.5 238
q0 99 -25 172l-338 -424q58 -67 150 -67z" />
    <glyph glyph-name="one.dnom" horiz-adv-x="649" 
d="M88 537q96 64 132.5 133t37.5 200h303v-870h-153v750l16 73h-31q-6 -98 -28.5 -171t-77 -139t-142.5 -107z" />
    <glyph glyph-name="two.dnom" horiz-adv-x="905" 
d="M88 463q0 108 31 191.5t86 134.5t125 76.5t153 25.5q157 0 244.5 -78.5t87.5 -216.5q0 -81 -33.5 -147.5t-90 -114t-139.5 -85.5t-173.5 -62t-200.5 -42v-30l76 14h539v-129h-662v252q25 3 57.5 9.5t86 20.5t103 31.5t103 46t92.5 61t64 78.5t25 97q0 166 -181 166
q-119 0 -179 -70.5t-60 -228.5h-154z" />
    <glyph glyph-name="three.dnom" horiz-adv-x="915" 
d="M88 330h154q0 -125 56.5 -173t176.5 -48q102 0 150.5 34.5t48.5 110.5q0 139 -166 139h-100v131h100q64 0 109 26t45 91q0 60 -44 90.5t-143 30.5q-115 0 -168 -40.5t-53 -131.5h-154q0 142 100 221.5t275 79.5q158 0 249 -67t91 -167q0 -78 -53 -124t-144 -60v-31
q98 -20 153.5 -66.5t55.5 -137.5q0 -118 -94.5 -188t-257.5 -70q-181 0 -284 87t-103 263z" />
    <glyph glyph-name="four.dnom" horiz-adv-x="886" 
d="M88 164v285q149 62 236 165t116 256h154q-10 -86 -42 -165t-86.5 -152.5t-140.5 -135.5t-196 -104v-30l76 18h330v285h153v-285h111v-137h-111v-164h-153v164h-447z" />
    <glyph glyph-name="five.dnom" horiz-adv-x="935" 
d="M88 295h154q0 -186 227 -186q223 0 223 202q0 96 -45 135t-123 39q-143 0 -215 -112l-182 94v397h639v-131h-485v-176l-15 -63l23 -15q36 58 103.5 96.5t158.5 38.5q143 0 219 -82.5t76 -222.5q0 -151 -100 -240t-275 -89q-184 0 -283.5 82.5t-99.5 232.5z" />
    <glyph glyph-name="six.dnom" horiz-adv-x="913" 
d="M88 395q0 116 27.5 210.5t81.5 163.5t142 101.5t202 20.5l198 -21v-129l-219 21q-81 7 -144.5 -14t-101.5 -62.5t-57.5 -95.5t-19.5 -117l-33 -76h31q22 96 106 163t211 67q148 0 229.5 -87t81.5 -231q0 -147 -98.5 -238t-263.5 -91q-175 0 -274 105.5t-99 309.5z
M242 307q0 -90 53 -144t162 -54q213 0 213 198q0 191 -191 191q-109 0 -173 -53t-64 -138z" />
    <glyph glyph-name="seven.dnom" horiz-adv-x="813" 
d="M215 0q0 186 52.5 321t151.5 225.5t259 162.5v32h-590v129h637v-272q-194 -82 -275 -221.5t-81 -376.5h-154z" />
    <glyph glyph-name="eight.dnom" horiz-adv-x="921" 
d="M88 233q0 104 63 160.5t168 71.5v27q-79 10 -131.5 57t-52.5 131q0 98 88 154.5t238 56.5q148 0 234.5 -56.5t86.5 -154.5q0 -84 -51.5 -131t-128.5 -57v-27q105 -15 167 -71.5t62 -160.5q0 -113 -97 -183t-273 -70q-177 0 -275 70t-98 183zM289 655q0 -49 42.5 -80.5
t129.5 -31.5t127.5 31t40.5 81q0 48 -40.5 77.5t-127.5 29.5t-129.5 -29.5t-42.5 -77.5zM242 260q0 -65 52 -108t167 -43q114 0 165.5 43t51.5 108t-51.5 109.5t-165.5 44.5q-115 0 -167 -44.5t-52 -109.5z" />
    <glyph glyph-name="nine.dnom" horiz-adv-x="913" 
d="M825 477q0 -116 -27 -210t-81 -163t-142 -101.5t-202 -20.5l-199 20v129l219 -20q159 -14 242.5 71t83.5 217l31 76h-31q-22 -96 -106.5 -162.5t-211.5 -66.5q-147 0 -229 87t-82 230q0 147 99.5 238.5t265.5 91.5q174 0 272 -105.5t98 -310.5zM672 567q0 89 -53 143
t-162 54q-110 0 -161.5 -50t-51.5 -149q0 -190 190 -190q109 0 173.5 53t64.5 139z" />
    <glyph glyph-name="zero.numr" horiz-adv-x="913" 
d="M459 1501q118 0 201.5 -60t124 -161t40.5 -233q0 -205 -95 -331t-271 -126q-178 0 -274.5 126t-96.5 331q0 202 97 328t274 126zM459 1364q-102 0 -159.5 -81.5t-57.5 -235.5q0 -107 26 -175l336 426q-54 66 -145 66zM459 727q102 0 157.5 81.5t55.5 238.5q0 99 -25 172
l-338 -424q59 -68 150 -68z" />
    <glyph glyph-name="one.numr" horiz-adv-x="649" 
d="M88 1130q96 64 132.5 133.5t37.5 200.5h303v-870h-153v749l16 74h-31q-6 -98 -28.5 -171.5t-77 -139.5t-142.5 -107z" />
    <glyph glyph-name="two.numr" horiz-adv-x="905" 
d="M88 1065q0 108 31 191.5t86 134.5t125 76.5t153 25.5q157 0 244.5 -78.5t87.5 -216.5q0 -81 -33.5 -147.5t-90 -114t-139.5 -85t-173.5 -61.5t-200.5 -42v-31l76 14h539v-129h-662v252q25 3 57.5 9.5t86 20.5t103 31.5t103 46t92.5 61t64 78.5t25 97q0 166 -181 166
q-119 0 -179 -70.5t-60 -228.5h-154z" />
    <glyph glyph-name="three.numr" horiz-adv-x="915" 
d="M88 932h154q0 -125 56.5 -173t176.5 -48q102 0 150.5 34.5t48.5 110.5q0 139 -166 139h-100v131h100q64 0 109 26t45 91q0 60 -44 90.5t-143 30.5q-115 0 -168 -40.5t-53 -131.5h-154q0 142 100 221.5t275 79.5q158 0 249 -66.5t91 -166.5q0 -78 -53 -124.5t-144 -60.5
v-31q98 -20 153.5 -66.5t55.5 -137.5q0 -118 -94.5 -188t-257.5 -70q-181 0 -284 87t-103 263z" />
    <glyph glyph-name="four.numr" horiz-adv-x="886" 
d="M88 758v284q296 124 352 422h154q-10 -86 -42 -165t-86.5 -152.5t-140.5 -135.5t-196 -104v-30l76 18h330v285h153v-285h111v-137h-111v-164h-153v164h-447z" />
    <glyph glyph-name="five.numr" horiz-adv-x="935" 
d="M88 897h154q0 -186 227 -186q223 0 223 202q0 96 -45 135t-123 39q-143 0 -215 -112l-182 94v397h639v-131h-485v-176l-15 -63l23 -15q36 58 104 97t158 39q143 0 219 -83t76 -223q0 -151 -100 -240t-275 -89q-184 0 -283.5 82.5t-99.5 232.5z" />
    <glyph glyph-name="six.numr" horiz-adv-x="913" 
d="M88 1008q0 116 27.5 210t81.5 163t142 101.5t202 20.5l198 -20v-129l-219 20q-81 7 -144.5 -14t-101.5 -62.5t-57.5 -95.5t-19.5 -117l-33 -75h31q22 96 106 162.5t211 66.5q148 0 229.5 -86.5t81.5 -230.5q0 -147 -99 -238.5t-263 -91.5q-175 0 -274 105.5t-99 310.5z
M242 920q0 -90 53 -144.5t162 -54.5q213 0 213 199q0 190 -191 190q-109 0 -173 -53t-64 -137z" />
    <glyph glyph-name="seven.numr" horiz-adv-x="813" 
d="M215 594q0 186 52.5 321t151.5 225.5t259 162.5v32h-590v129h637v-272q-194 -82 -275 -221.5t-81 -376.5h-154z" />
    <glyph glyph-name="eight.numr" horiz-adv-x="921" 
d="M88 844q0 104 63 160t168 71v27q-79 10 -131.5 57t-52.5 131q0 98 88 154.5t238 56.5q148 0 234.5 -56.5t86.5 -154.5q0 -84 -51.5 -131t-128.5 -57v-27q105 -15 167 -71t62 -160q0 -114 -97.5 -184t-272.5 -70q-177 0 -275 70t-98 184zM289 1266q0 -50 42.5 -81.5
t129.5 -31.5t127.5 31.5t40.5 81.5q0 48 -40.5 77t-127.5 29q-88 0 -130 -29t-42 -77zM242 870q0 -65 52 -108t167 -43q114 0 165.5 43t51.5 108t-51.5 109.5t-165.5 44.5q-115 0 -167 -44.5t-52 -109.5z" />
    <glyph glyph-name="nine.numr" horiz-adv-x="913" 
d="M825 1090q0 -116 -27 -210.5t-81 -163.5t-142 -101.5t-202 -20.5l-199 20v129l219 -20q159 -14 242.5 71.5t83.5 217.5l31 75h-31q-22 -96 -106.5 -162.5t-211.5 -66.5q-147 0 -229 87.5t-82 230.5q0 147 99.5 238t265.5 91q174 0 272 -105t98 -310zM672 1180
q0 89 -53 142.5t-162 53.5q-110 0 -161.5 -49.5t-51.5 -148.5q0 -191 190 -191q109 0 173.5 53.5t64.5 139.5z" />
    <glyph glyph-name="colon.case" horiz-adv-x="681" 
d="M340 911q-72 0 -121 49t-49 121q0 71 49 119.5t121 48.5q71 0 120.5 -49t49.5 -119q0 -72 -49.5 -121t-120.5 -49zM340 195q-72 0 -121 49t-49 121q0 71 49 119t121 48q71 0 120.5 -48.5t49.5 -118.5q0 -72 -49.5 -121t-120.5 -49z" />
    <glyph glyph-name="bullet.case" horiz-adv-x="1333" 
d="M664 225q-139 0 -252.5 65.5t-177.5 180t-64 254.5q0 208 141.5 351t352.5 143q206 0 352.5 -144t146.5 -350q0 -139 -67.5 -254t-182 -180.5t-249.5 -65.5z" />
    <glyph glyph-name="parenleft.case" horiz-adv-x="880" 
d="M711 -12v-142q-143 30 -249 107.5t-169 193.5t-93 259t-30 317t30 316.5t93.5 258t169 192.5t248.5 107v-141q-387 -95 -387 -733q0 -637 387 -735z" />
    <glyph glyph-name="parenright.case" horiz-adv-x="880" 
d="M170 -12q387 98 387 735q0 638 -387 733v141q143 -30 248.5 -107t169 -192.5t93.5 -258t30 -316.5t-30 -317t-93 -259t-169 -193.5t-249 -107.5v142z" />
    <glyph glyph-name="braceleft.case" horiz-adv-x="1208" 
d="M584 1458l-117 27v-47q111 -35 192 -86.5t128 -114.5t68.5 -130.5t21.5 -143.5q0 -108 -72 -246q72 -138 72 -246q0 -76 -21.5 -143.5t-68.5 -130.5t-128 -114.5t-192 -86.5v-47l117 26h454v-129h-618v224q119 51 189 118t95 139.5t25 170.5q0 34 -8 92
q-129 -150 -266 -150q-119 0 -202 75t-83 202q0 128 81.5 202t203.5 74q138 0 266 -149q8 58 8 92q0 149 -67 251.5t-242 176.5v223h618v-129h-454zM469 565q58 0 113 41t92 111q-37 69 -92 110t-113 41q-62 0 -103.5 -42t-41.5 -109t41.5 -109.5t103.5 -42.5z" />
    <glyph glyph-name="braceright.case" horiz-adv-x="1140" 
d="M688 440q-137 0 -266 150q-8 -62 -8 -92q0 -149 66.5 -251t242.5 -177v-224h-619v129h455l117 -26v47q-111 35 -192 86.5t-128 114.5t-68.5 130.5t-21.5 143.5q0 108 72 246q-72 138 -72 246q0 76 21.5 143.5t68.5 130.5t128 114.5t192 86.5v47l-117 -27h-455v129h619
v-223q-176 -74 -242.5 -176t-66.5 -252q0 -30 8 -92q128 149 266 149q121 0 202 -74t81 -202q0 -127 -82 -202t-201 -75zM674 868q-58 0 -113 -41t-92 -110q37 -70 92 -111t113 -41q62 0 102.5 42.5t40.5 109.5t-40.5 109t-102.5 42z" />
    <glyph glyph-name="bracketleft.case" horiz-adv-x="882" 
d="M170 1597h543v-129h-389v-1493h389v-129h-543v1751z" />
    <glyph glyph-name="bracketright.case" horiz-adv-x="882" 
d="M713 1597v-1751h-543v129h389v1493h-389v129h543z" />
    <glyph glyph-name="braceleft.ss01" horiz-adv-x="972" 
d="M170 645q330 35 330 283q0 125 -64.5 198t-177.5 88v230h545v-129h-395l-103 26v-47q187 -36 267.5 -128t80.5 -236q0 -129 -82.5 -221.5t-230.5 -116.5v-49q147 -24 230 -117t83 -221q0 -143 -80 -234t-268 -129v-47l103 27h395v-129h-545v229q115 18 178.5 89t63.5 194
q0 249 -330 284v156z" />
    <glyph glyph-name="braceright.ss01" horiz-adv-x="972" 
d="M803 645v-156q-330 -35 -330 -284q0 -123 63.5 -194t178.5 -89v-229h-545v129h395l103 -27v47q-188 38 -268.5 129t-80.5 234q0 128 83.5 221t230.5 117v49q-148 24 -231 116.5t-83 221.5q0 143 80.5 235t268.5 129v47l-103 -26h-395v129h545v-230q-113 -15 -177.5 -88
t-64.5 -198q0 -248 330 -283z" />
    <glyph glyph-name="braceleft.case.ss01" horiz-adv-x="972" 
d="M170 799q330 35 330 282q0 125 -64.5 198.5t-177.5 88.5v229h545v-129h-395l-103 27v-47q187 -36 267.5 -128.5t80.5 -236.5q0 -129 -82.5 -221.5t-230.5 -116.5v-49q147 -24 230 -117t83 -221q0 -143 -80 -233.5t-268 -128.5v-47l103 26h395v-129h-545v230
q116 18 179 88.5t63 193.5q0 250 -330 285v156z" />
    <glyph glyph-name="braceright.case.ss01" horiz-adv-x="972" 
d="M803 799v-156q-330 -35 -330 -285q0 -123 63 -193.5t179 -88.5v-230h-545v129h395l103 -26v47q-188 38 -268.5 128.5t-80.5 233.5q0 128 83.5 221t230.5 117v49q-148 24 -231 116.5t-83 221.5q0 144 81 236.5t268 128.5v47l-103 -27h-395v129h545v-229
q-113 -15 -177.5 -88.5t-64.5 -198.5q0 -247 330 -282z" />
    <glyph glyph-name="hyphen.case" horiz-adv-x="1316" 
d="M170 791h977v-136h-977v136z" />
    <glyph glyph-name="endash.case" horiz-adv-x="1730" 
d="M170 791h1391v-136h-1391v136z" />
    <glyph glyph-name="emdash.case" horiz-adv-x="2140" 
d="M170 791h1800v-136h-1800v136z" />
    <glyph glyph-name="guillemotleft.case" horiz-adv-x="1437" 
d="M848 252l-109 -94l-569 565l569 563l109 -94l-473 -469zM1268 252l-109 -94l-569 565l569 563l109 -94l-473 -469z" />
    <glyph glyph-name="guillemotright.case" horiz-adv-x="1443" 
d="M178 252l471 471l-471 469l109 94l567 -563l-567 -565zM598 252l471 471l-471 469l109 94l567 -563l-567 -565z" />
    <glyph glyph-name="guilsinglleft.case" horiz-adv-x="1017" 
d="M848 252l-109 -94l-569 565l569 563l109 -94l-473 -469z" />
    <glyph glyph-name="guilsinglright.case" horiz-adv-x="1024" 
d="M178 252l471 471l-471 469l109 94l567 -563l-567 -565z" />
    <glyph glyph-name="ampersand.ss01" horiz-adv-x="1732" 
d="M1563 68l-80 -127q-159 98 -297 196q-218 -157 -514 -157q-144 0 -256 42t-179 127.5t-67 204.5q0 85 26.5 152.5t77 116t107 81.5t133.5 64q-108 164 -108 309q0 182 119.5 284.5t326.5 102.5q174 0 276.5 -87t102.5 -238q0 -66 -25 -123t-65.5 -99t-104.5 -81
t-128 -66.5t-150 -58.5q161 -185 426 -385q209 218 209 620h168q0 -215 -67 -395.5t-191 -310.5q123 -86 260 -172zM573 1077q0 -109 99 -254q2 1 9.5 4t12.5 4q78 27 131.5 49.5t102 50t76.5 56.5t44.5 66t16.5 82q0 90 -54 138t-161 48q-137 0 -207 -65t-70 -179zM672 123
q224 0 391 104q-291 217 -463 424q-136 -60 -199 -125.5t-63 -169.5q0 -110 92 -171.5t242 -61.5z" />
    <glyph glyph-name="brevecombcy" horiz-adv-x="0" 
d="M-170 1505q0 -159 -85.5 -255.5t-233.5 -96.5q-149 0 -235.5 96.5t-86.5 255.5h137q0 -113 44 -166t141 -53t139.5 52.5t42.5 166.5h137z" />
    </font>
</defs>
</svg>
