<?xml version="1.0" standalone="no"?>
<!DOCTYPE svg PUBLIC "-//W3C//DTD SVG 1.1//EN" "http://www.w3.org/Graphics/SVG/1.1/DTD/svg11.dtd" >
<svg xmlns="http://www.w3.org/2000/svg" xmlns:xlink="http://www.w3.org/1999/xlink" version="1.1">
<metadata>
Created by FontForge 20170731 at Tue Sep  5 12:36:05 2023
 By Aleksey,,,
Copyright (c) 2019 by Mathieu Desjardins. All rights reserved.
</metadata>
<defs>
<font id="NeueMachina-Regular" horiz-adv-x="1316" >
  <font-face 
    font-family="Neue Machina"
    font-weight="400"
    font-stretch="normal"
    units-per-em="2048"
    panose-1="0 0 5 0 0 0 0 0 0 0"
    ascent="1638"
    descent="-410"
    x-height="1018"
    cap-height="1444"
    bbox="0 -457 2228 2015"
    underline-thickness="102"
    underline-position="-255"
    unicode-range="U+0020-FB03"
  />
<missing-glyph horiz-adv-x="748" 
d="M68 0v1365h544v-1365h-544zM136 68h408v1229h-408v-1229z" />
    <glyph glyph-name=".notdef" horiz-adv-x="748" 
d="M68 0v1365h544v-1365h-544zM136 68h408v1229h-408v-1229z" />
    <glyph glyph-name="glyph1" horiz-adv-x="0" 
 />
    <glyph glyph-name="glyph2" horiz-adv-x="682" 
 />
    <glyph glyph-name="space" unicode=" " horiz-adv-x="679" 
 />
    <glyph glyph-name="exclam" unicode="!" horiz-adv-x="681" 
d="M170 152q0 71 49 119t121 48q71 0 120.5 -48.5t49.5 -118.5q0 -73 -49.5 -122.5t-120.5 -49.5q-72 0 -121 49.5t-49 122.5zM258 1444h168l-20 -948h-130z" />
    <glyph glyph-name="quotedbl" unicode="&#x22;" horiz-adv-x="774" 
d="M170 999v521h154v-521h-154zM451 999v521h153v-521h-153z" />
    <glyph glyph-name="numbersign" unicode="#" horiz-adv-x="2215" 
d="M170 272v131h446l164 484h-411v131h456l191 567l129 -45l-176 -522h532l191 567l129 -45l-176 -522h399v-131h-445l-161 -484h407v-131h-452l-195 -577l-129 45l180 532h-532l-195 -577l-129 45l180 532h-403zM762 403h530l164 484h-532z" />
    <glyph glyph-name="dollar" unicode="$" horiz-adv-x="1548" 
d="M170 541h168q0 -109 24.5 -186.5t74 -124.5t116 -71t158.5 -32v565q-67 20 -114 36t-100.5 39t-89 45t-71 53t-55.5 65.5t-32.5 79.5t-12.5 98q0 164 117 256.5t358 99.5v283h129v-287q127 -13 223 -60.5t150 -117.5t80 -148.5t26 -164.5h-168q0 151 -84.5 238
t-226.5 108v-506q55 -17 88.5 -27.5t85 -29t84 -33t75 -37.5t69 -45t55 -52t44.5 -62t26.5 -72.5t10.5 -85.5q0 -380 -538 -385v-283h-129v287q-122 10 -215 41t-154.5 79t-100 116.5t-55 146t-16.5 174.5zM403 1112q0 -98 71.5 -153t236.5 -109v471q-308 -10 -308 -209z
M840 123q184 2 277 56t93 177q0 53 -21 96.5t-52.5 72.5t-84.5 55t-98.5 41t-113.5 34v-532z" />
    <glyph glyph-name="percent" unicode="%" horiz-adv-x="2398" 
d="M170 1102q0 178 118.5 301t305.5 123t305.5 -123t118.5 -301t-118.5 -301t-305.5 -123t-305.5 123t-118.5 301zM307 1102q0 -119 81.5 -203t205.5 -84q125 0 207 84t82 203t-82 203t-207 84q-124 0 -205.5 -84t-81.5 -203zM817 -180l625 1843l129 -45l-625 -1845z
M1380 383q0 178 118.5 301t305.5 123t305.5 -123t118.5 -301t-118.5 -301t-305.5 -123t-305.5 123t-118.5 301zM1518 383q0 -120 80.5 -203.5t205.5 -83.5t206 84t81 203t-81 203t-206 84t-205.5 -83.5t-80.5 -203.5z" />
    <glyph glyph-name="ampersand" unicode="&#x26;" horiz-adv-x="1953" 
d="M170 494q0 108 36 198.5t96.5 149t139.5 91t166 32.5q81 0 142 -31.5t94 -73.5v49l-342 437l-2 98h1077v-144h-850l703 -890q145 233 145 598h166q0 -442 -209 -727l250 -316l-131 -86l-224 285q-235 -215 -593 -215q-193 0 -343 65t-235.5 189.5t-85.5 290.5zM338 492
q0 -187 135 -293.5t361 -106.5q304 0 497 193l-274 350q-88 113 -170.5 158t-202.5 45q-157 0 -251.5 -91.5t-94.5 -254.5z" />
    <glyph glyph-name="quotesingle" unicode="'" horiz-adv-x="495" 
d="M170 999v521h154v-521h-154z" />
    <glyph glyph-name="parenleft" unicode="(" horiz-adv-x="880" 
d="M170 569q0 174 30 316.5t93 258.5t169 193t249 107v-141q-387 -95 -387 -734q0 -640 387 -735v-141q-115 24 -206 79.5t-153.5 134t-103.5 183t-59.5 223t-18.5 256.5z" />
    <glyph glyph-name="parenright" unicode=")" horiz-adv-x="880" 
d="M170 -166q387 95 387 735q0 639 -387 734v141q143 -30 249 -107t169 -193t93 -258.5t30 -316.5q0 -138 -18.5 -256.5t-59.5 -223t-103.5 -183t-153.5 -134t-206 -79.5v141z" />
    <glyph glyph-name="asterisk" unicode="*" horiz-adv-x="1038" 
d="M129 1176l41 124l238 -77l73 -54l-24 86v250h129v-250l-27 -88l72 54l239 75l39 -122l-237 -78l-88 -4l69 -50l146 -202l-105 -76l-147 201l-29 84l-31 -82l-147 -203l-104 76l147 202l72 52l-86 4z" />
    <glyph glyph-name="plus" unicode="+" 
d="M170 446v138h420v420h137v-420h420v-138h-420v-419h-137v419h-420z" />
    <glyph glyph-name="comma" unicode="," horiz-adv-x="567" 
d="M88 -258l160 592l149 -39l-159 -594z" />
    <glyph glyph-name="hyphen" unicode="-" 
d="M170 446v138h977v-138h-977z" />
    <glyph glyph-name="period" unicode="." horiz-adv-x="681" 
d="M170 152q0 71 49 119t121 48q71 0 120.5 -48.5t49.5 -118.5q0 -73 -49.5 -122.5t-120.5 -49.5q-72 0 -121 49.5t-49 122.5z" />
    <glyph glyph-name="slash" unicode="/" horiz-adv-x="1011" 
d="M129 -178l625 1845l129 -45l-625 -1845z" />
    <glyph glyph-name="zero" unicode="0" horiz-adv-x="1482" 
d="M127 723q0 160 39.5 294.5t115.5 234.5t194 156t267 56q147 0 264.5 -56t193 -155.5t115.5 -234.5t40 -295q0 -161 -40 -296t-115.5 -235t-193 -156t-264.5 -56q-198 0 -339 98t-209 263.5t-68 381.5zM293 723q0 -205 65 -350l680 829q-116 119 -295 119
q-147 0 -249.5 -77.5t-151.5 -210.5t-49 -310zM444 244q115 -121 299 -121q217 0 332 164t115 436q0 203 -66 350z" />
    <glyph glyph-name="one" unicode="1" horiz-adv-x="987" 
d="M106 803q366 148 373 641h340v-1444h-168v1280l29 117h-49q-6 -103 -22 -188.5t-49.5 -174.5t-84.5 -157.5t-131 -126t-184 -91.5z" />
    <glyph glyph-name="two" unicode="2" horiz-adv-x="1370" 
d="M109 748q0 189 47.5 330t133.5 224t195.5 122.5t243.5 39.5q235 0 375.5 -126.5t140.5 -358.5q0 -137 -54 -255.5t-149.5 -207.5t-231 -159.5t-292.5 -117t-340 -75.5v-47l119 26h948v-143h-1116v293q32 4 71.5 11t107 23t133 36t144 51.5t146 68.5t133 89.5t111.5 111
t74 135.5t28 162q0 166 -89.5 253t-254.5 87q-457 0 -457 -573h-167z" />
    <glyph glyph-name="three" unicode="3" horiz-adv-x="1386" 
d="M123 551h168q0 -231 102 -329.5t324 -98.5q193 0 283 76t90 225q0 264 -279 264h-201v143h201q131 0 194.5 55.5t63.5 172.5q0 262 -352 262q-215 0 -310.5 -85t-95.5 -265h-168q0 241 147.5 367t426.5 126q251 0 385.5 -105.5t134.5 -277.5q0 -130 -69.5 -202.5
t-209.5 -94.5v-47q149 -30 224 -105.5t75 -232.5q0 -195 -141.5 -307t-398.5 -112q-287 0 -440.5 139.5t-153.5 431.5z" />
    <glyph glyph-name="four" unicode="4" horiz-adv-x="1357" 
d="M129 319v299q125 53 233 132.5t195 183t143 234.5t72 276h168q-87 -660 -762 -961v-49l119 29h598v524h168v-524h186v-144h-186v-319h-168v319h-766z" />
    <glyph glyph-name="five" unicode="5" horiz-adv-x="1443" 
d="M127 514h166q0 -192 109.5 -291.5t324.5 -99.5q200 0 310 107.5t110 306.5q0 170 -82 264t-244 94q-235 0 -366 -195l-215 111v633h972v-144h-806v-350l-27 -116l41 -23q63 100 175.5 163.5t258.5 63.5q213 0 337 -137.5t124 -372.5q0 -256 -160 -402t-428 -146
q-281 0 -440.5 140t-159.5 394z" />
    <glyph glyph-name="six" unicode="6" horiz-adv-x="1409" 
d="M129 676q0 145 21 267t69 226t120.5 173.5t180.5 102.5t244 19l418 -41v-143l-418 41q-100 10 -180.5 -13.5t-134 -70t-92.5 -118.5t-59.5 -148t-33.5 -168l-47 -117h47q31 157 171.5 254.5t334.5 97.5q239 0 377.5 -144t138.5 -376q0 -156 -69 -277.5t-200.5 -191
t-307.5 -69.5q-267 0 -423.5 178t-156.5 518zM297 498q0 -70 28 -136.5t79 -120t130.5 -86t174.5 -32.5q195 0 302 103t107 292q0 173 -96.5 275t-273.5 102q-196 0 -323.5 -108t-127.5 -289z" />
    <glyph glyph-name="seven" unicode="7" horiz-adv-x="1200" 
d="M72 1300v144h1056v-283q-325 -164 -480.5 -445t-155.5 -716h-170q0 466 186 777t571 503v47l-114 -27h-893z" />
    <glyph glyph-name="eight" unicode="8" horiz-adv-x="1374" 
d="M102 397q0 152 86.5 240t257.5 133v49q-130 38 -196 107.5t-66 195.5q0 114 67.5 192.5t178.5 114t258 35.5q224 0 363 -86.5t139 -255.5q0 -126 -66 -195.5t-196 -107.5v-49q170 -44 257 -134t87 -239q0 -188 -156 -302.5t-428 -114.5q-275 0 -430.5 114.5t-155.5 302.5
zM270 422q0 -140 104 -219.5t314 -79.5q209 0 312.5 79.5t103.5 219.5q0 139 -104 219t-312 80q-210 0 -314 -80t-104 -219zM352 1094q0 -125 84.5 -177.5t251.5 -52.5q166 0 250 52.5t84 177.5q0 122 -84.5 174.5t-249.5 52.5q-166 0 -251 -52.5t-85 -174.5z" />
    <glyph glyph-name="nine" unicode="9" horiz-adv-x="1409" 
d="M123 926q0 156 69 277.5t200.5 191t307.5 69.5q267 0 423.5 -178t156.5 -518q0 -145 -21 -267t-69 -226t-120.5 -173.5t-180.5 -102.5t-244 -19l-418 40v144l418 -41q101 -10 181.5 13.5t133.5 70t92 118.5t59.5 147.5t33.5 168.5l49 117h-49q-31 -157 -171.5 -254.5
t-334.5 -97.5q-239 0 -377.5 144t-138.5 376zM291 926q0 -173 97.5 -275t273.5 -102q196 0 323 108t127 289q0 70 -28 136.5t-78.5 120t-130.5 86t-175 32.5q-195 0 -302 -103t-107 -292z" />
    <glyph glyph-name="colon" unicode=":" horiz-adv-x="681" 
d="M170 152q0 71 49 119t121 48q71 0 120.5 -48.5t49.5 -118.5q0 -73 -49.5 -122.5t-120.5 -49.5q-72 0 -121 49.5t-49 122.5zM170 868q0 71 49 120.5t121 49.5q70 0 120 -50t50 -120q0 -72 -49.5 -121t-120.5 -49q-72 0 -121 49t-49 121z" />
    <glyph glyph-name="semicolon" unicode=";" horiz-adv-x="692" 
d="M88 -258l160 592l149 -39l-159 -594zM180 868q0 71 49 120.5t121 49.5q70 0 120 -50t50 -120q0 -72 -49.5 -121t-120.5 -49q-72 0 -121 49t-49 121z" />
    <glyph glyph-name="less" unicode="&#x3c;" horiz-adv-x="1320" 
d="M170 426v160l926 327l53 -131l-807 -276l807 -268l-53 -132z" />
    <glyph glyph-name="equal" unicode="=" 
d="M170 240v135h977v-135h-977zM170 655v138h977v-138h-977z" />
    <glyph glyph-name="greater" unicode="&#x3e;" horiz-adv-x="1320" 
d="M170 238l809 268l-809 276l55 131l924 -327v-160l-924 -320z" />
    <glyph glyph-name="question" unicode="?" horiz-adv-x="1060" 
d="M129 1038q0 200 111.5 318.5t314.5 118.5q184 0 280.5 -94t96.5 -253q0 -88 -35.5 -162t-95 -126t-143.5 -92.5t-173 -65.5t-192 -41v-37l88 23h432v-131h-567v262q37 4 73.5 9.5t91.5 19.5t102.5 32t98 48.5t85.5 67.5t58 91t23 117q0 96 -54.5 149.5t-166.5 53.5
q-140 0 -207 -76.5t-67 -231.5h-154zM354 152q0 71 48 119t120 48q71 0 121.5 -48.5t50.5 -118.5q0 -73 -50.5 -122.5t-121.5 -49.5q-72 0 -120 49t-48 123z" />
    <glyph glyph-name="at" unicode="@" horiz-adv-x="2168" 
d="M170 592q0 254 120 457t332 316.5t476 113.5q198 0 366.5 -65.5t285.5 -180.5t183 -276t66 -347q0 -76 -11 -148t-39 -143.5t-70.5 -124t-110.5 -85.5t-154 -33h-76q-54 0 -83.5 30t-29.5 87v61l27 113h-47q-32 -130 -139 -210.5t-269 -80.5q-218 0 -352.5 147.5
t-134.5 380.5q0 231 134.5 378.5t352.5 147.5q162 0 269 -80.5t139 -211.5h47l-27 116v105h154v-854h47q240 0 240 405q0 156 -55.5 292.5t-154.5 235t-243.5 155.5t-314.5 57t-318.5 -59.5t-252.5 -161t-164 -241.5t-60 -296q0 -165 58.5 -305.5t164 -241t262.5 -151.5
t345 -37l688 47v-129l-688 -49q-216 -14 -397 45t-304.5 175t-192.5 282.5t-69 363.5zM664 604q0 -201 98.5 -300t263.5 -99q169 0 275 100t106 299q0 196 -106.5 295.5t-274.5 99.5q-165 0 -263.5 -99t-98.5 -296z" />
    <glyph glyph-name="A" unicode="A" horiz-adv-x="1413" 
d="M68 0l467 1444h344l464 -1444h-165l-183 565h-579l-180 -565h-168zM463 709h487l-221 688h-47z" />
    <glyph glyph-name="B" unicode="B" horiz-adv-x="1323" 
d="M150 0v1444h382q111 0 193.5 -9.5t153 -33t115 -63.5t69 -102t24.5 -146q0 -76 -23.5 -134.5t-64.5 -94t-91 -54.5t-109 -23v-49q86 -2 155.5 -21t124.5 -59t85 -109t30 -163q0 -107 -39 -182.5t-115.5 -118.5t-177.5 -62.5t-237 -19.5h-475zM317 143h314q100 0 167 10.5
t121.5 38.5t80.5 82.5t26 137.5q0 150 -98.5 209t-296.5 59h-314v-537zM317 823h222q77 0 131 5t104 20.5t80.5 41.5t48 69.5t17.5 103.5q0 47 -9.5 83t-24.5 61.5t-42.5 42.5t-55 27t-71.5 15t-82 6.5t-96 1.5h-222v-477z" />
    <glyph glyph-name="C" unicode="C" horiz-adv-x="1587" 
d="M129 723q0 211 79.5 378t234.5 265t362 98q275 0 448 -154t205 -423h-168q-25 208 -149.5 321t-335.5 113q-164 0 -280 -77.5t-172 -211t-56 -309.5q0 -177 56 -311t172 -211.5t280 -77.5q211 0 335.5 113.5t149.5 322.5h168q-32 -270 -205 -424.5t-448 -154.5
q-207 0 -362 98t-234.5 265.5t-79.5 379.5z" />
    <glyph glyph-name="D" unicode="D" horiz-adv-x="1460" 
d="M150 0v1444h458q81 0 150.5 -7t145.5 -27.5t136 -53.5t116 -88.5t93.5 -129.5t59.5 -179.5t22 -235.5t-22 -236t-59.5 -180t-93.5 -130t-116 -89t-136 -53.5t-145.5 -27.5t-150.5 -7h-458zM317 143h291q48 0 87 2t86 9.5t85 20t78.5 34.5t71.5 52t59.5 74t47 99
t29.5 128.5t11 160.5q0 111 -18 199.5t-46.5 148t-74 103t-90 67.5t-105 37.5t-109.5 17.5t-112 4h-291v-1157z" />
    <glyph glyph-name="E" unicode="E" horiz-adv-x="1153" 
d="M150 0v1444h894v-144h-727v-505h625v-144h-625v-508h727v-143h-894z" />
    <glyph glyph-name="F" unicode="F" horiz-adv-x="1204" 
d="M150 0v1444h946v-144h-779v-575l682 41v-145l-682 -41v-580h-167z" />
    <glyph glyph-name="G" unicode="G" horiz-adv-x="1669" 
d="M129 723q0 212 82.5 379.5t238.5 264.5t361 97q263 0 417.5 -145t188.5 -391h-168q-26 189 -130 291t-308 102q-247 0 -380.5 -163t-133.5 -435q0 -136 26 -243.5t80.5 -188.5t145.5 -124.5t215 -43.5q214 0 316 127q98 121 98 366v19h-494v135h713q123 0 123 -113v-657
h-168v539l26 184h-47q-3 -743 -569 -743q-155 0 -277 56t-199 156t-117 234.5t-40 296.5z" />
    <glyph glyph-name="H" unicode="H" horiz-adv-x="1486" 
d="M150 0v1444h167v-660h852v660h166v-1444h-166v641h-852v-641h-167z" />
    <glyph glyph-name="I" unicode="I" horiz-adv-x="1071" 
d="M129 0v143h324v1157h-324v144h813v-144h-321v-1157h321v-143h-813z" />
    <glyph glyph-name="J" unicode="J" horiz-adv-x="968" 
d="M68 0v143l333 -20q17 -1 33 -1q39 0 70 7q44 10 74 38.5t48.5 67.5t28.5 106t13.5 140t3.5 183v657l-379 -21v144l422 20h10q52 0 81 -30q32 -33 32 -93v-696q0 -98 -3.5 -169.5t-14.5 -147t-30 -127.5t-52 -99.5t-78.5 -74t-110.5 -39.5q-47 -9 -103 -9q-22 0 -45 1z
" />
    <glyph glyph-name="K" unicode="K" horiz-adv-x="1374" 
d="M150 0v1444h167v-615l746 615h242l-881 -721l881 -723h-242l-746 614v-614h-167z" />
    <glyph glyph-name="L" unicode="L" horiz-adv-x="1112" 
d="M150 102v1342h167v-1321l727 20v-143l-770 -20h-4q-57 0 -88 31q-32 32 -32 91z" />
    <glyph glyph-name="M" unicode="M" horiz-adv-x="1841" 
d="M150 0v1444h337l410 -1397h47l412 1397h336v-1444h-168v1276l28 121h-49l-413 -1397h-338l-414 1397h-47l26 -121v-1276h-167z" />
    <glyph glyph-name="N" unicode="N" horiz-adv-x="1546" 
d="M150 0v1444h337l721 -1397h47l-26 121v1276h166v-1444h-338l-719 1397h-47l26 -121v-1276h-167z" />
    <glyph glyph-name="O" unicode="O" horiz-adv-x="1605" 
d="M129 723q0 211 79 378t234 265t363 98q206 0 360 -98t233 -265t79 -378q0 -212 -79 -379.5t-233 -265.5t-360 -98q-156 0 -284.5 56.5t-213.5 156.5t-131.5 236t-46.5 294zM297 723q0 -131 32 -240t93.5 -189.5t159.5 -125.5t223 -45t222 45t158 125.5t92.5 189.5
t31.5 240t-31.5 239t-92.5 188.5t-158 125.5t-222 45q-166 0 -282.5 -78.5t-171 -211.5t-54.5 -308z" />
    <glyph glyph-name="P" unicode="P" horiz-adv-x="1259" 
d="M150 0v1444h405q115 0 203 -12.5t164 -44.5t125 -85t76.5 -135.5t27.5 -193.5q0 -112 -27.5 -195t-76.5 -136t-125 -85.5t-164 -45.5t-203 -13h-238v-498h-167zM317 641h240q81 0 139.5 7t115.5 27.5t92.5 56.5t57 96.5t21.5 144.5q0 83 -21.5 142.5t-57 95t-92.5 56
t-115.5 27t-139.5 6.5h-240v-659z" />
    <glyph glyph-name="Q" unicode="Q" horiz-adv-x="1583" 
d="M129 731q0 211 80 376t235.5 261t362.5 96q156 0 284 -56t213.5 -155.5t132 -235t46.5 -294.5q0 -139 -33 -261t-85 -209.5t-124.5 -160t-144.5 -118t-152 -78.5q41 2 84 2q291 0 690 -76v-144q-232 42 -430 62q-181 19 -386 19h-40q-227 -2 -465 -33l-18 135
q18 3 106 15.5t123.5 18t113.5 21t123.5 29t101.5 35.5t97 47l-18 30q-35 -24 -108 -40.5t-164 -16.5q-175 0 -318 93.5t-225 261.5t-82 376zM297 731q0 -265 136 -428.5t374 -163.5q239 0 373.5 160t134.5 424q0 265 -135.5 431.5t-372.5 166.5q-159 0 -275.5 -75.5
t-175.5 -208t-59 -306.5z" />
    <glyph glyph-name="R" unicode="R" horiz-adv-x="1359" 
d="M150 0v1444h479q137 0 234.5 -18t174.5 -62t115.5 -124.5t38.5 -199.5q0 -294 -268 -340v-49h172q61 0 87.5 -25.5t26.5 -82.5v-543h-168v580h-725v-580h-167zM317 723h312q59 0 100 2t85.5 9t74 19.5t57 34t43.5 52t25.5 73.5t9.5 99t-9.5 99.5t-25 74t-44 51.5
t-57.5 33.5t-74 19t-85.5 8.5t-99.5 2h-312v-577z" />
    <glyph glyph-name="S" unicode="S" horiz-adv-x="1384" 
d="M88 541h168q0 -101 22 -174.5t61 -120.5t101 -74.5t133.5 -38t167.5 -10.5q193 0 290 53.5t97 179.5q0 36 -8 66.5t-27 56t-38.5 45.5t-53.5 38.5t-59.5 31t-70.5 27t-72 23t-78 23t-76 21.5q-71 21 -118 37t-103.5 39t-92.5 45t-73 53t-57.5 66t-33.5 80.5t-13 99.5
q0 171 126 263.5t386 92.5q123 0 222.5 -29t163 -77t106.5 -113t61 -133.5t18 -142.5h-168q0 175 -113 263.5t-290 88.5q-344 0 -344 -209q0 -45 16 -81t42.5 -62t75.5 -51t99.5 -43.5t130.5 -43.5q216 -67 266 -86q216 -82 292 -198q52 -79 52 -182q0 -385 -555 -385
q-148 0 -261 26.5t-187 73.5t-120 118t-65.5 154.5t-19.5 188.5z" />
    <glyph glyph-name="T" unicode="T" horiz-adv-x="1347" 
d="M88 1300v144h1169v-144h-499v-1300h-166v1300h-504z" />
    <glyph glyph-name="U" unicode="U" horiz-adv-x="1361" 
d="M109 537v907h167v-881q0 -227 92 -333.5t312 -106.5t312.5 106.5t92.5 333.5v881h168v-907q0 -557 -573 -557q-571 0 -571 557z" />
    <glyph glyph-name="V" unicode="V" horiz-adv-x="1413" 
d="M68 1444h168l446 -1397h47l449 1397h165l-464 -1444h-344z" />
    <glyph glyph-name="W" unicode="W" horiz-adv-x="2074" 
d="M68 1444h159l295 -1397h49l293 1397h346l293 -1397h49l295 1397h160l-307 -1444h-342l-297 1397h-47l-295 -1397h-342z" />
    <glyph glyph-name="X" unicode="X" horiz-adv-x="1406" 
d="M68 0l501 692v62l-501 690h192l442 -621l445 621h190l-501 -690v-62l501 -692h-190l-445 623l-442 -623h-192z" />
    <glyph glyph-name="Y" unicode="Y" horiz-adv-x="1349" 
d="M68 1444h180l403 -705v-116h47v116l404 705h180l-524 -905v-539h-166v539z" />
    <glyph glyph-name="Z" unicode="Z" horiz-adv-x="1335" 
d="M109 0v324l1069 956v47l-115 -27h-954v144h1118v-324l-1069 -956v-47l114 26h955v-143h-1118z" />
    <glyph glyph-name="bracketleft" unicode="[" horiz-adv-x="882" 
d="M170 -307v1751h543v-129h-389v-1493h389v-129h-543z" />
    <glyph glyph-name="backslash" unicode="\" horiz-adv-x="1011" 
d="M129 1622l129 45l625 -1845l-129 -45z" />
    <glyph glyph-name="bracketright" unicode="]" horiz-adv-x="882" 
d="M170 -178h389v1493h-389v129h543v-1751h-543v129z" />
    <glyph glyph-name="asciicircum" unicode="^" horiz-adv-x="1114" 
d="M170 784l233 660h312l229 -660h-156l-206 613h-47l-207 -613h-158z" />
    <glyph glyph-name="underscore" unicode="_" horiz-adv-x="1234" 
d="M129 -92h977v-137h-977v137z" />
    <glyph glyph-name="grave" unicode="`" horiz-adv-x="1003" 
d="M170 1346l35 131l626 -162l-32 -131z" />
    <glyph glyph-name="a" unicode="a" horiz-adv-x="1212" 
d="M109 283q0 262 333 297l406 38q-7 138 -80.5 208.5t-206.5 70.5q-58 0 -107 -13.5t-90 -42.5t-64.5 -80.5t-23.5 -121.5h-163q0 80 30 151.5t85 127t141.5 88t191.5 32.5q211 0 333 -126.5t122 -333.5v-435h149v-143h-180q-58 0 -89.5 31t-31.5 88v55l27 107h-49
q-16 -62 -44 -113.5t-74 -95t-116 -68t-159 -24.5q-84 0 -148 22t-99.5 54t-57.5 75.5t-28.5 79t-6.5 72.5zM276 303q0 -87 51.5 -133.5t141.5 -46.5q171 0 275 105t104 266l-377 -39q-100 -9 -147.5 -44t-47.5 -108z" />
    <glyph glyph-name="b" unicode="b" horiz-adv-x="1343" 
d="M150 0v1505h167v-637l-26 -116h47q34 127 140.5 206.5t273.5 79.5q144 0 255 -69t169.5 -189t58.5 -270q0 -231 -132.5 -380.5t-350.5 -149.5q-167 0 -273.5 79t-140.5 205h-47l26 -114v-150h-167zM317 510q0 -99 30 -174.5t83.5 -121.5t121.5 -68.5t148 -22.5
q167 0 267 96t100 291q0 194 -100 289.5t-267 95.5q-168 0 -275.5 -96.5t-107.5 -288.5z" />
    <glyph glyph-name="c" unicode="c" horiz-adv-x="1212" 
d="M109 510q0 148 60 266.5t180 190t280 71.5q78 0 154.5 -22.5t146 -68.5t117 -127t57.5 -187h-170q-11 71 -39 123t-69.5 81.5t-90.5 43.5t-106 14q-88 0 -157 -30.5t-111 -84t-63.5 -122t-21.5 -148.5q0 -81 21.5 -150t63.5 -122.5t111 -84t157 -30.5q57 0 106 14
t90.5 43.5t69.5 81.5t39 123h170q-10 -106 -57.5 -187t-117 -127t-146 -68.5t-154.5 -22.5q-160 0 -280 71.5t-180 190.5t-60 268z" />
    <glyph glyph-name="d" unicode="d" horiz-adv-x="1345" 
d="M109 510q0 229 133.5 378.5t351.5 149.5q166 0 272 -79.5t140 -206.5h49l-29 116v637h168v-1505h-168v150l29 114h-49q-34 -126 -140.5 -205t-271.5 -79q-218 0 -351.5 149.5t-133.5 380.5zM276 510q0 -195 100 -291t267 -96q81 0 149 22.5t121 68.5t83 121.5t30 174.5
q0 98 -30 173.5t-83 121t-121 68t-149 22.5q-167 0 -267 -95.5t-100 -289.5z" />
    <glyph glyph-name="e" unicode="e" horiz-adv-x="1220" 
d="M109 522q0 241 136 378.5t357 137.5q218 0 346.5 -131.5t128.5 -363.5v-66h-805q4 -76 25 -138t61.5 -113t109 -79t159.5 -28q127 0 208 60.5t109 176.5h168q-13 -52 -34 -100t-60.5 -100t-90.5 -89.5t-129 -62t-171 -24.5q-133 0 -234.5 43t-162 118.5t-91 171.5
t-30.5 209zM272 604h641q0 128 -82 210.5t-229 82.5q-148 0 -239 -83.5t-91 -209.5z" />
    <glyph glyph-name="f" unicode="f" horiz-adv-x="880" 
d="M88 0v143h225v731h-225v144h225v156q0 331 344 331h177v-143h-185q-94 0 -132 -45.5t-38 -147.5v-151h297v-144h-297v-731h297v-143h-688z" />
    <glyph glyph-name="g" unicode="g" horiz-adv-x="1351" 
d="M109 627q0 136 70.5 230.5t185.5 137.5t266 43q208 0 346 -98q78 50 122 64t115 14h91v-144h-86q-80 0 -134 -40q70 -86 70 -216q0 -158 -119 -268.5t-360 -199.5q75 12 140 14h19q56 0 108 -10q61 -12 104.5 -38t69.5 -73.5t26 -112.5q0 -58 -18.5 -102t-52 -76.5
t-94 -55t-131 -36.5t-178 -21.5t-218.5 -10.5t-269 -3v144q121 0 202.5 1t167 4t139 8t106 14t82 21.5t53.5 30.5t33.5 41.5t9.5 53.5q0 54 -33.5 86.5t-93.5 40.5q-46 7 -98 7q-15 0 -30 -1q-68 -2 -153 -19t-152.5 -34t-140.5 -39l-34 116q218 60 483 142v47
q-99 -25 -190 -27q-9 -1 -18 -1q-81 0 -150 20q-77 22 -134 66t-89.5 116t-32.5 164zM276 623q0 -275 357 -275q354 0 354 275q0 272 -354 272q-357 0 -357 -272z" />
    <glyph glyph-name="h" unicode="h" horiz-adv-x="1239" 
d="M150 0v1505h167v-663l-26 -117h47q32 144 131.5 228.5t259.5 84.5q177 0 278 -104.5t101 -310.5v-623h-166v600q0 157 -62.5 226t-195.5 69q-163 0 -265 -120.5t-102 -323.5v-451h-167z" />
    <glyph glyph-name="i" unicode="i" horiz-adv-x="907" 
d="M109 0v143h286v750l-211 -19v144l236 20q10 1 20 1q54 -1 81 -29q32 -34 32 -95v-772h287v-143h-731zM301 1323q0 59 42.5 100t105.5 41q61 0 104 -41t43 -100q0 -61 -42.5 -102t-104.5 -41q-63 0 -105.5 41t-42.5 102z" />
    <glyph glyph-name="j" unicode="j" horiz-adv-x="583" 
d="M47 -375l184 322q35 61 35 139v807l-219 -19v144l248 18q11 1 20 1q54 0 84 -28q35 -33 35 -94v-854q0 -78 -35 -139l-168 -297h-184zM174 1323q0 59 42.5 100t105.5 41t106 -41t43 -100q0 -61 -43 -102t-106 -41t-105.5 41t-42.5 102z" />
    <glyph glyph-name="k" unicode="k" horiz-adv-x="1150" 
d="M150 0v1505h167v-973l519 283l-21 203h168l16 -187q1 -9 1 -17q0 -85 -82 -130l-250 -137l393 -547h-191l-340 473l-213 -117v-356h-167z" />
    <glyph glyph-name="l" unicode="l" horiz-adv-x="894" 
d="M88 0v143h287v1237l-211 -18v143l237 21q10 1 18 1q55 -1 87 -33q36 -38 35 -110v-1241h284v-143h-737z" />
    <glyph glyph-name="m" unicode="m" horiz-adv-x="1847" 
d="M150 0v1018h167v-174l-26 -115h47q69 309 364 309q133 0 210.5 -83.5t95.5 -225.5h30q69 309 365 309q154 0 234.5 -109.5t80.5 -287.5v-641h-168v602q0 155 -44.5 224t-164.5 69q-150 0 -236.5 -122t-86.5 -324v-449h-168v602q0 155 -44.5 224t-164.5 69
q-151 0 -237.5 -122t-86.5 -324v-449h-167z" />
    <glyph glyph-name="n" unicode="n" horiz-adv-x="1239" 
d="M150 0v1018h167v-176l-26 -117h47q32 144 131.5 228.5t259.5 84.5q177 0 278 -104.5t101 -310.5v-623h-166v600q0 157 -62.5 226t-195.5 69q-163 0 -265 -120.5t-102 -323.5v-451h-167z" />
    <glyph glyph-name="o" unicode="o" horiz-adv-x="1292" 
d="M109 510q0 147 65.5 267t189.5 190.5t283 70.5q158 0 281 -70.5t188.5 -190.5t65.5 -267q0 -148 -65.5 -268.5t-188.5 -191t-281 -70.5q-240 0 -389 151.5t-149 378.5zM276 510q0 -167 98 -277t273 -110q174 0 271.5 110t97.5 277q0 166 -98 275.5t-271 109.5
q-175 0 -273 -109.5t-98 -275.5z" />
    <glyph glyph-name="p" unicode="p" horiz-adv-x="1343" 
d="M150 -373v1391h167v-150l-26 -116h47q34 127 139.5 206.5t272.5 79.5q218 0 351.5 -149.5t133.5 -380.5q0 -229 -133.5 -378.5t-351.5 -149.5q-167 0 -272.5 79t-139.5 205h-47l26 -114v-523h-167zM317 508q0 -192 107.5 -288.5t275.5 -96.5q166 0 266.5 96.5
t100.5 288.5q0 193 -100 290t-267 97q-80 0 -148 -22.5t-121.5 -68.5t-83.5 -121.5t-30 -174.5z" />
    <glyph glyph-name="q" unicode="q" horiz-adv-x="1345" 
d="M109 508q0 231 134 380.5t353 149.5q166 0 271 -79.5t139 -206.5h49l-29 116v150h168v-1391h-168v523l29 114h-49q-34 -126 -139.5 -205t-270.5 -79q-219 0 -353 149t-134 379zM276 508q0 -192 100.5 -288.5t266.5 -96.5q81 0 149 22.5t121 68t83 121t30 173.5
q0 99 -30 174.5t-83 121.5t-121 68.5t-149 22.5q-167 0 -267 -97t-100 -290z" />
    <glyph glyph-name="r" unicode="r" horiz-adv-x="903" 
d="M150 0v897q0 139 130 139h11l565 -18v-144l-539 19v-893h-167z" />
    <glyph glyph-name="s" unicode="s" horiz-adv-x="1021" 
d="M88 375h168q0 -258 299 -258q121 0 176 32t55 109q0 24 -7 45t-16 36t-30 29.5t-35.5 23.5t-46.5 20.5t-49.5 17t-58.5 17.5t-60 18q-69 22 -112 38t-93 42.5t-77.5 55.5t-46.5 72t-19 97q0 123 99 195.5t272 72.5q114 0 197.5 -29t129 -79.5t66.5 -108.5t21 -125h-168
q0 205 -246 205q-92 0 -147.5 -30t-55.5 -95q0 -69 49.5 -103.5t184.5 -78.5q19 -6 60 -19t61.5 -20t56.5 -20t56 -22.5t49.5 -26t45.5 -31t35.5 -36t29 -44t16.5 -51t7 -60.5q0 -61 -20.5 -110t-65 -89.5t-124.5 -62.5t-191 -22q-239 0 -352 103t-113 292z" />
    <glyph glyph-name="t" unicode="t" horiz-adv-x="886" 
d="M47 874v144h225v262l166 51v-313h318v-144h-318v-753l359 22v-143l-385 -20q-8 -1 -16 -1q-124 0 -124 140v755h-225z" />
    <glyph glyph-name="u" unicode="u" horiz-adv-x="1218" 
d="M129 395v623h168v-600q0 -158 62 -226.5t196 -68.5q163 0 265 120t102 322v453h165v-1018h-165v176l26 117h-47q-32 -144 -131.5 -228.5t-259.5 -84.5q-179 0 -280 104t-101 311z" />
    <glyph glyph-name="v" unicode="v" horiz-adv-x="1103" 
d="M47 1018h164l317 -971h50l315 971h162l-332 -1018h-340z" />
    <glyph glyph-name="w" unicode="w" horiz-adv-x="1761" 
d="M47 1018h160l246 -971h49l205 971h346l207 -971h47l247 971h158l-258 -1018h-342l-207 969h-49l-207 -969h-344z" />
    <glyph glyph-name="x" unicode="x" horiz-adv-x="1191" 
d="M88 0l383 485v50l-383 483h199l309 -410l309 410h199l-383 -483v-50l383 -485h-199l-309 412l-309 -412h-199z" />
    <glyph glyph-name="y" unicode="y" horiz-adv-x="1210" 
d="M88 1018h184l320 -793v-78h49v78l320 793h182l-443 -1008v-284q0 -60 -36 -92q-32 -29 -93 -29h-12l-393 18v144l366 -19v262z" />
    <glyph glyph-name="z" unicode="z" horiz-adv-x="1150" 
d="M109 0v307l884 547v47l-114 -27h-770v144h933v-307l-884 -547v-47l114 26h770v-143h-933z" />
    <glyph glyph-name="braceleft" unicode="{" horiz-adv-x="1214" 
d="M174 573q0 128 81.5 202.5t201.5 74.5q142 0 266 -152q10 52 10 95q0 149 -67.5 251.5t-243.5 176.5v223h618v-129h-454l-115 26v-47q110 -35 191 -86.5t127.5 -114.5t68 -130.5t21.5 -143.5q0 -108 -72 -246q72 -138 72 -245q0 -76 -21.5 -143.5t-68 -130.5
t-127.5 -114.5t-191 -86.5v-48l115 27h454v-129h-618v223q176 75 243.5 177t67.5 251q0 43 -10 95q-124 -152 -266 -152q-119 0 -201 74.5t-82 201.5zM328 573q0 -67 41 -109t104 -42q58 0 113 41t92 110q-37 70 -92 111t-113 41q-63 0 -104 -42.5t-41 -109.5z" />
    <glyph glyph-name="bar" unicode="|" horiz-adv-x="477" 
d="M170 -303v2050h137v-2050h-137z" />
    <glyph glyph-name="braceright" unicode="}" horiz-adv-x="1208" 
d="M170 -168h455l116 -27v48q-111 35 -192 86.5t-127.5 114.5t-68 130.5t-21.5 143.5q0 109 71 245q-71 136 -71 246q0 76 21.5 143.5t68 130.5t127.5 114.5t192 86.5v47l-116 -26h-455v129h618v-223q-175 -74 -242 -176.5t-67 -251.5q0 -35 8 -93q129 150 267 150
q121 0 202.5 -74.5t81.5 -202.5q0 -127 -82.5 -201.5t-201.5 -74.5q-139 0 -267 149q-8 -58 -8 -92q0 -98 25 -170.5t95 -139.5t189 -118v-223h-618v129zM535 573q37 -70 91.5 -110.5t112.5 -40.5q62 0 104 42t42 109t-42 109.5t-104 42.5q-58 0 -112.5 -41t-91.5 -111z" />
    <glyph glyph-name="asciitilde" unicode="~" horiz-adv-x="1312" 
d="M170 383q0 74 21.5 131t57.5 89t77 47.5t86 15.5q66 0 137.5 -25.5t122 -56.5t112 -56.5t109.5 -25.5q113 0 113 147h137q0 -143 -72 -213.5t-170 -70.5q-66 0 -137 25.5t-121.5 56t-111.5 56t-111 25.5t-81.5 -30.5t-31.5 -114.5h-137z" />
    <glyph glyph-name="uni00A0" unicode="&#xa0;" horiz-adv-x="679" 
 />
    <glyph glyph-name="exclamdown" unicode="&#xa1;" horiz-adv-x="681" 
d="M172 866q0 72 48 122t120 50q71 0 120.5 -50t49.5 -122q0 -70 -49.5 -119t-120.5 -49q-72 0 -120 48.5t-48 119.5zM258 -426l18 946h130l20 -946h-168z" />
    <glyph glyph-name="cent" unicode="&#xa2;" horiz-adv-x="1335" 
d="M170 725q0 205 115.5 350t316.5 172v500l129 -2v-494q74 -6 144 -31.5t133.5 -72t105.5 -124t51 -175.5h-170q-37 239 -264 260l2 -768q225 21 262 260h170q-9 -98 -51 -175.5t-104.5 -124t-132.5 -72t-144 -31.5v-500l-129 2v502q-202 27 -318 172.5t-116 351.5z
M338 725q0 -145 67.5 -248.5t198.5 -130.5l-2 756q-130 -28 -197 -131t-67 -246z" />
    <glyph glyph-name="sterling" unicode="&#xa3;" horiz-adv-x="1271" 
d="M170 0v268q154 50 224.5 122.5t70.5 187.5q0 38 -8 69h-287v129h244q-7 16 -28.5 63.5t-31 71.5t-23.5 65t-20 78t-6 76q0 346 496 314l301 -21v-143l-303 20q-170 13 -249 -26t-79 -156q0 -54 17.5 -107.5t52.5 -125.5t49 -109h430v-129h-393q6 -38 6 -80
q0 -149 -101 -241t-313 -162v-47l115 26h768v-143h-932z" />
    <glyph glyph-name="currency" unicode="&#xa4;" horiz-adv-x="1593" 
d="M170 158l281 280q-78 115 -78 254q0 137 78 252l-281 281l92 92l281 -281q107 80 254 80q143 0 254 -78l278 279l92 -92l-278 -279q78 -115 78 -254q0 -144 -80 -254l280 -280l-92 -92l-280 280q-108 -78 -252 -78q-143 0 -254 78l-281 -280zM510 692q0 -119 81.5 -202.5
t205.5 -83.5q125 0 206.5 83.5t81.5 202.5t-81.5 203t-206.5 84q-124 0 -205.5 -84t-81.5 -203z" />
    <glyph glyph-name="yen" unicode="&#xa5;" horiz-adv-x="1554" 
d="M170 1444h180l404 -705v-116h47v116l403 705h180l-475 -821h299v-129h-348v-99h348v-131h-348v-264h-166v264h-348v131h348v99h-348v129h299z" />
    <glyph glyph-name="brokenbar" unicode="&#xa6;" horiz-adv-x="477" 
d="M170 -303v758h137v-758h-137zM170 989v758h137v-758h-137z" />
    <glyph glyph-name="section" unicode="&#xa7;" horiz-adv-x="1204" 
d="M170 737q0 185 199 244q-82 38 -118 89t-36 128q0 121 99 193.5t272 72.5q113 0 196.5 -29t129 -79.5t66.5 -108t21 -123.5h-168q0 203 -245 203q-203 0 -203 -125q0 -69 48.5 -102.5t184.5 -77.5q19 -6 56 -18q36 -12 55 -18t52.5 -17.5t52 -20t46.5 -22t44 -26
t37 -29.5t32 -35t22.5 -40t16 -47.5t4.5 -54.5q0 -184 -196 -243q79 -37 115 -88.5t36 -126.5q0 -123 -99 -196t-272 -73q-91 0 -163.5 19.5t-118.5 52t-76 77.5t-42.5 92.5t-12.5 100.5h168q0 -205 245 -205q92 0 147.5 30.5t55.5 94.5q0 36 -12 61.5t-44.5 46.5
t-69.5 35.5t-107 37.5q-19 6 -60 19t-61.5 20t-57 20t-56 22.5t-49 25.5t-46 31t-36 36t-29 43t-16.5 50t-7 60zM334 770q0 -20 5 -38.5t10.5 -32.5t19.5 -28.5t23 -24t30.5 -21.5t32 -17.5t38.5 -16.5t38 -15t42 -15t41 -14q116 -38 186 -3t70 120q0 31 -9 56.5t-29 46
t-40 35t-54.5 29.5t-58.5 23.5t-65 22.5q-16 5 -24 8q-117 37 -186.5 3t-69.5 -118z" />
    <glyph glyph-name="dieresis" unicode="&#xa8;" horiz-adv-x="1060" 
d="M170 1323q0 59 42.5 100t106.5 41q63 0 106.5 -41t43.5 -100q0 -61 -43.5 -102t-106.5 -41q-64 0 -106.5 40.5t-42.5 102.5zM592 1323q0 59 42.5 100t106.5 41q63 0 106.5 -41t43.5 -100q0 -61 -43.5 -102t-106.5 -41q-64 0 -106.5 40.5t-42.5 102.5z" />
    <glyph glyph-name="copyright" unicode="&#xa9;" horiz-adv-x="2162" 
d="M170 575q0 188 66 355t183 290t289 195t373 72t373 -72t289.5 -195t183.5 -290t66 -355t-66 -355t-183.5 -290t-289.5 -194.5t-373 -71.5t-373 71.5t-289 194.5t-183 290t-66 355zM301 575q0 -157 57 -299.5t157.5 -249t247.5 -169t318 -62.5t318.5 62.5t248 169
t157.5 249t57 299.5t-57 299.5t-157.5 249t-248 169.5t-318.5 63t-318 -63t-247.5 -169.5t-157.5 -249t-57 -299.5zM575 578q0 148 60 266.5t179.5 190t279.5 71.5q79 0 155.5 -23t146 -69t116.5 -127t57 -187h-168q-22 138 -103.5 200.5t-203.5 62.5q-87 0 -155.5 -30.5
t-110.5 -84t-63.5 -122t-21.5 -148.5q0 -109 36.5 -194.5t117.5 -139.5t197 -54q122 0 203.5 62.5t103.5 200.5h168q-10 -106 -57 -187t-116.5 -127t-146 -69t-155.5 -23q-160 0 -279.5 71.5t-179.5 191t-60 268.5z" />
    <glyph glyph-name="guillemotleft" unicode="&#xab;" horiz-adv-x="1437" 
d="M170 508l569 563l109 -94l-473 -469l473 -471l-109 -94zM590 508l569 563l109 -94l-473 -469l473 -471l-109 -94z" />
    <glyph glyph-name="logicalnot" unicode="&#xac;" 
d="M170 604v137h977v-487h-137v350h-840z" />
    <glyph glyph-name="uni00AD" unicode="&#xad;" 
d="M170 446v138h977v-138h-977z" />
    <glyph glyph-name="registered" unicode="&#xae;" horiz-adv-x="1335" 
d="M170 1051q0 210 138.5 353.5t359.5 143.5t359 -143.5t138 -353.5q0 -137 -60.5 -250t-175 -180.5t-261.5 -67.5t-261.5 67.5t-175.5 180.5t-61 250zM276 1051q0 -106 48 -195t138.5 -143t205.5 -54t205 54t138 143t48 195q0 163 -109 277t-282 114t-282.5 -114
t-109.5 -277zM455 809v489h202q244 0 244 -141q0 -58 -34 -80.5t-105 -29.5v-41h88q51 0 51 -52v-145h-104v160h-238v-160h-104zM559 1073h98q40 0 59.5 1t41.5 7t30.5 19t8.5 35q0 14 -4 24.5t-14 17t-19 10t-29 5t-33 2t-41 0.5h-98v-121z" />
    <glyph glyph-name="macron" unicode="&#xaf;" horiz-adv-x="1001" 
d="M170 1264v135h661v-133z" />
    <glyph glyph-name="degree" unicode="&#xb0;" horiz-adv-x="1189" 
d="M170 1102q0 178 118.5 301t305.5 123t305.5 -123t118.5 -301t-118.5 -301t-305.5 -123t-305.5 123t-118.5 301zM307 1102q0 -119 81.5 -203t205.5 -84q125 0 207 84t82 203t-82 203t-207 84q-124 0 -205.5 -84t-81.5 -203z" />
    <glyph glyph-name="plusminus" unicode="&#xb1;" 
d="M170 51v137h977v-137h-977zM170 612v138h420v292h137v-292h420v-138h-420v-290h-137v290h-420z" />
    <glyph glyph-name="acute" unicode="&#xb4;" horiz-adv-x="1003" 
d="M170 1315l629 162l32 -131l-626 -162z" />
    <glyph glyph-name="paragraph" unicode="&#xb6;" horiz-adv-x="1343" 
d="M170 1272q0 83 15.5 149.5t56.5 129t107.5 104.5t175 67t251.5 25h137v-2050h-137v1098q-143 0 -251.5 25t-175 67.5t-107.5 105t-56.5 129.5t-15.5 150zM1036 -303v2050h135v-2050h-135z" />
    <glyph glyph-name="periodcentered" unicode="&#xb7;" horiz-adv-x="681" 
d="M170 510q0 71 49 119.5t121 48.5q71 0 120.5 -49t49.5 -119q0 -72 -49.5 -121t-120.5 -49q-72 0 -121 49t-49 121z" />
    <glyph glyph-name="cedilla" unicode="&#xb8;" horiz-adv-x="770" 
d="M170 -252q185 0 232 10q60 15 61 54q0 41 -47 41q-55 0 -144 -54l-71 95l90 106h153l-112 -117q64 31 133 31q57 0 95 -28.5t38 -86.5q0 -39 -13 -68t-41 -48.5t-62.5 -32t-86.5 -18.5t-103 -8.5t-122 -2.5v127z" />
    <glyph glyph-name="guillemotright" unicode="&#xbb;" horiz-adv-x="1437" 
d="M170 37l473 471l-473 469l109 94l569 -563l-569 -565zM590 37l473 471l-473 469l108 94l570 -563l-570 -565z" />
    <glyph glyph-name="onequarter" unicode="&#xbc;" horiz-adv-x="2017" 
d="M88 1130q96 64 132.5 133.5t37.5 200.5h303v-870h-153v749l16 74h-31q-6 -98 -28.5 -171.5t-77 -139.5t-142.5 -107zM598 -178l625 1845l129 -45l-625 -1845zM1219 164v285q297 126 350 421h153q-11 -86 -42 -165t-85 -152.5t-139.5 -135.5t-195.5 -104v-30l75 18h330
v285h154v-285h110v-137h-110v-164h-154v164h-446z" />
    <glyph glyph-name="onehalf" unicode="&#xbd;" horiz-adv-x="2082" 
d="M88 1130q96 64 132.5 133.5t37.5 200.5h303v-870h-153v749l16 74h-31q-6 -98 -28.5 -171.5t-77 -139.5t-142.5 -107zM598 -178l625 1845l129 -45l-625 -1845zM1266 463q0 108 31 191.5t86 134.5t125 76.5t153 25.5q157 0 244.5 -78.5t87.5 -216.5q0 -81 -33.5 -147.5
t-90 -114t-139.5 -85.5t-173.5 -62t-200.5 -42v-30l76 14h538v-129h-661v252q25 3 57.5 9.5t85.5 20.5t103 31.5t103 46t92 61t64 78.5t25 97q0 166 -180 166q-119 0 -179.5 -70.5t-60.5 -228.5h-153z" />
    <glyph glyph-name="threequarters" unicode="&#xbe;" horiz-adv-x="2217" 
d="M88 932h154q0 -125 56.5 -173t176.5 -48q102 0 150.5 34.5t48.5 110.5q0 139 -166 139h-100v131h100q64 0 109 26t45 91q0 60 -44 90.5t-143 30.5q-115 0 -168 -40.5t-53 -131.5h-154q0 142 100 221.5t275 79.5q158 0 249 -66.5t91 -166.5q0 -78 -53 -124.5t-144 -60.5
v-31q98 -20 153.5 -66.5t55.5 -137.5q0 -118 -94.5 -188t-257.5 -70q-181 0 -284 87t-103 263zM762 -178l624 1845l130 -45l-625 -1845zM1419 164v285q297 126 350 421h154q-10 -86 -41.5 -165t-86 -152.5t-140 -135.5t-195.5 -104v-30l76 18h330v285h153v-285h111v-137
h-111v-164h-153v164h-447z" />
    <glyph glyph-name="questiondown" unicode="&#xbf;" horiz-adv-x="1081" 
d="M150 -111q0 88 35.5 162t94.5 126t143 93t173 66t192 41v35l-86 -21h-434v129h570v-260q-37 -4 -73.5 -9.5t-92 -19.5t-103 -32t-98.5 -48.5t-86.5 -68t-58.5 -91.5t-23 -118q0 -95 55 -148t168 -53q140 0 206.5 76.5t66.5 231.5h153q0 -202 -110.5 -319.5t-315.5 -117.5
q-183 0 -279.5 94t-96.5 252zM389 866q0 72 49.5 122t120.5 50q73 0 121.5 -49.5t48.5 -122.5q0 -71 -48.5 -119.5t-121.5 -48.5q-71 0 -120.5 49t-49.5 119z" />
    <glyph glyph-name="Agrave" unicode="&#xc0;" horiz-adv-x="1413" 
d="M68 0l467 1444h344l464 -1444h-165l-183 565h-579l-180 -565h-168zM379 1772l35 131l626 -162l-32 -131zM463 709h487l-221 688h-47z" />
    <glyph glyph-name="Aacute" unicode="&#xc1;" horiz-adv-x="1413" 
d="M68 0l467 1444h344l464 -1444h-165l-183 565h-579l-180 -565h-168zM371 1741l628 162l33 -131l-626 -162zM463 709h487l-221 688h-47z" />
    <glyph glyph-name="Acircumflex" unicode="&#xc2;" horiz-adv-x="1413" 
d="M68 0l467 1444h344l464 -1444h-165l-183 565h-579l-180 -565h-168zM375 1669l332 268l331 -268l-96 -94l-235 192l-234 -192zM463 709h487l-221 688h-47z" />
    <glyph glyph-name="Atilde" unicode="&#xc3;" horiz-adv-x="1413" 
d="M68 0l467 1444h344l464 -1444h-165l-183 565h-579l-180 -565h-168zM336 1638q0 145 56.5 213t152.5 68q48 0 89 -17t69.5 -41t53 -48t50 -41t49.5 -17q40 0 62 29.5t22 113.5h137q0 -146 -56.5 -213t-152.5 -67q-48 0 -89 17t-69.5 41t-53 48t-50 41t-49.5 17
q-40 0 -62 -30t-22 -114h-137zM463 709h487l-221 688h-47z" />
    <glyph glyph-name="Adieresis" unicode="&#xc4;" horiz-adv-x="1413" 
d="M68 0l467 1444h344l464 -1444h-165l-183 565h-579l-180 -565h-168zM346 1749q0 59 43 100t107 41q63 0 106 -41t43 -100q0 -61 -43 -102t-106 -41q-65 0 -107.5 41t-42.5 102zM463 709h487l-221 688h-47zM768 1749q0 59 43 100t107 41q63 0 106 -41t43 -100
q0 -61 -43 -102t-106 -41q-65 0 -107.5 41t-42.5 102z" />
    <glyph glyph-name="Aring" unicode="&#xc5;" horiz-adv-x="1413" 
d="M68 0l467 1444h344l464 -1444h-165l-183 565h-579l-180 -565h-168zM463 709h487l-221 688h-47zM463 1794q0 92 65 156.5t177 64.5t177.5 -64.5t65.5 -156.5q0 -93 -65.5 -158t-177.5 -65t-177 64.5t-65 158.5zM600 1794q0 -45 27.5 -70.5t77.5 -25.5q53 0 79.5 25.5
t26.5 70.5q0 44 -27.5 69t-78.5 25q-50 0 -77.5 -25.5t-27.5 -68.5z" />
    <glyph glyph-name="AE" unicode="&#xc6;" horiz-adv-x="2052" 
d="M68 0l804 1444h1070v-144h-725v-505h622v-144h-622v-508h725v-143h-893v567h-488l-315 -567h-178zM641 711h408v686h-27z" />
    <glyph glyph-name="Ccedilla" unicode="&#xc7;" horiz-adv-x="1587" 
d="M129 723q0 211 79.5 378t234.5 265t362 98q275 0 448 -154t205 -423h-168q-25 208 -149.5 321t-335.5 113q-164 0 -280 -77.5t-172 -211t-56 -309.5q0 -177 56 -311t172 -211.5t280 -77.5q211 0 335.5 113.5t149.5 322.5h168q-31 -258 -191 -411.5t-415 -165.5l-94 -99
q64 31 133 31q57 0 95 -28.5t38 -86.5q0 -39 -13 -68t-41 -48.5t-62.5 -32t-86.5 -18.5t-103 -8.5t-122 -2.5v127q185 0 232 10q60 15 61 54q0 41 -47 41q-55 0 -144 -54l-71 95l78 92q-267 35 -421.5 238t-154.5 499z" />
    <glyph glyph-name="Egrave" unicode="&#xc8;" horiz-adv-x="1153" 
d="M150 0v1444h894v-144h-727v-505h625v-144h-625v-508h727v-143h-894zM270 1772l35 131l627 -162l-33 -131z" />
    <glyph glyph-name="Eacute" unicode="&#xc9;" horiz-adv-x="1153" 
d="M150 0v1444h894v-144h-727v-505h625v-144h-625v-508h727v-143h-894zM264 1741l629 162l33 -131l-627 -162z" />
    <glyph glyph-name="Ecircumflex" unicode="&#xca;" horiz-adv-x="1153" 
d="M150 0v1444h894v-144h-727v-505h625v-144h-625v-508h727v-143h-894zM266 1669l332 268l332 -268l-96 -94l-236 192l-233 -192z" />
    <glyph glyph-name="Edieresis" unicode="&#xcb;" horiz-adv-x="1153" 
d="M150 0v1444h894v-144h-727v-505h625v-144h-625v-508h727v-143h-894zM238 1749q0 59 42.5 100t106.5 41q63 0 106.5 -41t43.5 -100q0 -61 -43.5 -102t-106.5 -41q-64 0 -106.5 40.5t-42.5 102.5zM659 1749q0 59 43 100t107 41q63 0 106 -41t43 -100q0 -61 -43 -102
t-106 -41q-65 0 -107.5 41t-42.5 102z" />
    <glyph glyph-name="Igrave" unicode="&#xcc;" horiz-adv-x="1071" 
d="M129 0v143h324v1157h-324v144h813v-144h-321v-1157h321v-143h-813zM209 1772l35 131l626 -162l-32 -131z" />
    <glyph glyph-name="Iacute" unicode="&#xcd;" horiz-adv-x="1071" 
d="M129 0v143h324v1157h-324v144h813v-144h-321v-1157h321v-143h-813zM201 1741l628 162l33 -131l-626 -162z" />
    <glyph glyph-name="Icircumflex" unicode="&#xce;" horiz-adv-x="1071" 
d="M129 0v143h324v1157h-324v144h813v-144h-321v-1157h321v-143h-813zM205 1669l332 268l331 -268l-96 -94l-235 192l-234 -192z" />
    <glyph glyph-name="Idieresis" unicode="&#xcf;" horiz-adv-x="1071" 
d="M129 0v143h324v1157h-324v144h813v-144h-321v-1157h321v-143h-813zM176 1749q0 59 43 100t107 41q63 0 106 -41t43 -100q0 -61 -43 -102t-106 -41q-65 0 -107.5 41t-42.5 102zM598 1749q0 59 43 100t107 41q63 0 106 -41t43 -100q0 -61 -43 -102t-106 -41
q-65 0 -107.5 41t-42.5 102z" />
    <glyph glyph-name="Eth" unicode="&#xd0;" horiz-adv-x="1591" 
d="M129 680v135h152v629h456q81 0 150.5 -7t145.5 -27.5t136 -53.5t116 -88.5t93.5 -129.5t59.5 -179.5t22 -235.5t-22 -236t-59.5 -180t-93.5 -130t-116 -89t-136 -53.5t-145.5 -27.5t-150.5 -7h-456v680h-152zM446 143h291q48 0 87 2t86.5 9.5t85 20t78.5 34.5t72 52
t60 74t47.5 99t29.5 128.5t11 160.5q0 111 -18 199.5t-47 148t-74.5 103t-90.5 67.5t-105.5 37.5t-109.5 17.5t-112 4h-291v-485h396v-135h-396v-537z" />
    <glyph glyph-name="Ntilde" unicode="&#xd1;" horiz-adv-x="1546" 
d="M150 0v1444h337l721 -1397h47l-26 121v1276h166v-1444h-338l-719 1397h-47l26 -121v-1276h-167zM442 1638q0 145 56.5 213t152.5 68q48 0 89.5 -17t69.5 -41t53 -48t50.5 -41t49.5 -17q40 0 62 29.5t22 113.5h137q0 -146 -56.5 -213t-152.5 -67q-48 0 -89 17t-69.5 41
t-53 48t-50 41t-49.5 17q-40 0 -62 -30t-22 -114h-138z" />
    <glyph glyph-name="Ograve" unicode="&#xd2;" horiz-adv-x="1605" 
d="M129 723q0 211 79 378t234 265t363 98q206 0 360 -98t233 -265t79 -378q0 -212 -79 -379.5t-233 -265.5t-360 -98q-156 0 -284.5 56.5t-213.5 156.5t-131.5 236t-46.5 294zM297 723q0 -131 32 -240t93.5 -189.5t159.5 -125.5t223 -45t222 45t158 125.5t92.5 189.5
t31.5 240t-31.5 239t-92.5 188.5t-158 125.5t-222 45q-166 0 -282.5 -78.5t-171 -211.5t-54.5 -308zM475 1772l35 131l627 -162l-33 -131z" />
    <glyph glyph-name="Oacute" unicode="&#xd3;" horiz-adv-x="1605" 
d="M129 723q0 211 79 378t234 265t363 98q206 0 360 -98t233 -265t79 -378q0 -212 -79 -379.5t-233 -265.5t-360 -98q-156 0 -284.5 56.5t-213.5 156.5t-131.5 236t-46.5 294zM297 723q0 -131 32 -240t93.5 -189.5t159.5 -125.5t223 -45t222 45t158 125.5t92.5 189.5
t31.5 240t-31.5 239t-92.5 188.5t-158 125.5t-222 45q-166 0 -282.5 -78.5t-171 -211.5t-54.5 -308zM469 1741l629 162l32 -131l-626 -162z" />
    <glyph glyph-name="Ocircumflex" unicode="&#xd4;" horiz-adv-x="1605" 
d="M129 723q0 211 79 378t234 265t363 98q206 0 360 -98t233 -265t79 -378q0 -212 -79 -379.5t-233 -265.5t-360 -98q-156 0 -284.5 56.5t-213.5 156.5t-131.5 236t-46.5 294zM297 723q0 -131 32 -240t93.5 -189.5t159.5 -125.5t223 -45t222 45t158 125.5t92.5 189.5
t31.5 240t-31.5 239t-92.5 188.5t-158 125.5t-222 45q-166 0 -282.5 -78.5t-171 -211.5t-54.5 -308zM471 1669l332 268l332 -268l-97 -94l-235 192l-234 -192z" />
    <glyph glyph-name="Otilde" unicode="&#xd5;" horiz-adv-x="1605" 
d="M129 723q0 211 79 378t234 265t363 98q206 0 360 -98t233 -265t79 -378q0 -212 -79 -379.5t-233 -265.5t-360 -98q-156 0 -284.5 56.5t-213.5 156.5t-131.5 236t-46.5 294zM297 723q0 -131 32 -240t93.5 -189.5t159.5 -125.5t223 -45t222 45t158 125.5t92.5 189.5
t31.5 240t-31.5 239t-92.5 188.5t-158 125.5t-222 45q-166 0 -282.5 -78.5t-171 -211.5t-54.5 -308zM434 1638q0 145 56.5 213t152.5 68q48 0 89 -17t69.5 -41t53 -48t50 -41t49.5 -17q40 0 62 29.5t22 113.5h138q0 -146 -56.5 -213t-152.5 -67q-48 0 -89.5 17t-69.5 41
t-53 48t-50.5 41t-49.5 17q-40 0 -62 -30t-22 -114h-137z" />
    <glyph glyph-name="Odieresis" unicode="&#xd6;" horiz-adv-x="1605" 
d="M129 723q0 211 79 378t234 265t363 98q206 0 360 -98t233 -265t79 -378q0 -212 -79 -379.5t-233 -265.5t-360 -98q-156 0 -284.5 56.5t-213.5 156.5t-131.5 236t-46.5 294zM297 723q0 -131 32 -240t93.5 -189.5t159.5 -125.5t223 -45t222 45t158 125.5t92.5 189.5
t31.5 240t-31.5 239t-92.5 188.5t-158 125.5t-222 45q-166 0 -282.5 -78.5t-171 -211.5t-54.5 -308zM442 1749q0 59 43 100t107 41q63 0 106 -41t43 -100q0 -61 -43 -102t-106 -41q-65 0 -107.5 41t-42.5 102zM864 1749q0 59 43 100t107 41q63 0 106 -41t43 -100
q0 -61 -43 -102t-106 -41q-65 0 -107.5 41t-42.5 102z" />
    <glyph glyph-name="multiply" unicode="&#xd7;" horiz-adv-x="1128" 
d="M172 215l297 297l-297 297l96 96l297 -297l297 297l96 -96l-296 -297l296 -297l-96 -96l-297 297l-297 -297z" />
    <glyph glyph-name="Oslash" unicode="&#xd8;" horiz-adv-x="1605" 
d="M129 721q0 211 79 378t234 265t363 98q173 0 311 -69l101 174l114 -66l-104 -180q121 -99 185.5 -255t64.5 -345q0 -212 -79 -379.5t-233 -266t-360 -98.5q-177 0 -318 72l-100 -174l-111 66l105 180q-122 99 -187 254.5t-65 345.5zM297 721q0 -304 160 -469l585 1014
q-100 53 -237 53q-125 0 -223 -44.5t-160 -125t-93.5 -189t-31.5 -239.5zM561 176q101 -55 244 -55q125 0 222 45t158 125.5t92.5 189.5t31.5 240q0 307 -160 467z" />
    <glyph glyph-name="Ugrave" unicode="&#xd9;" horiz-adv-x="1361" 
d="M109 537v907h167v-881q0 -227 92 -333.5t312 -106.5t312.5 106.5t92.5 333.5v881h168v-907q0 -557 -573 -557q-571 0 -571 557zM352 1772l35 131l627 -162l-33 -131z" />
    <glyph glyph-name="Uacute" unicode="&#xda;" horiz-adv-x="1361" 
d="M109 537v907h167v-881q0 -227 92 -333.5t312 -106.5t312.5 106.5t92.5 333.5v881h168v-907q0 -557 -573 -557q-571 0 -571 557zM346 1741l629 162l33 -131l-627 -162z" />
    <glyph glyph-name="Ucircumflex" unicode="&#xdb;" horiz-adv-x="1361" 
d="M109 537v907h167v-881q0 -227 92 -333.5t312 -106.5t312.5 106.5t92.5 333.5v881h168v-907q0 -557 -573 -557q-571 0 -571 557zM348 1669l332 268l332 -268l-97 -94l-235 192l-234 -192z" />
    <glyph glyph-name="Udieresis" unicode="&#xdc;" horiz-adv-x="1361" 
d="M109 537v907h167v-881q0 -227 92 -333.5t312 -106.5t312.5 106.5t92.5 333.5v881h168v-907q0 -557 -573 -557q-571 0 -571 557zM319 1749q0 59 43 100t107 41q63 0 106 -41t43 -100q0 -61 -43 -102t-106 -41q-65 0 -107.5 41t-42.5 102zM741 1749q0 59 43 100t107 41
q63 0 106 -41t43 -100q0 -61 -43 -102t-106 -41q-65 0 -107.5 41t-42.5 102z" />
    <glyph glyph-name="Yacute" unicode="&#xdd;" horiz-adv-x="1349" 
d="M68 1444h180l403 -705v-116h47v116l404 705h180l-524 -905v-539h-166v539zM340 1741l629 162l32 -131l-626 -162z" />
    <glyph glyph-name="Thorn" unicode="&#xde;" horiz-adv-x="1259" 
d="M150 0v1444h167v-250h238q115 0 203 -12.5t164 -44.5t125 -85t76.5 -135.5t27.5 -193.5q0 -112 -27.5 -194.5t-76.5 -135.5t-125 -85.5t-164 -45t-203 -12.5h-238v-250h-167zM317 393h240q67 0 117.5 4.5t102 16.5t86.5 35.5t63.5 59t42.5 89.5t14 125q0 84 -21.5 144
t-56.5 95.5t-92.5 55.5t-116 26.5t-139.5 6.5h-240v-658z" />
    <glyph glyph-name="germandbls" unicode="&#xdf;" horiz-adv-x="1126" 
d="M150 0v1047q0 117 33.5 201.5t93 130t127 65.5t149.5 20q162 0 250 -81t88 -195q0 -63 -24.5 -111t-59.5 -77.5t-70 -55t-59.5 -58t-24.5 -71.5q0 -36 22.5 -62t58 -44t79 -36.5t87 -45t79 -62.5t58 -97.5t22.5 -141.5q0 -179 -112 -270.5t-288 -75.5l-227 20v143
l219 -18q121 -10 180.5 47t59.5 162q0 62 -22.5 107t-58 70.5t-79 45t-87 38.5t-79 42t-58 63t-22.5 95q0 62 24.5 109t59.5 76t70 55t59.5 61t24.5 80q0 145 -170 145q-56 0 -95 -11t-73 -41.5t-51 -92t-17 -154.5v-1022h-167z" />
    <glyph glyph-name="agrave" unicode="&#xe0;" horiz-adv-x="1212" 
d="M109 283q0 262 333 297l406 38q-7 138 -80.5 208.5t-206.5 70.5q-58 0 -107 -13.5t-90 -42.5t-64.5 -80.5t-23.5 -121.5h-163q0 80 30 151.5t85 127t141.5 88t191.5 32.5q211 0 333 -126.5t122 -333.5v-435h149v-143h-180q-58 0 -89.5 31t-31.5 88v55l27 107h-49
q-16 -62 -44 -113.5t-74 -95t-116 -68t-159 -24.5q-84 0 -148 22t-99.5 54t-57.5 75.5t-28.5 79t-6.5 72.5zM254 1346l35 131l626 -162l-32 -131zM276 303q0 -87 51.5 -133.5t141.5 -46.5q171 0 275 105t104 266l-377 -39q-100 -9 -147.5 -44t-47.5 -108z" />
    <glyph glyph-name="aacute" unicode="&#xe1;" horiz-adv-x="1212" 
d="M109 283q0 262 333 297l406 38q-7 138 -80.5 208.5t-206.5 70.5q-58 0 -107 -13.5t-90 -42.5t-64.5 -80.5t-23.5 -121.5h-163q0 80 30 151.5t85 127t141.5 88t191.5 32.5q211 0 333 -126.5t122 -333.5v-435h149v-143h-180q-58 0 -89.5 31t-31.5 88v55l27 107h-49
q-16 -62 -44 -113.5t-74 -95t-116 -68t-159 -24.5q-84 0 -148 22t-99.5 54t-57.5 75.5t-28.5 79t-6.5 72.5zM248 1315l629 162l32 -131l-626 -162zM276 303q0 -87 51.5 -133.5t141.5 -46.5q171 0 275 105t104 266l-377 -39q-100 -9 -147.5 -44t-47.5 -108z" />
    <glyph glyph-name="acircumflex" unicode="&#xe2;" horiz-adv-x="1212" 
d="M109 283q0 262 333 297l406 38q-7 138 -80.5 208.5t-206.5 70.5q-58 0 -107 -13.5t-90 -42.5t-64.5 -80.5t-23.5 -121.5h-163q0 80 30 151.5t85 127t141.5 88t191.5 32.5q211 0 333 -126.5t122 -333.5v-435h149v-143h-180q-58 0 -89.5 31t-31.5 88v55l27 107h-49
q-16 -62 -44 -113.5t-74 -95t-116 -68t-159 -24.5q-84 0 -148 22t-99.5 54t-57.5 75.5t-28.5 79t-6.5 72.5zM250 1243l332 268l331 -268l-96 -94l-235 192l-234 -192zM276 303q0 -87 51.5 -133.5t141.5 -46.5q171 0 275 105t104 266l-377 -39q-100 -9 -147.5 -44t-47.5 -108
z" />
    <glyph glyph-name="atilde" unicode="&#xe3;" horiz-adv-x="1212" 
d="M109 283q0 262 333 297l406 38q-7 138 -80.5 208.5t-206.5 70.5q-58 0 -107 -13.5t-90 -42.5t-64.5 -80.5t-23.5 -121.5h-163q0 80 30 151.5t85 127t141.5 88t191.5 32.5q211 0 333 -126.5t122 -333.5v-435h149v-143h-180q-58 0 -89.5 31t-31.5 88v55l27 107h-49
q-16 -62 -44 -113.5t-74 -95t-116 -68t-159 -24.5q-84 0 -148 22t-99.5 54t-57.5 75.5t-28.5 79t-6.5 72.5zM211 1212q0 145 56.5 213t152.5 68q48 0 89 -17t69.5 -41t53 -48t50 -41t49.5 -17q40 0 62 30t22 114h137q0 -146 -56.5 -213.5t-152.5 -67.5q-48 0 -89 17
t-69.5 41t-53 48t-50 41t-49.5 17q-40 0 -62 -30t-22 -114h-137zM276 303q0 -87 51.5 -133.5t141.5 -46.5q171 0 275 105t104 266l-377 -39q-100 -9 -147.5 -44t-47.5 -108z" />
    <glyph glyph-name="adieresis" unicode="&#xe4;" horiz-adv-x="1212" 
d="M109 283q0 262 333 297l406 38q-7 138 -80.5 208.5t-206.5 70.5q-58 0 -107 -13.5t-90 -42.5t-64.5 -80.5t-23.5 -121.5h-163q0 80 30 151.5t85 127t141.5 88t191.5 32.5q211 0 333 -126.5t122 -333.5v-435h149v-143h-180q-58 0 -89.5 31t-31.5 88v55l27 107h-49
q-16 -62 -44 -113.5t-74 -95t-116 -68t-159 -24.5q-84 0 -148 22t-99.5 54t-57.5 75.5t-28.5 79t-6.5 72.5zM221 1323q0 59 43 100t107 41q63 0 106 -41t43 -100q0 -61 -43 -102t-106 -41q-65 0 -107.5 41t-42.5 102zM276 303q0 -87 51.5 -133.5t141.5 -46.5q171 0 275 105
t104 266l-377 -39q-100 -9 -147.5 -44t-47.5 -108zM643 1323q0 59 43 100t107 41q63 0 106 -41t43 -100q0 -61 -43 -102t-106 -41q-65 0 -107.5 41t-42.5 102z" />
    <glyph glyph-name="aring" unicode="&#xe5;" horiz-adv-x="1212" 
d="M109 283q0 262 333 297l406 38q-7 138 -80.5 208.5t-206.5 70.5q-58 0 -107 -13.5t-90 -42.5t-64.5 -80.5t-23.5 -121.5h-163q0 80 30 151.5t85 127t141.5 88t191.5 32.5q211 0 333 -126.5t122 -333.5v-435h149v-143h-180q-58 0 -89.5 31t-31.5 88v55l27 107h-49
q-16 -62 -44 -113.5t-74 -95t-116 -68t-159 -24.5q-84 0 -148 22t-99.5 54t-57.5 75.5t-28.5 79t-6.5 72.5zM276 303q0 -87 51.5 -133.5t141.5 -46.5q171 0 275 105t104 266l-377 -39q-100 -9 -147.5 -44t-47.5 -108zM338 1368q0 92 65 156.5t177 64.5t177.5 -64.5
t65.5 -156.5q0 -93 -65.5 -158t-177.5 -65t-177 64.5t-65 158.5zM475 1368q0 -45 27.5 -70.5t77.5 -25.5q53 0 79.5 25.5t26.5 70.5q0 44 -27.5 69t-78.5 25q-50 0 -77.5 -25.5t-27.5 -68.5z" />
    <glyph glyph-name="ae" unicode="&#xe6;" horiz-adv-x="1994" 
d="M109 283q0 262 333 297l406 38q-7 138 -80.5 208.5t-206.5 70.5q-58 0 -107 -13.5t-90 -42.5t-64.5 -80.5t-23.5 -121.5h-163q0 80 30 151.5t85 127t141.5 88t191.5 32.5q140 0 240.5 -58.5t152.5 -164.5q63 108 172 165.5t248 57.5q218 0 346.5 -131.5t128.5 -363.5v-66
h-802q4 -76 24.5 -138t60.5 -113t108 -79t159 -28q128 0 209 60t110 177h166q-12 -52 -33 -100.5t-60.5 -100t-91 -89t-129.5 -62t-171 -24.5q-184 0 -302.5 80.5t-172.5 220.5h-31q-45 -129 -159 -215t-285 -86q-84 0 -148 22t-99.5 54t-57.5 75.5t-28.5 79t-6.5 72.5z
M276 303q0 -88 51 -134t142 -46q171 0 275 105t104 266l-377 -39q-100 -9 -147.5 -44t-47.5 -108zM1047 604h639q0 128 -82 210.5t-230 82.5q-146 0 -236.5 -83.5t-90.5 -209.5z" />
    <glyph glyph-name="ccedilla" unicode="&#xe7;" horiz-adv-x="1212" 
d="M109 510q0 148 60 266.5t180 190t280 71.5q78 0 154.5 -22.5t146 -68.5t117 -127t57.5 -187h-170q-11 71 -39 123t-69.5 81.5t-90.5 43.5t-106 14q-88 0 -157 -30.5t-111 -84t-63.5 -122t-21.5 -148.5q0 -81 21.5 -150t63.5 -122.5t111 -84t157 -30.5q57 0 106 14
t90.5 43.5t69.5 81.5t39 123h170q-7 -80 -37 -146.5t-73 -111.5t-99 -77t-113 -48t-116 -20l-95 -99q64 31 134 31q57 0 95 -28.5t38 -86.5q0 -39 -13 -68t-41 -48.5t-62.5 -32t-86.5 -18.5t-103 -8.5t-122 -2.5v127q185 0 231 10q60 14 61 54q0 41 -47 41q-54 0 -143 -54
l-72 95l80 94q-192 35 -301.5 178.5t-109.5 343.5z" />
    <glyph glyph-name="egrave" unicode="&#xe8;" horiz-adv-x="1220" 
d="M109 522q0 241 136 378.5t357 137.5q218 0 346.5 -131.5t128.5 -363.5v-66h-805q4 -76 25 -138t61.5 -113t109 -79t159.5 -28q127 0 208 60.5t109 176.5h168q-13 -52 -34 -100t-60.5 -100t-90.5 -89.5t-129 -62t-171 -24.5q-133 0 -234.5 43t-162 118.5t-91 171.5
t-30.5 209zM272 604h641q0 128 -82 210.5t-229 82.5q-148 0 -239 -83.5t-91 -209.5zM283 1346l34 131l627 -162l-33 -131z" />
    <glyph glyph-name="eacute" unicode="&#xe9;" horiz-adv-x="1220" 
d="M109 522q0 241 136 378.5t357 137.5q218 0 346.5 -131.5t128.5 -363.5v-66h-805q4 -76 25 -138t61.5 -113t109 -79t159.5 -28q127 0 208 60.5t109 176.5h168q-13 -52 -34 -100t-60.5 -100t-90.5 -89.5t-129 -62t-171 -24.5q-133 0 -234.5 43t-162 118.5t-91 171.5
t-30.5 209zM272 604h641q0 128 -82 210.5t-229 82.5q-148 0 -239 -83.5t-91 -209.5zM276 1315l629 162l33 -131l-627 -162z" />
    <glyph glyph-name="ecircumflex" unicode="&#xea;" horiz-adv-x="1220" 
d="M109 522q0 241 136 378.5t357 137.5q218 0 346.5 -131.5t128.5 -363.5v-66h-805q4 -76 25 -138t61.5 -113t109 -79t159.5 -28q127 0 208 60.5t109 176.5h168q-13 -52 -34 -100t-60.5 -100t-90.5 -89.5t-129 -62t-171 -24.5q-133 0 -234.5 43t-162 118.5t-91 171.5
t-30.5 209zM272 604h641q0 128 -82 210.5t-229 82.5q-148 0 -239 -83.5t-91 -209.5zM279 1243l331 268l332 -268l-96 -94l-236 192l-233 -192z" />
    <glyph glyph-name="edieresis" unicode="&#xeb;" horiz-adv-x="1220" 
d="M109 522q0 241 136 378.5t357 137.5q218 0 346.5 -131.5t128.5 -363.5v-66h-805q4 -76 25 -138t61.5 -113t109 -79t159.5 -28q127 0 208 60.5t109 176.5h168q-13 -52 -34 -100t-60.5 -100t-90.5 -89.5t-129 -62t-171 -24.5q-133 0 -234.5 43t-162 118.5t-91 171.5
t-30.5 209zM250 1323q0 59 42.5 100t106.5 41q63 0 106.5 -41t43.5 -100q0 -61 -43.5 -102t-106.5 -41q-64 0 -106.5 40.5t-42.5 102.5zM272 604h641q0 128 -82 210.5t-229 82.5q-148 0 -239 -83.5t-91 -209.5zM672 1323q0 59 42.5 100t106.5 41q63 0 106.5 -41t43.5 -100
q0 -61 -43.5 -102t-106.5 -41q-64 0 -106.5 40.5t-42.5 102.5z" />
    <glyph glyph-name="igrave" unicode="&#xec;" horiz-adv-x="907" 
d="M74 1346l35 131l626 -162l-33 -131zM109 0v143h290v750l-215 -19v144l232 20q70 6 102.5 -30t32.5 -109v-756h289v-143h-731z" />
    <glyph glyph-name="iacute" unicode="&#xed;" horiz-adv-x="915" 
d="M78 1315l629 162l32 -131l-626 -162zM117 0v143h289v750l-216 -19v144l234 20q69 6 101 -30t32 -109v-756h289v-143h-729z" />
    <glyph glyph-name="icircumflex" unicode="&#xee;" horiz-adv-x="913" 
d="M78 1243l330 268l331 -268l-96 -94l-235 192l-234 -192zM115 0v143h288v750l-213 -19v144l232 20q70 6 101.5 -30t31.5 -109v-756h291v-143h-731z" />
    <glyph glyph-name="idieresis" unicode="&#xef;" horiz-adv-x="915" 
d="M53 1323q0 59 42.5 100t105.5 41q64 0 107.5 -41t43.5 -100q0 -61 -43 -102t-108 -41q-63 0 -105.5 41t-42.5 102zM117 0v143h289v750l-216 -19v144l234 20q69 6 101 -30t32 -109v-756h289v-143h-729zM475 1323q0 59 42 100t106 41q63 0 106 -41t43 -100q0 -61 -43 -102
t-106 -41q-64 0 -106 40.5t-42 102.5z" />
    <glyph glyph-name="eth" unicode="&#xf0;" horiz-adv-x="1333" 
d="M109 516q0 228 143.5 375t382.5 147q183 0 305.5 -107.5t153.5 -293.5h49l-29 117q-20 161 -117 285.5t-258 205.5l-258 -135l-98 98l199 105q-116 40 -273 63v144q238 -27 434 -121l224 117l98 -99l-186 -98q165 -114 255.5 -282.5t90.5 -383.5q0 -315 -152.5 -494
t-413.5 -179q-259 0 -404.5 148t-145.5 388zM276 516q0 -187 98.5 -290t287.5 -103q95 0 171 32t124.5 87t74 125t25.5 149q0 173 -111.5 276t-300.5 103q-175 0 -272 -102.5t-97 -276.5z" />
    <glyph glyph-name="ntilde" unicode="&#xf1;" horiz-adv-x="1239" 
d="M150 0v1018h167v-176l-26 -117h47q32 144 131.5 228.5t259.5 84.5q177 0 278 -104.5t101 -310.5v-623h-166v600q0 157 -62.5 226t-195.5 69q-163 0 -265 -120.5t-102 -323.5v-451h-167zM299 1212q0 145 56.5 213t152.5 68q48 0 89 -17t69.5 -41t53 -48t50 -41t49.5 -17
q40 0 62 30t22 114h137q0 -146 -56.5 -213.5t-152.5 -67.5q-48 0 -89 17t-69.5 41t-53 48t-50 41t-49.5 17q-40 0 -62 -30t-22 -114h-137z" />
    <glyph glyph-name="ograve" unicode="&#xf2;" horiz-adv-x="1292" 
d="M109 510q0 147 65.5 267t189.5 190.5t283 70.5q158 0 281 -70.5t188.5 -190.5t65.5 -267q0 -148 -65.5 -268.5t-188.5 -191t-281 -70.5q-240 0 -389 151.5t-149 378.5zM276 510q0 -167 98 -277t273 -110q174 0 271.5 110t97.5 277q0 166 -98 275.5t-271 109.5
q-175 0 -273 -109.5t-98 -275.5zM319 1346l35 131l627 -162l-33 -131z" />
    <glyph glyph-name="oacute" unicode="&#xf3;" horiz-adv-x="1292" 
d="M109 510q0 147 65.5 267t189.5 190.5t283 70.5q158 0 281 -70.5t188.5 -190.5t65.5 -267q0 -148 -65.5 -268.5t-188.5 -191t-281 -70.5q-240 0 -389 151.5t-149 378.5zM276 510q0 -167 98 -277t273 -110q174 0 271.5 110t97.5 277q0 166 -98 275.5t-271 109.5
q-175 0 -273 -109.5t-98 -275.5zM311 1315l629 162l33 -131l-627 -162z" />
    <glyph glyph-name="ocircumflex" unicode="&#xf4;" horiz-adv-x="1292" 
d="M109 510q0 147 65.5 267t189.5 190.5t283 70.5q158 0 281 -70.5t188.5 -190.5t65.5 -267q0 -148 -65.5 -268.5t-188.5 -191t-281 -70.5q-240 0 -389 151.5t-149 378.5zM276 510q0 -167 98 -277t273 -110q174 0 271.5 110t97.5 277q0 166 -98 275.5t-271 109.5
q-175 0 -273 -109.5t-98 -275.5zM315 1243l332 268l332 -268l-96 -94l-236 192l-233 -192z" />
    <glyph glyph-name="otilde" unicode="&#xf5;" horiz-adv-x="1292" 
d="M109 510q0 147 65.5 267t189.5 190.5t283 70.5q158 0 281 -70.5t188.5 -190.5t65.5 -267q0 -148 -65.5 -268.5t-188.5 -191t-281 -70.5q-240 0 -389 151.5t-149 378.5zM276 510q0 -167 98 -277t273 -110q174 0 271.5 110t97.5 277q0 166 -98 275.5t-271 109.5
q-175 0 -273 -109.5t-98 -275.5zM276 1212q0 145 56.5 213t152.5 68q48 0 89.5 -17t69.5 -41t53 -48t50.5 -41t49.5 -17q40 0 62 30t22 114h137q0 -146 -56.5 -213.5t-152.5 -67.5q-48 0 -89 17t-69.5 41t-53 48t-50 41t-49.5 17q-40 0 -62 -30t-22 -114h-138z" />
    <glyph glyph-name="odieresis" unicode="&#xf6;" horiz-adv-x="1292" 
d="M109 510q0 147 65.5 267t189.5 190.5t283 70.5q158 0 281 -70.5t188.5 -190.5t65.5 -267q0 -148 -65.5 -268.5t-188.5 -191t-281 -70.5q-240 0 -389 151.5t-149 378.5zM276 510q0 -167 98 -277t273 -110q174 0 271.5 110t97.5 277q0 166 -98 275.5t-271 109.5
q-175 0 -273 -109.5t-98 -275.5zM287 1323q0 59 42.5 100t106.5 41q63 0 106.5 -41t43.5 -100q0 -61 -43.5 -102t-106.5 -41q-64 0 -106.5 40.5t-42.5 102.5zM709 1323q0 59 42.5 100t106.5 41q63 0 106.5 -41t43.5 -100q0 -61 -43.5 -102t-106.5 -41q-64 0 -106.5 40.5
t-42.5 102.5z" />
    <glyph glyph-name="divide" unicode="&#xf7;" 
d="M170 446v138h977v-138h-977zM489 137q0 71 48.5 119.5t121.5 48.5q71 0 120.5 -49t49.5 -119q0 -72 -49.5 -122t-120.5 -50q-73 0 -121.5 49.5t-48.5 122.5zM489 897q0 71 48.5 119.5t121.5 48.5q71 0 120.5 -49t49.5 -119q0 -72 -49.5 -122t-120.5 -50
q-73 0 -121.5 49.5t-48.5 122.5z" />
    <glyph glyph-name="oslash" unicode="&#xf8;" horiz-adv-x="1292" 
d="M109 510q0 147 65.5 267t189.5 190.5t283 70.5q118 0 211 -37l70 121l112 -63l-69 -119q100 -72 155.5 -184.5t55.5 -245.5q0 -148 -65.5 -268.5t-188.5 -191t-281 -70.5q-120 0 -211 36l-71 -122l-111 63l70 119q-102 72 -158.5 186t-56.5 248zM276 510q0 -190 123 -301
l385 663q-67 23 -137 23q-175 0 -273 -109.5t-98 -275.5zM510 145q64 -22 137 -22q174 0 271.5 110t97.5 277q0 190 -121 299z" />
    <glyph glyph-name="ugrave" unicode="&#xf9;" horiz-adv-x="1218" 
d="M129 395v623h168v-600q0 -158 62 -226.5t196 -68.5q163 0 265 120t102 322v453h165v-1018h-165v176l26 117h-47q-32 -144 -131.5 -228.5t-259.5 -84.5q-179 0 -280 104t-101 311zM299 1346l35 131l627 -162l-33 -131z" />
    <glyph glyph-name="uacute" unicode="&#xfa;" horiz-adv-x="1218" 
d="M129 395v623h168v-600q0 -158 62 -226.5t196 -68.5q163 0 265 120t102 322v453h165v-1018h-165v176l26 117h-47q-32 -144 -131.5 -228.5t-259.5 -84.5q-179 0 -280 104t-101 311zM291 1315l629 162l32 -131l-626 -162z" />
    <glyph glyph-name="ucircumflex" unicode="&#xfb;" horiz-adv-x="1218" 
d="M129 395v623h168v-600q0 -158 62 -226.5t196 -68.5q163 0 265 120t102 322v453h165v-1018h-165v176l26 117h-47q-32 -144 -131.5 -228.5t-259.5 -84.5q-179 0 -280 104t-101 311zM295 1243l332 268l331 -268l-96 -94l-235 192l-234 -192z" />
    <glyph glyph-name="udieresis" unicode="&#xfc;" horiz-adv-x="1218" 
d="M129 395v623h168v-600q0 -158 62 -226.5t196 -68.5q163 0 265 120t102 322v453h165v-1018h-165v176l26 117h-47q-32 -144 -131.5 -228.5t-259.5 -84.5q-179 0 -280 104t-101 311zM266 1323q0 59 43 100t107 41q63 0 106 -41t43 -100q0 -61 -43 -102t-106 -41
q-65 0 -107.5 41t-42.5 102zM688 1323q0 59 43 100t107 41q63 0 106 -41t43 -100q0 -61 -43 -102t-106 -41q-65 0 -107.5 41t-42.5 102z" />
    <glyph glyph-name="yacute" unicode="&#xfd;" horiz-adv-x="1210" 
d="M88 1018h184l320 -793v-78h49v78l320 793h182l-443 -1008v-284q0 -60 -35.5 -92t-105.5 -29l-393 18v144l366 -19v262zM283 1315l628 162l33 -131l-627 -162z" />
    <glyph glyph-name="thorn" unicode="&#xfe;" horiz-adv-x="1343" 
d="M150 -373v1878h167v-637l-26 -116h47q34 127 139.5 206.5t272.5 79.5q218 0 351.5 -149.5t133.5 -380.5q0 -229 -133.5 -378.5t-351.5 -149.5q-167 0 -272.5 79t-139.5 205h-47l26 -114v-523h-167zM317 508q0 -192 107.5 -288.5t275.5 -96.5q166 0 266.5 96.5
t100.5 288.5q0 193 -100 290t-267 97q-80 0 -148 -22.5t-121.5 -68.5t-83.5 -121.5t-30 -174.5z" />
    <glyph glyph-name="ydieresis" unicode="&#xff;" horiz-adv-x="1210" 
d="M88 1018h184l320 -793v-78h49v78l320 793h182l-443 -1008v-284q0 -60 -35.5 -92t-105.5 -29l-393 18v144l366 -19v262zM256 1323q0 59 43 100t107 41q63 0 106 -41t43 -100q0 -61 -43 -102t-106 -41q-65 0 -107.5 41t-42.5 102zM678 1323q0 59 42.5 100t106.5 41
q63 0 106.5 -41t43.5 -100q0 -61 -43.5 -102t-106.5 -41q-64 0 -106.5 40.5t-42.5 102.5z" />
    <glyph glyph-name="OE" unicode="&#x152;" horiz-adv-x="2332" 
d="M129 723q0 211 79 378t234 265t363 98q168 0 302 -66t222 -186v232h893v-144h-725v-505h623v-144h-623v-508h725v-143h-893v231q-88 -120 -222 -185.5t-302 -65.5q-156 0 -284.5 56.5t-213.5 156.5t-131.5 236t-46.5 294zM297 723q0 -131 32 -240t93.5 -189.5
t159.5 -125.5t223 -45t222 45t158 125.5t92.5 189.5t31.5 240t-31.5 239t-92.5 188.5t-158 125.5t-222 45q-166 0 -282.5 -78.5t-171 -211.5t-54.5 -308z" />
    <glyph glyph-name="oe" unicode="&#x153;" horiz-adv-x="2156" 
d="M109 510q0 147 65.5 267t189.5 190.5t283 70.5q153 0 272 -65t187 -178q60 118 172.5 180.5t259.5 62.5q218 0 346.5 -131.5t128.5 -363.5v-66h-803q3 -60 16 -111.5t40 -97.5t66.5 -78.5t98 -51.5t132.5 -19q128 0 208.5 60t108.5 177h168q-12 -52 -33 -100.5
t-60.5 -100t-91 -89t-129.5 -62t-171 -24.5q-167 0 -280 66.5t-173 184.5q-68 -117 -188 -184t-275 -67q-240 0 -389 151.5t-149 378.5zM276 510q0 -167 98 -277t273 -110q174 0 271.5 110t97.5 277q0 166 -98 275.5t-271 109.5q-175 0 -273 -109.5t-98 -275.5zM1210 604
h639q0 128 -81.5 210.5t-229.5 82.5q-147 0 -237.5 -84t-90.5 -209z" />
    <glyph glyph-name="Ydieresis" unicode="&#x178;" horiz-adv-x="1349" 
d="M68 1444h180l403 -705v-116h47v116l404 705h180l-524 -905v-539h-166v539zM313 1749q0 59 43 100t107 41q63 0 106 -41t43 -100q0 -61 -43 -102t-106 -41q-65 0 -107.5 41t-42.5 102zM735 1749q0 59 43 100t107 41q63 0 106 -41t43 -100q0 -61 -43 -102t-106 -41
q-65 0 -107.5 41t-42.5 102z" />
    <glyph glyph-name="circumflex" unicode="&#x2c6;" horiz-adv-x="1003" 
d="M170 1243l332 268l332 -268l-97 -94l-235 192l-234 -192z" />
    <glyph glyph-name="tilde" unicode="&#x2dc;" horiz-adv-x="1081" 
d="M170 1208q0 145 56.5 213t152.5 68q48 0 89 -17t69.5 -41t53 -48t50 -41t49.5 -17q40 0 62 29.5t22 113.5h137q0 -146 -56.5 -213t-152.5 -67q-48 0 -89 17t-69.5 41t-53 48t-50 41t-49.5 17q-40 0 -62 -30t-22 -114h-137z" />
    <glyph glyph-name="uni2000" unicode="&#x2000;" horiz-adv-x="1007" 
 />
    <glyph glyph-name="uni2001" unicode="&#x2001;" horiz-adv-x="2015" 
 />
    <glyph glyph-name="uni2002" unicode="&#x2002;" horiz-adv-x="1007" 
 />
    <glyph glyph-name="uni2003" unicode="&#x2003;" horiz-adv-x="2015" 
 />
    <glyph glyph-name="uni2004" unicode="&#x2004;" horiz-adv-x="671" 
 />
    <glyph glyph-name="uni2005" unicode="&#x2005;" horiz-adv-x="503" 
 />
    <glyph glyph-name="uni2006" unicode="&#x2006;" horiz-adv-x="335" 
 />
    <glyph glyph-name="uni2007" unicode="&#x2007;" horiz-adv-x="335" 
 />
    <glyph glyph-name="uni2008" unicode="&#x2008;" horiz-adv-x="251" 
 />
    <glyph glyph-name="uni2009" unicode="&#x2009;" horiz-adv-x="403" 
 />
    <glyph glyph-name="uni200A" unicode="&#x200a;" horiz-adv-x="111" 
 />
    <glyph glyph-name="uni2010" unicode="&#x2010;" 
d="M170 446v138h977v-138h-977z" />
    <glyph glyph-name="uni2011" unicode="&#x2011;" 
d="M170 446v138h977v-138h-977z" />
    <glyph glyph-name="figuredash" unicode="&#x2012;" 
d="M170 446v138h977v-138h-977z" />
    <glyph glyph-name="endash" unicode="&#x2013;" horiz-adv-x="1730" 
d="M170 446v138h1391v-138h-1391z" />
    <glyph glyph-name="emdash" unicode="&#x2014;" horiz-adv-x="2140" 
d="M170 446v138h1800v-138h-1800z" />
    <glyph glyph-name="quoteleft" unicode="&#x2018;" horiz-adv-x="624" 
d="M170 1489l149 39l134 -502l-148 -39z" />
    <glyph glyph-name="quoteright" unicode="&#x2019;" horiz-adv-x="624" 
d="M172 1026l133 502l150 -39l-136 -502z" />
    <glyph glyph-name="quotesinglbase" unicode="&#x201a;" horiz-adv-x="649" 
d="M170 -258l160 592l149 -39l-160 -594z" />
    <glyph glyph-name="quotedblleft" unicode="&#x201c;" horiz-adv-x="909" 
d="M170 1489l149 39l134 -502l-148 -39zM455 1489l149 39l133 -502l-147 -39z" />
    <glyph glyph-name="quotedblright" unicode="&#x201d;" horiz-adv-x="909" 
d="M172 1026l133 502l150 -39l-136 -502zM457 1026l133 502l149 -39l-135 -502z" />
    <glyph glyph-name="quotedblbase" unicode="&#x201e;" horiz-adv-x="935" 
d="M170 -258l160 592l149 -39l-160 -594zM457 -258l159 592l150 -39l-160 -594z" />
    <glyph glyph-name="bullet" unicode="&#x2022;" horiz-adv-x="1333" 
d="M170 512q0 208 141.5 351t352.5 143q206 0 352.5 -144t146.5 -350q0 -139 -67.5 -254t-182 -180.5t-249.5 -65.5q-139 0 -252.5 65.5t-177.5 180t-64 254.5z" />
    <glyph glyph-name="ellipsis" unicode="&#x2026;" horiz-adv-x="1671" 
d="M170 152q0 71 49 119t121 48q71 0 120.5 -48.5t49.5 -118.5q0 -73 -49.5 -122.5t-120.5 -49.5q-72 0 -121 49.5t-49 122.5zM666 152q0 71 48 119t120 48q71 0 121.5 -48.5t50.5 -118.5q0 -73 -50.5 -122.5t-121.5 -49.5q-72 0 -120 49t-48 123zM1161 152q0 71 48 119
t120 48q71 0 121.5 -48.5t50.5 -118.5q0 -73 -50.5 -122.5t-121.5 -49.5q-72 0 -120 49t-48 123z" />
    <glyph glyph-name="uni202F" unicode="&#x202f;" horiz-adv-x="403" 
 />
    <glyph glyph-name="guilsinglleft" unicode="&#x2039;" horiz-adv-x="1017" 
d="M170 508l569 563l109 -94l-473 -469l473 -471l-109 -94z" />
    <glyph glyph-name="guilsinglright" unicode="&#x203a;" horiz-adv-x="1017" 
d="M170 37l473 471l-473 469l109 94l569 -563l-569 -565z" />
    <glyph glyph-name="uni205F" unicode="&#x205f;" horiz-adv-x="503" 
 />
    <glyph glyph-name="Euro" unicode="&#x20ac;" horiz-adv-x="1662" 
d="M170 530v129h186q-2 20 -2 64q0 39 2 59h-186v129h199q19 124 64.5 223.5t116.5 174t173.5 115t228.5 40.5q227 0 366.5 -127t174.5 -346h-166q-22 157 -116.5 243.5t-258.5 86.5q-354 0 -417 -410h475v-129h-486q-2 -18 -2 -59q0 -44 2 -64h486v-129h-473
q60 -407 415 -407q163 0 258 87t119 245h164q-35 -219 -175 -347t-366 -128q-248 0 -395.5 148.5t-187.5 401.5h-199z" />
    <glyph glyph-name="trademark" unicode="&#x2122;" horiz-adv-x="1824" 
d="M170 1335v109h557v-109h-213v-575h-127v575h-217zM807 760v684h262l150 -637h22l152 637h260v-684h-129v569l16 68h-27l-149 -637h-264l-152 637h-26l16 -68v-569h-131z" />
    <glyph glyph-name="uni25FC" unicode="&#x25fc;" horiz-adv-x="1013" 
d="M0 0v1014h1014v-1014h-1014z" />
    <glyph glyph-name="uniFB01" unicode="&#xfb01;" horiz-adv-x="1513" 
d="M88 0v143h227v736l-227 -5v144l227 4v152q0 109 33.5 188t112 124.5t196.5 39.5l398 -21v-143l-406 20q-92 4 -131 -51t-39 -162v-143l551 12q69 1 101 -33t32 -106v-756h281v-143h-1356zM479 143h516v750l-516 -10v-740z" />
    <glyph glyph-name="uniFB03" unicode="&#xfb03;" horiz-adv-x="2160" 
d="M88 0v143h234v731h-234v144h234v53q0 338 344 338h356q89 126 283 117l397 -21v-143l-406 20q-92 4 -131 -51t-39 -162v-143l549 12q71 1 103 -33t32 -106v-756h281v-143h-2003zM489 143h472v736l-185 -5h-287v-731zM489 1018h246l226 4v152q0 48 6 92h-301
q-100 0 -138.5 -47t-38.5 -152v-49zM1126 143h516v750l-516 -10v-740z" />
    </font>
</defs>
</svg>
